osu file format v14

[General]
AudioFilename: Sex Whales & Fraxo - Dead To Me (feat. Lox Chatterbox) (1).mp3
AudioLeadIn: 0
PreviewTime: 53968
Countdown: 0
SampleSet: Soft
StackLeniency: 0.7
Mode: 0
LetterboxInBreaks: 0
WidescreenStoryboard: 0

[Editor]
Bookmarks: 25995,81131
DistanceSpacing: 2
BeatDivisor: 6
GridSize: 32
TimelineZoom: 1.4

[Metadata]
Title:Dead To Me (feat. Lox Chatterbox)
TitleUnicode:Dead To Me (feat. Lox Chatterbox)
Artist:Sex Whales & Fraxo
ArtistUnicode:Sex Whales & Fraxo
Creator:H i k a r i
Version:FINAL
Source:
Tags:sex_whales fraxo dead to me lox_chatterbox trap
BeatmapID:1201367
BeatmapSetID:567188

[Difficulty]
HPDrainRate:7
CircleSize:5
OverallDifficulty:7
ApproachRate:9.7
SliderMultiplier:2
SliderTickRate:1

[Events]
//Background and Video events
0,0,"45589_tokyo_ghoul.jpg",0,0
//Break Periods
2,37952,39554
2,52141,53068
//Storyboard Layer 0 (Background)
//Storyboard Layer 1 (Fail)
//Storyboard Layer 2 (Pass)
//Storyboard Layer 3 (Foreground)
//Storyboard Sound Samples

[TimingPoints]
50,405.405405405405,4,2,1,60,1,0
25185,-200,4,2,1,60,0,0
25455,-100,4,2,1,60,0,0
25995,-100,4,2,1,60,0,0
40185,-200,4,2,1,60,0,0
40590,-100,4,2,1,60,0,0
55185,-100,4,2,1,60,0,1
64509,-100,4,2,0,60,0,1
64914,-100,4,2,1,60,0,1
66536,-100,4,2,1,60,0,0
68158,-100,4,2,1,60,0,1
77347,-100,4,2,1,60,0,1
77482,-100,4,2,0,60,0,1
77887,-50,4,2,1,60,0,1
78698,-66.6666666666667,4,2,1,60,0,1
79239,-100,4,2,1,60,0,1
79509,-200,4,2,2,60,0,0
79914,-200,4,2,2,5,0,0
80320,-200,4,2,2,60,0,0
80725,-200,4,2,2,60,0,0
80928,-200,4,2,2,60,0,0
81131,-100,4,2,1,60,0,0
93698,-200,4,2,1,60,0,0
93968,-200,4,2,1,60,0,0
94104,-100,4,2,1,60,0,1
96941,-200,4,2,1,60,0,1
97347,-100,4,2,1,60,0,1
105860,-133.333333333333,4,2,1,60,0,1
106266,-200,4,2,1,60,0,1
106468,-200,4,2,1,5,0,1
106536,-200,4,2,1,60,0,1
106739,-200,4,2,1,5,0,1
106806,-200,4,2,1,60,0,1
107077,-100,4,2,1,60,0,0

[Colours]
Combo1 : 128,0,0
Combo2 : 192,192,192
Combo3 : 128,128,128
Combo4 : 64,0,0

[HitObjects]
208,184,25185,6,0,L|216:108,1,66.6666666666667
232,104,25995,6,0,P|192:48|124:44,1,133.333333333333,4|0,1:0|0:0,0:0:0:0:
48,96,26401,38,0,L|56:176,1,66.6666666666667
96,240,26671,1,0,0:0:0:0:
208,184,26806,2,0,B|260:188|260:188|292:208|292:208|380:212,1,133.333333333333,8|0,0:0|0:0,0:0:0:0:
244,332,27212,2,0,L|236:265,1,66.6666666666667
232,104,27482,1,0,0:0:0:0:
440,148,27617,2,0,B|460:212|460:212|440:292,1,133.333333333333,2|0,0:0|0:0,0:0:0:0:
376,64,28022,2,0,P|416:40|460:44,1,66.6666666666667
504,72,28293,1,0,0:0:0:0:
296,128,28428,6,0,L|112:120,1,133.333333333333,8|0,0:0|0:0,0:0:0:0:
48,96,28833,2,0,P|24:176|72:232,1,133.333333333333,2|0,0:0|0:0,0:0:0:0:
176,344,29239,2,0,P|200:264|152:208,1,133.333333333333,2|0,0:0|0:0,0:0:0:0:
137,282,29644,2,0,B|189:286|189:286|217:278|217:278|293:286,1,133.333333333333
496,276,30049,2,8,L|364:264,1,133.333333333333,8|0,0:0|0:0,0:0:0:0:
299,193,30455,2,0,P|291:141|295:109,1,66.6666666666667
464,88,30725,1,0,0:0:0:0:
272,48,30860,38,0,L|192:40,1,66.6666666666667,2|0,0:0|0:0,0:0:0:0:
165,102,31131,1,0,0:0:0:0:
160,224,31266,2,0,P|180:192|160:96,1,133.333333333333,2|0,0:0|0:0,0:0:0:0:
12,144,31671,2,0,L|92:152,1,66.6666666666667,8|0,0:0|0:0,0:0:0:0:
240,260,31941,1,0,0:0:0:0:
56,224,32077,2,0,P|35:285|61:346,1,133.333333333333,2|0,0:0|0:0,0:0:0:0:
144,328,32482,6,0,B|224:312|196:368|312:344,1,133.333333333333,4|0,0:1|0:0,0:0:0:0:
360,300,32887,2,0,P|376:260|368:212,1,66.6666666666667
340,144,33158,1,0,0:0:0:0:
440,156,33293,2,0,L|528:160,1,66.6666666666667,8|0,0:0|0:0,0:0:0:0:
384,60,33563,1,0,0:0:0:0:
296,68,33698,2,0,L|229:71,1,66.6666666666667,2|0,0:0|0:0,0:0:0:0:
156,76,33968,1,0,0:0:0:0:
72,28,34104,38,0,B|52:64|52:64|68:200,1,133.333333333333,2|0,0:0|0:0,0:0:0:0:
212,288,34509,2,0,B|222:196|222:196|202:160,1,133.333333333333
100,352,34914,2,0,B|148:348|148:348|180:372|180:372|268:364,1,133.333333333333,8|0,0:0|0:0,0:0:0:0:
360,300,35320,2,0,L|428:304,1,66.6666666666667,2|0,0:0|0:0,0:0:0:0:
488,352,35590,1,0,0:0:0:0:
480,228,35725,6,0,B|488:124|488:124|452:164,1,133.333333333333,2|0,0:0|0:0,0:0:0:0:
272,208,36131,2,0,B|320:212|320:212|356:192|356:192|432:200,1,133.333333333333,2|0,0:0|0:0,0:0:0:0:
184,160,36536,2,0,P|168:212|184:256,1,66.6666666666667,8|0,0:0|0:0,0:0:0:0:
236,296,36806,1,0,0:0:0:0:
256,108,36941,2,0,P|218:68|172:59,1,66.6666666666667,2|0,0:0|0:0,0:0:0:0:
240,304,37212,1,0,0:0:0:0:
124,40,37347,6,0,L|332:48,1,200,2|0,0:0|0:0,0:0:0:0:
132,72,40049,21,0,0:0:0:0:
132,160,40185,2,0,L|120:88,1,66.6666666666667
64,204,40590,6,0,B|144:184|116:240|224:216,1,133.333333333333,4|0,1:0|3:0,0:0:0:0:
248,160,40995,1,0,3:0:0:0:
92,280,41131,2,0,P|84:308|96:360,1,66.6666666666667,0|0,3:0|3:0,0:0:0:0:
304,228,41401,2,0,L|292:40,1,133.333333333333,8|0,0:0|0:0,0:0:0:0:
388,304,41806,2,0,L|384:344,5,33.3333333333333,0|0|0|0|0|0,3:0|3:0|3:0|3:0|3:0|3:0,3:0:0:0:
396,200,42212,38,0,P|456:192|500:216,1,66.6666666666667,0|0,0:0|3:0,0:0:0:0:
492,272,42482,1,0,3:0:0:0:
296,332,42617,2,0,L|132:320,1,133.333333333333,0|0,3:0|3:0,0:0:0:0:
152,188,43022,2,0,P|176:224|172:276,1,66.6666666666667,8|0,0:0|3:0,0:0:0:0:
88,344,43293,1,0,3:0:0:0:
72,172,43428,2,0,P|116:116|216:124,1,133.333333333333,2|0,0:0|3:0,0:0:0:0:
272,132,43833,6,0,L|432:124,1,133.333333333333,2|0,0:0|3:0,0:0:0:0:
408,280,44239,2,0,L|321:145,1,133.333333333333,2|0,0:0|3:0,0:0:0:0:
472,92,44644,38,0,L|398:234,1,133.333333333333,8|0,0:0|0:0,0:0:0:0:
280,332,45049,2,0,P|328:316|376:332,1,66.6666666666667,2|0,0:0|3:0,0:0:0:0:
408,356,45320,1,0,3:0:0:0:
204,368,45455,5,0,0:0:0:0:
140,320,45590,1,0,3:0:0:0:
208,292,45725,1,0,3:0:0:0:
196,188,45860,1,2,0:0:0:0:
148,252,45995,1,0,3:0:0:0:
120,184,46130,1,0,3:0:0:0:
160,120,46266,2,0,B|208:116|208:116|248:136|248:136|320:128,1,133.333333333333,8|0,0:0|3:0,0:0:0:0:
352,0,46671,2,0,L|340:68,1,66.6666666666667,0|0,3:0|3:0,0:0:0:0:
312,208,46941,1,0,3:0:0:0:
428,152,47077,38,0,L|468:156,4,33.3333333333333,2|0|0|0|0,3:2|3:0|3:0|3:0|3:0,3:0:0:0:
408,256,47482,2,0,B|420:356|420:356|464:296,1,133.333333333333,2|0,0:0|3:0,0:0:0:0:
332,308,47887,2,0,B|280:304|280:304|248:320|248:320|168:312,1,133.333333333333,8|0,0:0|3:0,0:0:0:0:
216,160,48293,2,0,L|220:244,1,66.6666666666667,2|0,0:0|3:0,0:0:0:0:
304,384,48563,1,0,3:0:0:0:
148,252,48698,6,2,P|104:300|112:380,1,133.333333333333,2|0,0:0|3:0,0:0:0:0:
224,268,49104,2,0,P|204:205|131:172,1,133.333333333333,2|0,0:0|3:0,0:0:0:0:
168,324,49509,38,0,P|231:338|296:291,1,133.333333333333,8|0,0:0|3:0,0:0:0:0:
380,248,49914,2,0,L|424:252,5,33.3333333333333,0|0|0|0|0|0,3:0|3:0|3:0|3:0|3:0|3:0,3:0:0:0:
332,172,50320,2,0,L|496:184,1,133.333333333333,2|0,0:0|3:0,0:0:0:0:
244,140,50725,2,0,B|236:172|236:172|248:228,1,66.6666666666667,2|0,0:0|3:0,0:0:0:0:
312,80,50995,1,0,3:0:0:0:
332,172,51131,2,0,B|363:162|363:162|406:124,1,66.6666666666667,8|0,0:0|3:0,0:0:0:0:
380,248,51401,1,0,3:0:0:0:
312,80,51536,2,0,B|288:57|288:57|233:39,1,66.6666666666667,2|0,0:0|3:0,0:0:0:0:
172,84,51806,1,0,3:0:0:0:
200,284,51941,37,2,3:2:0:0:
256,192,53563,12,0,55049,0:0:0:0:
216,76,55185,37,4,1:0:0:0:
136,136,55320,2,0,P|128:184|152:232,1,66.6666666666667
192,264,55590,2,0,L|32:248,1,133.333333333333,2|0,0:0|0:0,0:0:0:0:
264,304,55995,2,0,P|272:256|248:208,1,66.6666666666667,8|0,0:0|0:0,0:0:0:0:
124,44,56266,1,0,0:0:0:0:
192,340,56401,2,0,L|352:356,1,133.333333333333,2|0,0:0|0:0,0:0:0:0:
440,292,56806,2,0,B|452:252|452:252|440:180,1,66.6666666666667,2|0,0:0|0:0,0:0:0:0:
396,104,57077,1,0,0:0:0:0:
324,192,57212,2,0,B|352:222|352:222|420:248,1,66.6666666666667,2|0,0:0|0:0,0:0:0:0:
504,124,57482,1,0,0:0:0:0:
300,108,57617,6,0,L|144:112,1,133.333333333333,8|0,0:0|0:0,0:0:0:0:
72,108,58022,38,0,L|76:136,1,16.6666666666667,8|0,0:3|0:0,0:0:0:0:
120,268,58293,5,2,0:0:0:0:
176,212,58428,2,0,L|264:216,1,66.6666666666667
304,272,58698,1,0,0:0:0:0:
396,104,58833,2,0,P|404:48|396:16,1,66.6666666666667,2|0,0:0|0:0,0:0:0:0:
336,4,59104,1,0,0:0:0:0:
416,196,59239,37,8,0:0:0:0:
196,112,59374,1,0,0:0:0:0:
224,304,59509,1,0,0:0:0:0:
300,108,59644,1,2,0:0:0:0:
152,340,59779,1,0,0:0:0:0:
432,352,59914,1,0,0:0:0:0:
256,176,60049,5,0,0:0:0:0:
176,212,60185,2,0,L|140:216,2,33.3333333333333,2|0|0,0:0|0:0|0:0,0:0:0:0:
20,136,60455,2,0,P|56:124|116:152,1,66.6666666666667,2|0,0:0|0:0,0:0:0:0:
224,304,60725,1,0,0:0:0:0:
44,288,60860,2,0,L|16:168,1,66.6666666666667,8|0,0:0|0:0,0:0:0:0:
180,24,61131,2,0,L|164:88,1,66.6666666666667,2|0,0:0|0:0,0:0:0:0:
160,311,61401,2,0,P|192:314|223:303,1,66.6666666666667,2|0,0:0|0:0,0:0:0:0:
320,220,61671,37,4,1:0:0:0:
428,68,61806,2,0,L|422:134,1,66.6666666666667
451,223,62077,2,0,B|404:228|404:228|364:216|364:216|283:223,1,133.333333333333,2|0,0:0|0:0,0:0:0:0:
356,372,62482,2,0,L|350:305,1,66.6666666666667,8|0,0:0|0:0,0:0:0:0:
244,156,62752,1,0,0:0:0:0:
244,156,62887,2,0,B|184:184|184:184|100:168,1,133.333333333333,2|0,0:0|0:0,0:0:0:0:
180,24,63293,6,0,L|172:108,1,66.6666666666667,2|0,0:0|0:0,0:0:0:0:
57,199,63563,2,0,L|133:163,1,66.6666666666667,2|0,0:0|0:0,0:0:0:0:
264,68,63833,1,0,0:0:0:0:
184,216,63968,1,0,0:0:0:0:
332,120,64104,2,0,B|380:124|380:124|420:104|420:104|488:108,1,133.333333333333,8|0,0:0|0:0,0:0:0:0:
416,44,64509,37,8,3:0:0:0:
397,120,64644,1,8,3:0:0:0:
380,196,64779,1,4,3:0:0:0:
315,341,64914,6,0,L|304:276,1,66.6666666666667,2|0,0:0|0:0,0:0:0:0:
380,196,65185,1,2,0:0:0:0:
232,352,65320,2,0,P|168:360|132:344,1,66.6666666666667,2|0,0:0|0:0,0:0:0:0:
136,292,65590,1,2,0:0:0:0:
184,104,65725,2,0,L|180:16,2,66.6666666666667,8|0|2,0:0|0:0|0:0,0:0:0:0:
100,152,66131,1,0,0:0:0:0:
244,180,66266,1,2,0:0:0:0:
192,24,66401,1,0,0:0:0:0:
240,192,66536,37,0,0:0:0:0:
396,92,66941,6,0,L|464:100,2,66.6666666666667
320,32,67347,38,0,B|308:80|308:80|328:192,1,133.333333333333,0|2,0:0|0:0,0:0:0:0:
420,320,67752,2,0,B|424:260|424:260|416:236|416:236|420:180,1,133.333333333333
488,176,68158,5,4,1:0:0:0:
348,276,68293,2,0,L|256:268,1,66.6666666666667
200,296,68563,2,0,P|216:224|296:196,1,133.333333333333,2|0,0:0|0:0,0:0:0:0:
352,284,68968,1,8,0:0:0:0:
76,200,69104,2,0,L|168:192,1,66.6666666666667
312,96,69374,2,0,L|136:88,1,133.333333333333,2|0,0:0|0:0,0:0:0:0:
84,84,69779,2,0,B|72:48|72:48|80:-32,1,66.6666666666667,0|2,0:0|0:0,0:0:0:0:
127,159,70049,2,0,B|101:187|101:187|28:220,1,66.6666666666667,0|2,0:0|0:0,0:0:0:0:
178,89,70320,2,0,B|215:96|215:96|280:143,1,66.6666666666667
328,160,70590,38,0,P|316:84|324:-20,1,133.333333333333,8|0,0:0|0:0,0:0:0:0:
344,244,70995,6,0,L|340:264,1,16.6666666666667,8|0,0:3|0:0,0:0:0:0:
436,152,71266,37,2,0:0:0:0:
388,344,71401,2,0,L|280:352,1,66.6666666666667,0|2,0:0|0:0,0:0:0:0:
96,272,71671,1,0,0:0:0:0:
176,220,71806,2,0,P|232:236|256:292,1,66.6666666666667,2|0,0:0|0:0,0:0:0:0:
321,348,72077,1,2,0:0:0:0:
256,140,72212,1,8,0:0:0:0:
176,316,72347,2,0,L|188:388,1,66.6666666666667,0|2,0:0|0:0,0:0:0:0:
140,132,72617,1,0,0:0:0:0:
344,244,72752,1,2,0:0:0:0:
288,8,72887,1,0,0:0:0:0:
176,220,73022,5,0,0:0:0:0:
400,72,73158,2,0,L|444:76,2,33.3333333333333,2|0|0,0:0|0:0|0:0,0:0:0:0:
68,100,73428,2,0,P|64:156|76:188,1,66.6666666666667,2|0,0:0|0:0,0:0:0:0:
96,272,73698,1,2,0:0:0:0:
256,140,73833,2,0,L|356:148,1,66.6666666666667,8|0,0:0|0:0,0:0:0:0:
512,284,74104,2,0,L|412:292,1,66.6666666666667,2|0,0:0|0:0,0:0:0:0:
255,345,74374,2,0,P|299:341|351:369,1,66.6666666666667,2|0,0:0|0:0,0:0:0:0:
176,316,74644,37,4,1:0:0:0:
140,132,74779,2,0,L|144:212,1,66.6666666666667
244,256,75049,2,0,B|320:276|292:212|400:240,1,133.333333333333,2|0,0:0|0:0,0:0:0:0:
476,96,75455,2,0,P|432:112|412:152,1,66.6666666666667,8|0,0:0|0:0,0:0:0:0:
484,208,75725,1,0,0:0:0:0:
272,121,75860,2,0,L|76:137,1,133.333333333333,2|0,0:0|0:0,0:0:0:0:
68,68,76266,5,0,0:0:0:0:
32,200,76401,2,0,B|28:240|28:240|36:300,1,66.6666666666667,2|0,0:0|0:0,0:0:0:0:
100,352,76671,1,2,0:0:0:0:
176,316,76806,2,0,L|284:304,1,66.6666666666667
332,296,77077,1,8,0:0:0:0:
380,132,77212,2,0,L|384:92,3,33.3333333333333,0|0|0|0,0:0|0:0|3:0|3:0,0:0:0:0:
448,200,77482,37,8,3:0:0:0:
314,206,77617,1,8,3:0:0:0:
181,213,77752,1,4,3:0:0:0:
92,132,77887,6,0,B|72:80|77:30|77:30|116:-8|164:-8|197:35|168:68|140:92|96:80|96:80|140:92|171:69|225:221,1,400,2|2,0:0|0:0,0:0:0:0:
232,280,78428,1,0,0:0:0:0:
276,76,78563,1,2,0:0:0:0:
92,132,78698,1,8,0:0:0:0:
106,236,78833,2,0,L|122:400,1,100.000003814697
174,115,79104,1,2,0:0:0:0:
36,288,79239,2,0,L|-16:284,2,33.3333333333333
116,336,79509,6,0,B|96:264|136:180|136:180|176:144|212:164|236:200|216:224|188:244|136:212,1,350,2|0,0:0|0:0,0:0:0:0:
140,214,81131,6,0,P|203:225|275:173,1,133.333333333333,4|0,1:0|0:0,0:0:0:0:
332,136,81536,2,0,L|428:140,1,66.6666666666667,2|0,0:0|0:0,0:0:0:0:
512,160,81806,1,0,0:0:0:0:
340,40,81941,2,0,B|240:48|240:48|284:104,1,133.333333333333,8|0,0:0|0:0,0:0:0:0:
400,216,82347,1,0,0:0:0:0:
440,96,82482,2,0,P|452:44|440:12,1,66.6666666666667,0|2,0:0|0:0,0:0:0:0:
336,124,82752,37,0,0:0:0:0:
392,312,82887,1,0,0:0:0:0:
512,160,83022,1,2,0:0:0:0:
316,228,83158,5,0,0:0:0:0:
440,96,83293,1,0,0:0:0:0:
492,264,83428,1,2,0:0:0:0:
288,336,83563,2,0,L|140:332,1,133.333333333333,8|0,0:0|0:0,0:0:0:0:
80,304,83968,6,0,L|76:284,1,16.6666666666667,2|0,0:0|0:0,0:0:0:0:
80,264,84374,21,0,0:0:0:0:
112,188,84509,1,0,0:0:0:0:
32,196,84644,1,0,0:0:0:0:
164,268,84779,2,0,L|244:272,2,66.6666666666667
296,240,85185,2,0,B|304:140|304:140|264:184,1,133.333333333333,8|0,0:0|0:0,0:0:0:0:
212,96,85590,1,0,0:0:0:0:
372,256,85725,2,0,B|404:268|404:268|472:248,1,66.6666666666667
452,184,85995,5,0,0:0:0:0:
400,352,86131,1,0,0:0:0:0:
281,164,86266,1,0,0:0:0:0:
289,339,86402,1,0,0:0:0:0:
192,276,86536,2,0,L|120:280,1,66.6666666666667
88,176,86806,2,0,B|140:172|140:172|168:188|168:188|248:184,1,133.333333333333,8|0,0:0|0:0,0:0:0:0:
215,29,87212,2,0,L|211:109,1,66.6666666666667
125,279,87482,1,0,0:0:0:0:
395,189,87617,38,0,P|299:153|251:205,1,133.333333333333,4|0,1:0|0:0,0:0:0:0:
180,210,88022,2,0,L|196:298,1,66.6666666666667
289,339,88293,1,0,0:0:0:0:
380,280,88428,2,0,P|404:276|468:300,2,66.6666666666667,8|0|0,0:0|0:0|0:0,0:0:0:0:
196,352,88833,2,0,L|32:348,1,133.333333333333,2|0,0:0|0:0,0:0:0:0:
40,156,89239,6,0,B|36:192|36:192|48:240,1,66.6666666666667
125,279,89509,1,0,0:0:0:0:
100,112,89644,2,0,B|70:90|70:90|23:76,1,66.6666666666667
108,184,89914,1,0,0:0:0:0:
240,132,90049,2,0,L|336:136,1,66.6666666666667,8|0,0:0|0:0,0:0:0:0:
396,104,90320,1,0,0:0:0:0:
480,176,90455,38,0,B|452:260|500:228|472:320,1,133.333333333333,2|0,0:0|0:0,0:0:0:0:
416,352,90860,6,0,L|328:356,1,66.6666666666667
256,240,91131,2,0,L|344:244,1,66.6666666666667
204,352,91401,1,0,0:0:0:0:
176,176,91536,1,0,0:0:0:0:
392,280,91671,2,0,P|404:232|396:200,1,66.6666666666667,8|0,0:0|0:0,0:0:0:0:
336,168,91941,1,0,0:0:0:0:
192,262,92077,2,0,B|276:274|240:230|364:246,1,133.333333333333,2|0,0:0|0:0,0:0:0:0:
104,304,92482,38,0,B|96:272|96:272|104:216,1,66.6666666666667,2|0,0:0|0:0,0:0:0:0:
68,148,92752,2,0,L|-32:156,1,66.6666666666667,0|2,0:0|0:0,0:0:0:0:
164,24,93022,2,0,B|168:57|168:57|160:89,1,66.6666666666667,0|2,0:0|0:0,0:0:0:0:
176,176,93293,2,0,L|242:170,2,66.6666666666667,0|2|0,0:0|0:0|0:0,0:0:0:0:
256,192,93698,6,0,L|168:200,1,66.6666666666667
108,228,94104,5,4,1:0:0:0:
184,336,94239,2,0,L|176:392,2,33.3333333333333,0|0|0,3:0|3:0|3:0,3:0:0:0:
320,256,94509,1,0,3:0:0:0:
104,304,94644,2,0,L|20:308,1,66.6666666666667
288,352,94914,1,8,0:0:0:0:
384,144,95049,2,0,P|396:220|376:252,1,66.6666666666667,0|0,3:0|3:0,3:0:0:0:
312,100,95320,1,0,3:0:0:0:
400,300,95455,2,0,L|492:288,1,66.6666666666667,0|0,3:0|3:0,3:0:0:0:
496,212,95725,5,2,0:0:0:0:
220,328,95860,2,0,L|172:336,2,33.3333333333333,0|0|0,3:0|3:0|3:0,3:0:0:0:
380,64,96131,1,2,0:0:0:0:
288,352,96266,2,0,B|276:320|276:320|288:232,1,66.6666666666667,0|0,3:0|3:0,3:0:0:0:
384,144,96536,1,8,0:0:0:0:
272,200,96671,2,0,P|220:208|172:204,1,66.6666666666667
68,128,96941,38,0,L|72:176,2,33.3333333333333
52,280,97347,5,0,0:0:0:0:
160,96,97482,2,0,L|208:100,2,33.3333333333333,0|0|0,3:0|3:0|3:0,3:0:0:0:
206,207,97752,1,0,3:0:0:0:
88,36,97887,2,0,L|8:44,1,66.6666666666667,0|0,0:0|3:0,0:0:0:0:
192,20,98158,1,8,0:0:0:0:
250,128,98293,2,0,P|202:108|178:68,1,66.6666666666667,0|0,0:0|3:0,0:0:0:0:
328,52,98563,1,0,0:0:0:0:
384,144,98698,2,0,L|376:260,1,66.6666666666667,0|0,3:0|3:0,0:0:0:0:
292,316,98968,38,0,B|324:304|324:304|376:320,1,66.6666666666667,0|0,0:0|3:0,0:0:0:0:
208,356,99239,2,0,L|120:348,1,66.6666666666667
52,280,99509,1,0,0:0:0:0:
141,198,99644,2,0,P|197:202|237:246,1,66.6666666666667,0|8,3:0|0:0,0:0:0:0:
208,356,99914,1,0,0:0:0:0:
172,116,100049,1,0,3:0:0:0:
304,232,100185,2,0,L|392:240,2,66.6666666666667,0|0|0,0:0|3:0|3:0,3:0:0:0:
92,132,100590,5,4,1:0:0:0:
340,44,100725,2,0,L|392:48,2,33.3333333333333,0|0|0,3:0|3:0|3:0,3:0:0:0:
268,140,100995,1,0,0:0:0:0:
448,88,101131,2,0,B|456:56|456:56|452:8,1,66.6666666666667,0|0,0:0|3:0,0:0:0:0:
420,168,101401,1,8,0:0:0:0:
464,256,101536,2,0,L|452:352,1,66.6666666666667
337,331,101806,2,0,B|289:335|289:335|257:351|257:351|177:359,1,133.333333333333,0|0,0:0|3:0,0:0:0:0:
104,296,102212,37,0,0:0:0:0:
128,192,102347,2,0,L|132:276,1,66.6666666666667,0|0,3:0|3:0,0:0:0:0:
72,96,102617,2,0,P|144:76|216:148,1,133.333333333333,0|0,0:0|3:0,0:0:0:0:
20,176,103022,1,8,0:0:0:0:
268,140,103158,2,0,L|280:40,1,66.6666666666667
224,220,103428,6,0,L|228:248,1,16.6666666666667,2|0,0:0|0:0,0:0:0:0:
404,156,103698,37,0,0:0:0:0:
444,92,103833,2,0,P|480:88|536:100,1,66.6666666666667
404,280,104104,1,0,0:0:0:0:
404,280,104239,2,0,L|300:288,2,66.6666666666667
221,317,104644,2,0,B|209:205|209:205|257:253,1,133.333333333333,8|0,0:0|0:0,0:0:0:0:
136,284,105049,2,0,B|100:296|100:296|32:268,1,66.6666666666667,2|0,0:0|0:0,0:0:0:0:
28,204,105320,1,0,0:0:0:0:
88,76,105455,6,0,L|96:172,2,66.6666666666667,2|0|0,0:0|0:0|0:0,0:0:0:0:
184,56,105860,38,0,L|172:112,2,50.0000019073487,2|0|0,0:0|0:0|0:0,0:0:0:0:
223,219,106266,6,0,P|259:227|279:219,1,50,2|0,0:0|0:0,0:0:0:0:
444,148,106536,2,0,P|408:140|388:148,1,50
344,196,106806,1,0,0:0:0:0:
344,196,107077,5,4,1:0:0:0:
