osu file format v14

[General]
AudioFilename: deadtome.mp3
AudioLeadIn: 0
PreviewTime: 440
Countdown: 0
SampleSet: Normal
StackLeniency: 0.5
Mode: 0
LetterboxInBreaks: 0
WidescreenStoryboard: 1

[Editor]
DistanceSpacing: 6
BeatDivisor: 3
GridSize: 16
TimelineZoom: 5.499997

[Metadata]
Title:Dead To Me (SecondBeat)
TitleUnicode:Dead To Me (SecondBeat)
Artist:Sex Whales & Fraxo
ArtistUnicode:Sex Whales & Fraxo
Creator:ChuuritsuTv
Version:sbsonic's Extreme
Source:
Tags:trap music electronic dance edm (feat. lox chatterbox) sbsonic milar001 paradougi paradogi ayasee_mari ayaseemari ayasee mari ayase_mari ayase mari ayasemari snow zekao -nebu- hkrecords_ dominigg nite
BeatmapID:1750499
BeatmapSetID:835843

[Difficulty]
HPDrainRate:6.2
CircleSize:3.8
OverallDifficulty:9.2
ApproachRate:9.5
SliderMultiplier:2.59999990463257
SliderTickRate:1

[Events]
//Background and Video events
0,0,"BG-dead.jpg",0,0
//Break Periods
//Storyboard Layer 0 (Background)
//Storyboard Layer 1 (Fail)
//Storyboard Layer 2 (Pass)
//Storyboard Layer 3 (Foreground)
//Storyboard Sound Samples

[TimingPoints]
440.548483613557,405.405405405405,4,1,0,100,1,0

[Colours]
Combo1 : 144,144,144
Combo2 : 255,55,55

[HitObjects]
56,191,440,5,4,0:0:0:0:
271,240,575,1,0,0:0:0:0:
128,319,710,1,0,0:0:0:0:
226,125,845,1,8,0:0:0:0:
313,327,981,1,0,0:0:0:0:
176,232,1116,1,0,0:0:0:0:
359,146,1251,5,4,0:0:0:0:
218,317,1386,1,0,0:0:0:0:
477,183,1521,1,0,0:0:0:0:
372,56,1656,2,0,B|289:43|307:108|202:90,1,173.333326975504,8|0,0:0|0:0,0:0:0:0:
28,37,2062,5,4,0:0:0:0:
154,252,2197,1,0,0:0:0:0:
105,104,2332,1,0,0:0:0:0:
80,343,2467,1,8,0:0:0:0:
221,75,2602,1,0,0:0:0:0:
302,278,2737,1,0,0:0:0:0:
67,194,2872,5,4,0:0:0:0:
320,94,3008,2,0,P|343:89|373:89,2,43.3333317438761
163,176,3278,2,0,P|213:183|246:207,1,86.6666634877522,8|0,0:0|0:0,0:0:0:0:
306,362,3548,1,8,0:0:0:0:
352,175,3683,5,4,0:0:0:0:
177,265,3818,1,0,0:0:0:0:
401,328,3954,1,0,0:0:0:0:
259,148,4089,1,8,0:0:0:0:
203,359,4224,1,0,0:0:0:0:
364,152,4359,1,0,0:0:0:0:
168,178,4494,5,4,0:0:0:0:
410,237,4629,1,0,0:0:0:0:
178,92,4764,1,0,0:0:0:0:
207,270,4900,2,0,P|232:170|277:109,1,173.333326975504,8|0,0:0|0:0,0:0:0:0:
447,6,5305,5,4,0:0:0:0:
192,71,5440,1,0,0:0:0:0:
379,128,5575,1,0,0:0:0:0:
129,5,5710,1,8,0:0:0:0:
361,43,5845,1,0,0:0:0:0:
76,175,5981,1,0,0:0:0:0:
222,67,6116,1,8,0:0:0:0:
76,175,6521,6,0,P|123:145|166:139,1,86.6666634877522
272,153,6791,1,0,0:0:0:0:
79,292,6927,5,4,0:0:0:0:
273,348,7062,1,0,0:0:0:0:
152,235,7197,1,0,0:0:0:0:
299,146,7332,1,8,0:0:0:0:
185,320,7467,1,0,0:0:0:0:
348,265,7602,1,0,0:0:0:0:
193,80,7737,5,4,0:0:0:0:
251,245,7872,1,0,0:0:0:0:
317,8,8008,1,0,0:0:0:0:
441,120,8143,2,0,B|318:94|318:94|257:124,1,173.333326975504,8|0,0:0|0:0,0:0:0:0:
67,10,8548,5,4,0:0:0:0:
167,213,8683,1,0,0:0:0:0:
198,60,8818,1,0,0:0:0:0:
25,220,8954,1,8,0:0:0:0:
257,295,9089,1,0,0:0:0:0:
127,121,9224,1,0,0:0:0:0:
95,355,9359,5,4,0:0:0:0:
182,195,9494,2,0,P|200:182|237:171,2,43.3333317438762
116,109,9764,2,0,P|79:80|40:72,1,86.6666634877523,8|0,0:0|0:0,0:0:0:0:
95,199,10035,1,8,0:0:0:0:
209,52,10170,5,4,0:0:0:0:
14,162,10305,1,0,0:0:0:0:
199,176,10440,1,0,0:0:0:0:
57,59,10575,1,8,0:0:0:0:
288,122,10710,1,0,0:0:0:0:
91,221,10845,1,0,0:0:0:0:
338,281,10981,5,4,0:0:0:0:
172,143,11116,1,0,0:0:0:0:
170,311,11251,1,0,0:0:0:0:
384,175,11386,1,8,0:0:0:0:
77,309,11521,1,0,0:0:0:0:
267,349,11656,1,0,0:0:0:0:
269,61,11791,5,4,0:0:0:0:
369,303,11927,1,0,0:0:0:0:
421,16,12062,1,0,0:0:0:0:
181,230,12197,1,8,0:0:0:0:
473,132,12332,1,0,0:0:0:0:
106,76,12467,1,0,0:0:0:0:
241,0,12602,6,0,B|324:-13|306:52|411:34,1,173.333326975504,12|0,0:0|0:0,0:0:0:0:
396,222,13008,2,0,P|370:151|346:133,1,86.6666634877523
261,84,13278,1,0,0:0:0:0:
132,311,13413,5,4,0:0:0:0:
307,215,13548,1,0,0:0:0:0:
75,185,13683,1,0,0:0:0:0:
278,320,13818,1,8,0:0:0:0:
371,124,13954,1,0,0:0:0:0:
165,223,14089,1,0,0:0:0:0:
412,263,14224,5,4,0:0:0:0:
258,121,14359,1,0,0:0:0:0:
505,150,14494,1,0,0:0:0:0:
292,224,14629,1,8,0:0:0:0:
402,47,14764,1,0,0:0:0:0:
426,290,14900,1,0,0:0:0:0:
235,103,15035,5,4,0:0:0:0:
402,196,15170,1,0,0:0:0:0:
230,7,15305,1,0,0:0:0:0:
185,277,15440,1,8,0:0:0:0:
261,96,15575,1,0,0:0:0:0:
290,321,15710,1,0,0:0:0:0:
103,134,15845,5,4,0:0:0:0:
347,58,15981,1,0,0:0:0:0:
43,29,16116,1,0,0:0:0:0:
268,215,16251,1,8,0:0:0:0:
148,0,16386,1,0,0:0:0:0:
66,305,16521,1,8,0:0:0:0:
198,150,16656,5,4,0:0:0:0:
10,214,16791,1,0,0:0:0:0:
182,285,16927,1,0,0:0:0:0:
90,120,17062,1,8,0:0:0:0:
310,58,17197,1,0,0:0:0:0:
185,169,17332,1,0,0:0:0:0:
386,194,17467,5,4,0:0:0:0:
193,79,17602,1,0,0:0:0:0:
264,237,17737,1,0,0:0:0:0:
408,64,17872,1,8,0:0:0:0:
479,295,18008,2,0,P|492:326|498:356,1,43.3333317438762
375,188,18143,1,0,0:0:0:0:
230,344,18278,5,4,0:0:0:0:
307,113,18413,1,0,0:0:0:0:
351,294,18548,1,0,0:0:0:0:
126,226,18683,1,8,0:0:0:0:
364,181,18818,1,0,0:0:0:0:
61,37,18954,1,0,0:0:0:0:
230,12,19089,1,2,0:0:0:0:
