osu file format v14

[General]
AudioFilename: deadtome.mp3
AudioLeadIn: 0
PreviewTime: 440
Countdown: 0
SampleSet: Soft
StackLeniency: 0.3
Mode: 0
LetterboxInBreaks: 0
WidescreenStoryboard: 1

[Editor]
DistanceSpacing: 5
BeatDivisor: 6
GridSize: 16
TimelineZoom: 5.499997

[Metadata]
Title:Dead To Me (SecondBeat)
TitleUnicode:Dead To Me (SecondBeat)
Artist:Sex Whales & Fraxo
ArtistUnicode:Sex Whales & Fraxo
Creator:ChuuritsuTv
Version:HKrecords's Extreme
Source:
Tags:trap music electronic dance edm (feat. lox chatterbox) sbsonic milar001 paradougi paradogi ayasee_mari ayaseemari ayasee mari ayase_mari ayase mari ayasemari snow zekao -nebu- hkrecords_ dominigg nite
BeatmapID:1752017
BeatmapSetID:835843

[Difficulty]
HPDrainRate:5
CircleSize:7
OverallDifficulty:7
ApproachRate:9.5
SliderMultiplier:0.999999904632568
SliderTickRate:1

[Events]
//Background and Video events
0,0,"BG-dead.jpg",0,0
//Break Periods
//Storyboard Layer 0 (Background)
//Storyboard Layer 1 (Fail)
//Storyboard Layer 2 (Pass)
//Storyboard Layer 3 (Foreground)
//Storyboard Sound Samples

[TimingPoints]
450,405.405405405405,4,2,0,85,1,0
2071,-66.6666666666667,4,2,0,85,0,0
3692,-100,4,2,0,85,0,0
5314,-66.6666666666667,4,2,0,85,0,0
6530,-100,4,2,0,85,0,0
6800,-33.3333333333333,4,2,0,85,0,0
6936,-83.3333333333333,4,2,0,85,0,1
8558,-58.8235294117647,4,2,0,85,0,1
10179,-83.3333333333333,4,2,0,85,0,1
11801,-58.8235294117647,4,2,0,85,0,1
12612,-40,4,2,0,85,0,0
13422,-58.8235294117647,4,2,0,85,0,1
18693,-40,4,2,0,85,0,1
19098,-100,4,2,0,85,0,0
19504,-100,4,2,0,5,0,0

[Colours]
Combo1 : 34,255,106
Combo2 : 26,6,255

[HitObjects]
12,126,450,5,4,0:0:0:0:
66,87,585,1,0,0:0:0:0:
89,24,720,1,0,0:0:0:0:
12,56,855,1,8,0:0:0:0:
65,96,990,1,0,0:0:0:0:
131,100,1125,1,0,0:0:0:0:
84,31,1260,1,4,0:0:0:0:
58,92,1395,1,0,0:0:0:0:
71,157,1531,1,0,0:0:0:0:
193,74,1666,1,8,0:0:0:0:
193,74,2071,6,0,P|197:98|200:104,1,24.9999985694885,4|0,0:0|0:0,0:0:0:0:
166,153,2206,2,0,P|162:177|159:183,1,24.9999985694885
106,210,2341,2,0,P|107:222|111:234,1,24.9999985694885
28,241,2477,2,0,L|54:244,1,24.9999985694885,8|0,0:0|0:0,0:0:0:0:
88,295,2612,2,0,L|113:288,1,24.9999985694885
172,308,2747,2,0,L|193:293,1,24.9999985694885
251,271,2882,5,4,0:0:0:0:
181,242,3017,1,0,0:0:0:0:
163,245,3085,1,0,0:0:0:0:
148,254,3152,1,0,0:0:0:0:
46,385,3287,2,0,P|82:351|85:303,1,99.9999942779539,8|0,0:0|0:0,0:0:0:0:
51,106,3693,5,4,0:0:0:0:
99,151,3828,1,0,0:0:0:0:
166,149,3963,1,0,0:0:0:0:
111,85,4098,1,8,0:0:0:0:
108,151,4233,1,0,0:0:0:0:
67,204,4368,1,0,0:0:0:0:
40,125,4504,1,4,0:0:0:0:
98,156,4639,1,0,0:0:0:0:
164,149,4774,1,0,0:0:0:0:
77,31,4909,1,8,0:0:0:0:
77,31,5314,6,0,B|88:37|88:37|103:38,1,24.9999985694885,4|0,0:0|0:0,0:0:0:0:
139,93,5449,2,0,B|151:92|151:92|165:86,1,24.9999985694885
228,105,5585,2,0,B|238:98|238:98|247:85,1,24.9999985694885
171,19,5720,2,0,B|163:13|163:13|159:29,1,24.9999985694885,8|0,0:0|0:0,0:0:0:0:
129,88,5855,2,0,B|119:86|119:86|123:102,1,24.9999985694885
121,170,5990,2,0,B|111:173|111:173|123:185,1,24.9999985694885
173,325,6125,5,4,0:0:0:0:
183,340,6531,2,2,P|139:338|110:322,1,66.6666603088379
21,162,6936,5,4,0:0:0:0:
48,233,7071,1,0,0:0:0:0:
118,259,7206,1,0,0:0:0:0:
54,301,7341,1,8,0:0:0:0:
112,253,7476,1,0,0:0:0:0:
187,266,7611,1,0,0:0:0:0:
132,181,7747,1,4,0:0:0:0:
109,171,7814,1,0,0:0:0:0:
94,150,7882,1,8,0:0:0:0:
91,125,7949,1,0,0:0:0:0:
99,101,8017,1,8,0:0:0:0:
219,158,8152,2,0,P|223:180|221:197,2,39.9999949645998,8|0|0,0:0|0:0|0:0,0:0:0:0:
100,34,8558,5,4,0:0:0:0:
60,49,8625,1,0,0:0:0:0:
42,88,8693,2,0,P|60:95|74:97,1,28.3333311716715
39,169,8828,2,0,P|57:176|71:178,1,28.3333311716715,2|0,0:0|0:0,0:0:0:0:
94,339,8963,2,0,P|91:325|92:311,1,28.3333311716715,8|0,0:0|0:0,0:0:0:0:
33,266,9098,2,0,P|37:252|45:241,1,28.3333311716715,2|0,0:0|0:0,0:0:0:0:
39,169,9233,2,0,P|49:159|62:153,1,28.3333311716715,2|0,0:0|0:0,0:0:0:0:
190,40,9368,5,4,0:0:0:0:
215,121,9504,1,0,0:0:0:0:
217,163,9571,1,0,0:0:0:0:
200,202,9639,1,0,0:0:0:0:
51,280,9774,2,0,B|54:253|75:231|103:227|103:227|129:249,1,113.333324686686,8|0,0:0|0:0,0:0:0:0:
60,363,10179,5,4,0:0:0:0:
139,354,10314,1,0,0:0:0:0:
60,363,10449,1,0,0:0:0:0:
231,309,10585,1,8,0:0:0:0:
152,300,10720,1,0,0:0:0:0:
231,309,10855,1,0,0:0:0:0:
81,251,10990,1,4,0:0:0:0:
52,240,11058,1,0,0:0:0:0:
33,216,11125,1,8,0:0:0:0:
22,187,11193,1,0,0:0:0:0:
23,157,11260,1,8,0:0:0:0:
113,78,11395,1,10,0:0:0:0:
101,161,11531,1,2,0:0:0:0:
83,243,11666,1,2,0:0:0:0:
67,332,11801,6,0,L|61:368,1,28.3333311716715,4|0,0:0|0:0,0:0:0:0:
156,295,11936,2,2,P|173:285|187:282,1,28.3333311716715
83,243,12071,2,2,P|66:233|52:230,1,28.3333311716715
223,191,12206,2,2,P|210:195|196:196,1,28.3333311716715
0,135,12341,2,2,P|9:145|21:153,1,28.3333311716715
230,88,12477,1,2,0:0:0:0:
45,83,12612,6,0,B|5:75|-4:42|5:-3|48:-4|88:15|86:64|57:100,1,208.333313465118
7,246,13017,2,0,B|25:208|25:208|47:234|47:234|63:218|63:218|85:230|85:230|119:226|119:226|128:231|128:231|176:226,1,208.333313465118
253,224,13422,5,4,0:0:0:0:
136,283,13558,1,0,0:0:0:0:
51,382,13693,1,0,0:0:0:0:
217,349,13828,2,0,B|230:341|230:341|241:322,1,28.3333311716715,8|0,0:0|0:0,0:0:0:0:
129,252,13963,2,0,B|132:237|132:237|126:215,1,28.3333311716715,8|0,0:0|0:0,0:0:0:0:
3,213,14098,2,0,B|15:220|15:220|23:233,1,28.3333311716715,8|0,0:0|0:0,0:0:0:0:
68,337,14233,5,4,0:0:0:0:
110,341,14301,1,0,0:0:0:0:
146,319,14368,1,0,0:0:0:0:
197,198,14504,1,0,0:0:0:0:
31,161,14639,1,2,0:0:0:0:
98,272,14774,1,2,0:0:0:0:
226,295,14909,1,2,0:0:0:0:
169,135,15044,6,4,B|135:130|135:130|116:113|116:113|88:109,1,84.9999935150145,0|0,0:0|0:0,0:0:0:0:
17,33,15314,2,0,L|46:36,1,28.3333311716715,2|0,0:0|0:0,0:0:0:0:
82,255,15449,6,0,B|93:203|93:203|86:172,1,84.9999935150145,4|0,0:0|0:0,0:0:0:0:
172,46,15720,2,0,L|166:74,1,28.3333311716715,2|0,0:0|0:0,0:0:0:0:
239,212,15855,6,0,L|155:202,1,84.9999935150145,4|0,0:0|0:0,0:0:0:0:
1,212,16125,2,0,L|29:208,1,28.3333311716715,2|0,0:0|0:0,0:0:0:0:
239,304,16260,6,0,L|154:293,1,84.9999935150145,4|0,0:0|0:0,0:0:0:0:
0,304,16530,2,0,L|27:299,1,28.3333311716715,2|0,0:0|0:0,0:0:0:0:
241,382,16666,5,4,0:0:0:0:
116,344,16801,1,0,0:0:0:0:
96,215,16936,1,0,0:0:0:0:
229,46,17071,2,0,L|224:74,1,28.3333311716715,2|0,0:0|0:0,0:0:0:0:
177,146,17206,2,0,L|172:174,1,28.3333311716715,2|0,0:0|0:0,0:0:0:0:
215,249,17341,2,0,L|210:277,1,28.3333311716715,2|0,0:0|0:0,0:0:0:0:
149,338,17477,5,4,0:0:0:0:
108,350,17544,1,0,0:0:0:0:
66,340,17612,1,8,0:0:0:0:
2,226,17747,1,8,0:0:0:0:
107,280,17882,1,8,0:0:0:0:
37,170,18017,1,8,0:0:0:0:
27,129,18084,1,8,0:0:0:0:
35,87,18152,1,8,0:0:0:0:
61,53,18220,1,8,0:0:0:0:
99,36,18287,6,2,L|103:65,1,28.3333311716715
182,94,18422,2,2,L|178:123,1,28.3333311716715
41,170,18558,2,2,L|45:199,1,28.3333311716715
248,245,18693,2,2,B|228:248|228:248|219:257|211:263,1,41.6666626930237
0,285,18828,2,2,L|16:289,1,41.6666626930237
257,342,18963,2,2,L|215:345,1,41.6666626930237
0,384,19098,1,4,0:0:0:0:
182,94,19504,5,0,0:0:0:0:
