osu file format v14

[General]
AudioFilename: deadtome.mp3
AudioLeadIn: 0
PreviewTime: 440
Countdown: 0
SampleSet: Normal
StackLeniency: 0.5
Mode: 0
LetterboxInBreaks: 0
WidescreenStoryboard: 1

[Editor]
DistanceSpacing: 6
BeatDivisor: 3
GridSize: 16
TimelineZoom: 5.499997

[Metadata]
Title:Dead To Me (SecondBeat)
TitleUnicode:Dead To Me (SecondBeat)
Artist:Sex Whales & Fraxo
ArtistUnicode:Sex Whales & Fraxo
Creator:ChuuritsuTv
Version:Extra
Source:
Tags:trap music electronic dance edm (feat. lox chatterbox) sbsonic milar001 paradougi paradogi ayasee_mari ayaseemari ayasee mari ayase_mari ayase mari ayasemari snow zekao -nebu- hkrecords_ dominigg nite
BeatmapID:1750498
BeatmapSetID:835843

[Difficulty]
HPDrainRate:5
CircleSize:4.5
OverallDifficulty:9
ApproachRate:9.5
SliderMultiplier:2.09999990463257
SliderTickRate:1

[Events]
//Background and Video events
0,0,"BG-dead.jpg",0,0
//Break Periods
//Storyboard Layer 0 (Background)
//Storyboard Layer 1 (Fail)
//Storyboard Layer 2 (Pass)
//Storyboard Layer 3 (Foreground)
//Storyboard Sound Samples

[TimingPoints]
440.548483613557,405.405405405405,4,1,0,100,1,0
441,-66.6666666666667,4,1,0,100,0,0

[Colours]
Combo1 : 34,255,106
Combo2 : 26,6,255

[HitObjects]
104,181,440,5,4,0:0:0:0:
188,198,575,1,0,0:0:0:0:
272,215,710,1,0,0:0:0:0:
452,54,845,5,8,0:0:0:0:
351,74,980,1,0,0:0:0:0:
250,94,1115,1,0,0:0:0:0:
79,215,1251,5,4,0:0:0:0:
180,235,1386,1,0,0:0:0:0:
281,255,1521,1,0,0:0:0:0:
449,28,1656,2,0,B|342:32|342:32|239:77,1,209.999998474121,8|0,0:0|0:0,0:0:0:0:
399,245,2062,5,4,0:0:0:0:
414,127,2197,1,0,0:0:0:0:
305,174,2332,1,0,0:0:0:0:
86,306,2467,5,8,0:0:0:0:
71,188,2602,1,0,0:0:0:0:
180,235,2737,1,0,0:0:0:0:
288,326,2872,5,4,0:0:0:0:
256,80,3008,1,0,0:0:0:0:
249,288,3143,1,0,0:0:0:0:
306,6,3278,2,0,P|207:6|175:114,1,209.999998474121,8|8,0:0|0:0,0:0:0:0:
321,249,3683,5,4,0:0:0:0:
406,240,3818,1,0,0:0:0:0:
491,232,3954,1,0,0:0:0:0:
258,164,4089,5,8,0:0:0:0:
156,153,4224,1,0,0:0:0:0:
53,143,4360,1,0,0:0:0:0:
307,281,4494,5,4,0:0:0:0:
409,270,4629,1,0,0:0:0:0:
512,260,4765,1,0,0:0:0:0:
253,130,4900,2,0,B|168:123|168:123|152:125|152:125|34:114,1,209.999998474121,8|0,0:0|0:0,0:0:0:0:
156,289,5305,5,4,0:0:0:0:
221,57,5440,1,0,0:0:0:0:
389,229,5575,1,0,0:0:0:0:
122,154,5710,5,8,0:0:0:0:
290,326,5845,1,0,0:0:0:0:
355,94,5980,1,0,0:0:0:0:
256,192,6116,5,8,0:0:0:0:
256,192,6521,6,0,B|201:140|201:140|238:302,1,209.999998474121,0|0,0:0|0:0,0:0:0:0:
386,326,6927,5,4,0:0:0:0:
418,215,7062,1,0,0:0:0:0:
450,104,7197,1,0,0:0:0:0:
237,0,7332,5,8,0:0:0:0:
275,133,7467,1,0,0:0:0:0:
313,266,7602,1,0,0:0:0:0:
410,360,7737,5,4,0:0:0:0:
448,227,7872,1,0,0:0:0:0:
486,94,8007,1,0,0:0:0:0:
209,46,8143,2,0,L|266:269,1,209.999998474121,8|0,0:0|0:0,0:0:0:0:
410,139,8548,5,4,0:0:0:0:
321,43,8683,1,0,0:0:0:0:
447,14,8818,1,0,0:0:0:0:
186,229,8954,5,8,0:0:0:0:
275,133,9089,1,0,0:0:0:0:
149,104,9224,1,0,0:0:0:0:
406,320,9359,5,4,0:0:0:0:
271,214,9494,1,0,0:0:0:0:
491,305,9629,1,0,0:0:0:0:
205,155,9764,2,0,P|303:131|346:257,1,209.999998474121,8|8,0:0|0:0,0:0:0:0:
245,334,10170,5,4,0:0:0:0:
131,346,10305,1,0,0:0:0:0:
17,358,10440,1,0,0:0:0:0:
135,181,10575,5,8,0:0:0:0:
257,193,10710,1,0,0:0:0:0:
379,206,10845,1,0,0:0:0:0:
512,0,10981,5,4,0:0:0:0:
365,14,11116,1,0,0:0:0:0:
219,30,11251,1,0,0:0:0:0:
450,210,11386,2,0,P|437:164|404:132,1,52.4999996185303,8|0,0:0|0:0,0:0:0:0:
388,276,11521,2,0,P|362:274|338:265,1,52.4999996185303,0|0,0:0|0:0,0:0:0:0:
458,280,11656,1,0,0:0:0:0:
308,46,11791,5,4,0:0:0:0:
206,237,11927,1,0,0:0:0:0:
54,192,12062,1,0,0:0:0:0:
308,338,12197,5,8,0:0:0:0:
206,147,12333,1,0,0:0:0:0:
54,192,12468,1,0,0:0:0:0:
458,192,12602,2,0,B|308:217|308:217|256:192,1,209.999998474121,12|0,0:0|0:0,0:0:0:0:
54,192,13008,2,0,B|204:167|204:167|256:192,1,209.999998474121,0|0,0:0|0:0,0:0:0:0:
308,338,13413,5,4,0:0:0:0:
142,320,13548,1,0,0:0:0:0:
351,230,13683,1,0,0:0:0:0:
428,273,13818,5,8,0:0:0:0:
262,255,13953,1,0,0:0:0:0:
471,165,14088,1,0,0:0:0:0:
185,248,14224,5,4,0:0:0:0:
351,230,14359,1,0,0:0:0:0:
142,140,14494,1,0,0:0:0:0:
78,182,14629,6,0,P|106:206|135:219,1,52.4999996185303,8|0,0:0|0:0,0:0:0:0:
210,175,14765,2,0,P|217:138|214:106,1,52.4999996185303,0|0,0:0|0:0,0:0:0:0:
137,63,14900,2,0,P|101:75|75:94,1,52.4999996185303,0|0,0:0|0:0,0:0:0:0:
44,313,15035,6,0,B|94:344|94:344|218:332,1,157.499998855591,4|0,0:0|0:0,0:0:0:0:
468,313,15305,2,0,B|418:344|418:344|294:332,1,157.499998855591,0|0,0:0|0:0,0:0:0:0:
228,238,15575,2,0,P|256:232|299:248,1,52.4999996185303,0|0,0:0|0:0,0:0:0:0:
256,303,15710,1,0,0:0:0:0:
72,104,15845,6,0,L|217:85,1,104.999999237061,4|0,0:0|0:0,0:0:0:0:
256,303,16116,1,0,0:0:0:0:
440,104,16251,2,0,L|295:85,1,104.999999237061,8|0,0:0|0:0,0:0:0:0:
335,90,16521,2,0,L|354:142,1,52.4999996185303,8|0,0:0|0:0,0:0:0:0:
345,303,16656,5,4,0:0:0:0:
146,355,16791,1,0,0:0:0:0:
272,249,16927,1,0,0:0:0:0:
349,221,17062,5,8,0:0:0:0:
150,273,17197,1,0,0:0:0:0:
276,167,17333,1,0,0:0:0:0:
353,139,17467,5,4,0:0:0:0:
154,191,17602,1,0,0:0:0:0:
280,85,17738,1,0,0:0:0:0:
353,57,17872,6,0,L|449:62,1,52.4999996185303,8|0,0:0|0:0,0:0:0:0:
208,124,18008,2,0,L|112:129,1,52.4999996185303,0|0,0:0|0:0,0:0:0:0:
136,147,18143,2,0,L|174:144,1,26.2499998092651,0|0,0:0|0:0,0:0:0:0:
121,164,18210,2,0,L|159:161,1,26.2499998092651,0|0,0:0|0:0,0:0:0:0:
106,186,18278,5,4,0:0:0:0:
256,215,18413,1,0,0:0:0:0:
406,186,18548,1,0,0:0:0:0:
67,158,18683,5,8,0:0:0:0:
256,308,18818,1,0,0:0:0:0:
445,158,18954,1,0,0:0:0:0:
256,192,19089,1,2,0:0:0:0:
