osu file format v14

[General]
AudioFilename: deadtome.mp3
AudioLeadIn: 0
PreviewTime: 440
Countdown: 0
SampleSet: Normal
StackLeniency: 0.2
Mode: 0
LetterboxInBreaks: 0
WidescreenStoryboard: 1

[Editor]
DistanceSpacing: 1.7
BeatDivisor: 6
GridSize: 8
TimelineZoom: 5.499997

[Metadata]
Title:Dead To Me (SecondBeat)
TitleUnicode:Dead To Me (SecondBeat)
Artist:Sex Whales & Fraxo
ArtistUnicode:Sex Whales & Fraxo
Creator:ChuuritsuTv
Version:DominiGG's Uncomfortable Insane
Source:
Tags:trap music electronic dance edm (feat. lox chatterbox) sbsonic milar001 paradougi paradogi ayasee_mari ayaseemari ayasee mari ayase_mari ayase mari ayasemari snow zekao -nebu- hkrecords_ dominigg nite
BeatmapID:1768289
BeatmapSetID:835843

[Difficulty]
HPDrainRate:4
CircleSize:3
OverallDifficulty:8
ApproachRate:10
SliderMultiplier:3.59999990463257
SliderTickRate:1

[Events]
//Background and Video events
0,0,"BG-dead.jpg",0,0
//Break Periods
//Storyboard Layer 0 (Background)
//Storyboard Layer 1 (Fail)
//Storyboard Layer 2 (Pass)
//Storyboard Layer 3 (Foreground)
//Storyboard Sound Samples

[TimingPoints]
440.548483613557,405.405405405405,4,1,0,100,1,0
441,-66.6666666666667,4,1,0,100,0,0

[Colours]
Combo1 : 34,255,106
Combo2 : 26,6,255

[HitObjects]
197,294,440,5,0,3:0:0:0:
197,89,575,1,0,0:0:0:0:
373,192,710,1,0,0:0:0:0:
399,217,845,5,8,0:0:0:0:
206,55,980,1,0,0:0:0:0:
162,303,1116,1,0,0:0:0:0:
128,298,1251,5,0,3:0:0:0:
227,28,1386,1,0,0:0:0:0:
412,248,1521,1,0,0:0:0:0:
433,219,1656,2,0,B|472:183|494:325|374:398|271:311|186:262|186:262|154:299|97:303,1,450.000005245209,8|0,0:0|0:0,0:0:0:0:
359,48,2062,5,0,3:0:0:0:
476,358,2197,1,0,0:0:0:0:
378,76,2332,1,0,0:0:0:0:
153,48,2467,5,8,0:0:0:0:
36,358,2602,1,0,0:0:0:0:
134,76,2737,1,0,0:0:0:0:
359,48,2872,5,0,3:0:0:0:
476,358,3007,1,0,0:0:0:0:
115,100,3142,1,0,0:0:0:0:
47,329,3278,2,0,B|127:269|252:349|252:349|208:249|294:158,1,360.000004196167,8|0,0:0|0:0,0:0:0:0:
470,333,3683,5,0,3:0:0:0:
143,212,3818,1,0,0:0:0:0:
447,203,3954,1,0,0:0:0:0:
425,334,4089,5,8,0:0:0:0:
159,108,4224,1,0,0:0:0:0:
447,203,4360,1,0,0:0:0:0:
382,319,4494,5,0,3:0:0:0:
209,15,4629,1,0,0:0:0:0:
447,203,4765,1,0,0:0:0:0:
349,295,4900,2,0,B|241:180|86:291|86:291|177:336,1,360.000004196167,8|0,0:0|0:0,0:0:0:0:
380,321,5305,5,0,3:0:0:0:
312,65,5440,1,0,0:0:0:0:
470,173,5575,1,0,0:0:0:0:
132,321,5710,5,8,0:0:0:0:
200,65,5845,1,0,0:0:0:0:
42,173,5980,1,0,0:0:0:0:
256,192,6116,5,0,3:0:0:0:
156,211,6521,5,2,0:0:0:0:
356,173,6791,1,2,0:0:0:0:
156,211,6927,5,0,3:0:0:0:
348,336,7062,1,0,0:0:0:0:
71,163,7197,1,0,0:0:0:0:
246,132,7332,5,8,0:0:0:0:
348,336,7467,1,0,0:0:0:0:
196,47,7602,1,0,0:0:0:0:
362,109,7737,5,0,3:0:0:0:
348,336,7872,1,0,0:0:0:0:
361,10,8007,1,0,0:0:0:0:
348,336,8143,2,0,B|135:280|135:280|181:348|181:348|70:313,1,360.000004196167,8|0,0:0|0:0,0:0:0:0:
76,125,8548,5,0,3:0:0:0:
240,275,8683,1,0,0:0:0:0:
364,10,8818,1,0,0:0:0:0:
436,125,8954,5,8,0:0:0:0:
272,275,9089,1,0,0:0:0:0:
148,10,9224,1,0,0:0:0:0:
76,125,9359,5,0,3:0:0:0:
240,275,9494,1,0,0:0:0:0:
364,10,9629,1,0,0:0:0:0:
408,358,9764,2,0,P|297:203|238:286,1,360.000004196167,8|0,0:0|3:0,0:0:0:0:
448,192,10170,5,0,3:0:0:0:
159,311,10305,1,0,0:0:0:0:
29,269,10440,1,0,0:0:0:0:
448,192,10575,5,8,0:0:0:0:
159,73,10710,1,0,0:0:0:0:
29,115,10845,1,0,0:0:0:0:
29,269,10981,5,0,3:0:0:0:
318,150,11116,1,0,0:0:0:0:
448,192,11251,1,0,0:0:0:0:
29,115,11386,5,8,0:0:0:0:
318,234,11521,1,0,0:0:0:0:
448,192,11656,1,0,0:0:0:0:
303,337,11791,5,0,3:0:0:0:
132,101,11927,1,0,0:0:0:0:
132,282,12062,1,0,0:0:0:0:
409,192,12197,1,8,0:0:0:0:
303,46,12332,1,0,0:0:0:0:
303,337,12467,1,0,0:0:0:0:
132,282,12602,5,0,3:0:0:0:
303,46,13008,1,2,0:0:0:0:
303,46,13278,1,2,0:0:0:0:
256,192,13413,5,0,3:0:0:0:
416,192,13548,1,0,0:0:0:0:
96,192,13683,1,0,0:0:0:0:
256,192,13818,5,8,0:0:0:0:
378,294,13953,1,0,0:0:0:0:
133,89,14088,1,0,0:0:0:0:
256,192,14224,5,0,3:0:0:0:
133,294,14359,1,0,0:0:0:0:
378,89,14494,1,0,0:0:0:0:
256,192,14629,5,8,0:0:0:0:
256,352,14764,1,0,0:0:0:0:
256,32,14899,1,0,0:0:0:0:
102,62,15035,5,0,3:0:0:0:
256,192,15170,1,0,0:0:0:0:
410,322,15305,1,0,0:0:0:0:
410,62,15440,5,8,0:0:0:0:
256,192,15575,1,0,0:0:0:0:
102,322,15710,1,0,0:0:0:0:
256,32,15845,5,0,3:0:0:0:
416,192,15981,1,0,0:0:0:0:
256,352,16116,1,0,0:0:0:0:
96,192,16252,5,8,0:0:0:0:
256,352,16386,1,0,0:0:0:0:
416,192,16521,1,0,0:0:0:0:
80,48,16656,5,0,3:0:0:0:
256,192,16791,1,0,0:0:0:0:
256,352,16927,1,0,0:0:0:0:
432,48,17062,5,8,0:0:0:0:
256,192,17197,1,0,0:0:0:0:
256,352,17333,1,0,0:0:0:0:
80,336,17467,5,0,3:0:0:0:
256,192,17602,1,0,0:0:0:0:
256,32,17738,1,0,0:0:0:0:
432,336,17873,5,8,0:0:0:0:
256,192,18008,1,0,0:0:0:0:
256,32,18144,1,0,0:0:0:0:
336,240,18278,5,0,3:0:0:0:
176,144,18413,1,0,0:0:0:0:
336,144,18548,5,0,0:0:0:0:
176,240,18683,1,8,0:0:0:0:
416,192,18818,5,0,0:0:0:0:
96,192,18954,1,0,0:0:0:0:
512,368,19089,5,0,3:0:0:0:
16,32,19494,5,4,0:0:0:0:
496,32,19697,5,4,0:0:0:0:
256,368,19900,5,4,0:0:0:0:
