osu file format v9

[General]
AudioFilename: affection and hatred.mp3
AudioLeadIn: 2500
PreviewTime: 51207
Countdown: 0
SampleSet: Soft
StackLeniency: 0.4
Mode: 0
LetterboxInBreaks: 0

[Editor]
Bookmarks: 28619,51207,84913,87913,110501,147207,181089,203678,231913,257060,265795,278501
DistanceSpacing: 1.1
BeatDivisor: 4
GridSize: 8

[Metadata]
Title:affection and hatred
Artist:Seventh Heaven MAXION
Creator:Licnect
Version:Hard
Source:Touhou
Tags:c76 Sakaue Nachi OnosakiHito kochiya sanae stage 5 boss Faith Is for the Transient People

[Difficulty]
HPDrainRate:4
CircleSize:4
OverallDifficulty:6
ApproachRate:8
SliderMultiplier:1.5
SliderTickRate:2

[Events]
//Background and Video events
0,0,"BG.jpg"
//Break Periods
2,11702,13746
2,85113,87158
2,147408,157746
2,169996,180334
2,203879,219864
2,257349,265040
//Storyboard Layer 0 (Background)
//Storyboard Layer 1 (Fail)
//Storyboard Layer 2 (Pass)
//Storyboard Layer 3 (Foreground)
Sprite,Foreground,Centre,"SB\3.jpg",320,240 F,0,28261,28614,0,1 S,0,28261,51202,0.8016 F,0,28614,,1 F,0,28614,,1 F,0,28614,,1 F,0,28614,,1 F,0,28614,50849,1 F,0,50849,51202,1,0
Sprite,Foreground,Centre,"SB\7.jpg",320,240 F,0,50849,51202,0,1 M,0,50849,84908,366,274,273,273 S,0,50849,84908,0.9168 F,0,51202,84555,1,0.9971671 F,0,84555,84908,0.9971671,0
Sprite,Foreground,Centre,"SB\2.jpg",320,240 F,0,87555,87908,0,1 M,0,87555,110496,385,289,253,188 S,0,87555,110496,0.9679998,0.9673615 F,0,87908,110143,1 F,0,110143,110496,1,0
Sprite,Foreground,Centre,"SB\6.jpg",320,240 F,0,110143,110496,0,1 M,0,110143,147202,275,272,364,272 S,0,110143,147202,0.9104 F,0,110496,146849,1 F,0,146849,147202,1,0
Sprite,Foreground,Centre,"SB\4.jpg",320,240 F,0,180731,181084,0,1 S,0,180731,203673,0.8015999 F,0,181084,203320,1 F,0,203320,203673,1,0
Sprite,Foreground,Centre,"SB\5.jpg",320,240 F,0,231555,231908,0,1 S,0,231555,231908,0.9231998 M,0,231555,257320,314,202,314,275 S,0,231908,,0.9231998 F,0,231908,256967,1 S,0,231908,257320,0.9231998 F,0,256967,257320,1,0
Sprite,Foreground,Centre,"SB\1.jpg",320,240 F,0,265437,265790,0,1 S,0,265437,278496,0.8016 F,0,265790,278143,1 F,0,278143,278496,1,0
Sprite,Foreground,Centre,"SB\Black.png",320,240 F,0,202967,203673,0,1 S,0,202967,220261,1.6016 F,0,203673,220261,1,0
Sprite,Foreground,Centre,"SB\8.jpg",320,240 F,0,226967,227320,1,0 S,0,226967,227320,0.8015999,0.8399998
Sprite,Foreground,Centre,"SB\8.jpg",320,240 F,0,228026,228378,1,0 S,0,228026,228378,0.8016001,0.8528002
Sprite,Foreground,Centre,"SB\9.png",320,240 S,0,220614,,1.064 F,0,220614,221320,0,0.5954221 S,0,220614,226261,1.064 F,0,221320,222026,0.5954221,0 F,0,222026,222731,0,0.6528699 F,0,222731,223437,0.6528699,0 F,0,223437,224143,0,0.6212 F,0,224143,224849,0.6212,0 F,0,224849,225202,0,0.4484001 F,0,225202,225555,0.4484001,0 F,0,225555,225908,0,0.5895999 F,0,225908,226261,0.5895999,0
Sprite,Foreground,Centre,"SB\SNOW.png",320,240 F,0,181084,181437,0,1 M,0,181084,203320,329,26,332,335 S,0,181084,203320,0.8720001,0.808 R,0,181084,203320,1.6256 F,0,181437,202967,1 F,0,202967,203320,1,0
Sprite,Foreground,Centre,"SB\SNOW.png",320,240 F,0,191320,191673,0,1 M,0,191320,203320,366,-166,381,36 S,0,191320,203320,1.0384 R,0,191320,203320,1.5872 F,0,191673,202967,1 F,0,202967,203320,1,0
Sprite,Foreground,Centre,"SB\8.jpg",320,240 F,0,169702,169790,1 F,0,169790,170143,1,0 S,0,169790,170143,0.8016,0.8400002
Sprite,Foreground,Centre,"SB\1.jpg",320,240 F,0,268261,268614,1,0 S,0,268261,268614,0.8016,0.8591999
Sprite,Foreground,Centre,"SB\1.jpg",320,240 F,0,271084,271437,1,0 S,0,271084,271437,0.8016002,0.8528002
Sprite,Foreground,Centre,"SB\1.jpg",320,240 F,0,273908,274261,1,0 S,0,273908,274261,0.8015999,0.8591998
//Storyboard Sound Samples
//Background Colour Transformations
3,100,255,255,255

[TimingPoints]
385,352.941176470588,4,2,2,50,1,0
1001,-200,4,2,2,50,0,0
3026,-200,4,2,0,50,0,0
14148,-100,4,2,2,70,0,0
16878,-100,4,2,1,70,0,0
17055,-100,4,2,2,70,0,0
26325,-100,4,1,1,60,0,0
26942,-100,4,2,2,70,0,0
27825,-100,4,1,1,60,0,0
28354,-100,4,2,2,50,0,0
28531,-100,4,2,2,70,0,0
29584,-100,4,2,1,70,0,0
29766,-100,4,2,2,70,0,0
30996,-100,4,2,1,70,0,0
31173,-100,4,2,2,70,0,0
35231,-100,4,2,1,70,0,0
35413,-100,4,2,2,70,0,0
36643,-100,4,2,1,70,0,0
36825,-100,4,2,2,70,0,0
38055,-100,4,2,1,70,0,0
38236,-100,4,2,2,70,0,0
46526,-100,4,2,1,70,0,0
46702,-100,4,2,2,70,0,0
47937,-100,4,2,1,70,0,0
48114,-100,4,2,2,70,0,0
51119,-100,4,1,1,60,0,0
51208,-100,4,1,1,60,0,1
51295,-100,4,1,1,60,0,0
54996,-100,4,1,2,60,0,0
55173,-100,4,1,1,60,0,0
61084,-100,4,1,1,70,0,0
62325,-100,4,1,1,60,0,0
62502,-100,4,1,1,60,0,1
62589,-100,4,1,1,60,0,0
65584,-100,4,1,2,60,0,0
65761,-100,4,1,1,60,0,0
84119,-100,4,1,1,70,0,0
84295,-100,4,1,1,80,0,0
84825,-100,4,1,1,70,0,0
84914,-100,4,1,1,70,0,1
85001,-100,4,1,1,70,0,0
87560,-100,4,2,2,60,0,0
100173,-100,4,2,1,60,0,0
100354,-100,4,2,2,60,0,0
105820,-100,4,2,1,60,0,0
105996,-100,4,2,2,60,0,0
109178,-100,4,2,2,65,0,0
109354,-100,4,2,2,70,0,0
109531,-100,4,2,2,75,0,0
109707,-100,4,2,2,80,0,0
109883,-100,4,2,2,85,0,0
110143,-200,4,1,1,70,0,0
110413,-100,4,2,2,65,0,0
110502,-100,4,2,2,65,0,1
110678,-100,4,1,1,60,0,0
114290,-100,4,1,2,60,0,0
114467,-100,4,1,1,60,0,0
117114,-100,4,1,2,60,0,0
117290,-100,4,1,1,60,0,0
147119,-100,4,2,2,70,0,0
162290,-100,4,2,1,70,0,0
162467,-100,4,2,2,70,0,0
169619,-100,4,1,0,60,0,0
180913,-200,4,2,0,45,0,0
192560,-200,4,2,0,50,0,0
192913,-200,4,2,0,60,0,0
193266,-200,4,2,0,70,0,0
193619,-200,4,2,0,60,0,0
193972,-200,4,2,0,50,0,0
194325,-200,4,2,0,45,0,0
200325,-200,4,2,2,45,0,0
203501,-200,4,1,0,55,0,0
220442,-100,4,1,1,50,0,0
220620,-100,4,1,1,50,0,1
225120,-100,4,1,1,55,0,1
225473,-100,4,1,1,60,0,1
225826,-100,4,1,1,65,0,1
226002,-100,4,1,1,50,0,1
226267,-100,4,1,1,50,0,0
231472,-100,4,1,1,60,0,0
231914,-100,4,1,1,60,0,1
232001,-100,4,1,1,60,0,0
257143,-100,4,1,1,0,0,0
265442,-100,4,1,1,60,0,0
266761,-100,4,1,2,60,0,0
266937,-100,4,1,1,60,0,0
269584,-100,4,1,2,60,0,0
269761,-100,4,1,1,60,0,0
270290,-100,4,1,2,60,0,0
270467,-100,4,1,1,60,0,0
271702,-100,4,1,2,60,0,0
271878,-100,4,1,1,60,0,0
275231,-100,4,1,2,60,0,0
275408,-100,4,1,1,60,0,0
276913,-100,4,2,0,40,0,0
277090,-100,4,2,0,40,0,1
277173,-100,4,2,0,0,0,0

[Colours]
Combo1 : 255,128,64
Combo2 : 255,70,70
Combo3 : 0,158,234

[HitObjects]
200,96,385,1,0
136,288,737,1,0
344,248,1090,2,0,B|432:248,1,75,2|0
368,56,1796,6,0,B|368:136,1,75
168,224,2502,2,0,B|168:144,1,75,2|0
369,133,3208,2,0,B|369:221|297:253,1,150,0|2
56,280,4267,1,0
72,296,4443,1,0
88,312,4620,2,0,B|240:312,1,150,0|2
238,312,5679,5,0
392,160,6032,2,0,B|392:208,1,37.5,2|0
352,112,6384,2,0,B|352:160,1,37.5,2|0
304,72,6737,2,0,B|304:120,1,37.5,2|0
224,256,7090,6,0,B|224:208,1,37.5,2|0
184,296,7443,2,0,B|184:248,1,37.5,2|0
144,336,7796,2,0,B|144:296,1,37.5,2|0
96,368,8149,2,0,B|96:248,1,112.5,2|0
160,176,8855,5,4
256,352,9208,1,0
352,176,9561,1,2
256,336,9914,1,0
160,176,10267,1,4
256,320,10620,1,0
352,176,10973,1,2
256,304,11326,2,0,B|256:264,1,37.5,2|2
104,72,14502,6,0,B|104:160|184:192,1,150,0|8
256,136,15032,1,0
328,192,15208,2,0,B|328:272,1,75
400,160,15561,2,0,B|400:72,1,75,8|0
248,296,16090,1,0
168,248,16267,2,0,B|96:224|96:120,1,150,8|0
192,152,16796,2,0,B|272:192|272:288,1,150
272,271,17326,5,0
272,271,17679,1,8
360,104,18032,2,0,B|328:176,1,75
240,208,18384,1,8
184,128,18561,2,0,B|96:248,1,150
96,112,19090,2,0,B|144:48,1,75,8|0
208,128,19443,2,0,B|272:88,1,75
320,176,19796,2,0,B|472:176,1,150,8|0
48,296,20502,6,0,B|232:296,1,150,8|0
264,224,21032,1,0
328,152,21208,1,8
264,224,21384,2,0,B|152:112,1,150
159,119,21914,2,0,B|63:119,1,75,8|0
48,224,22267,2,0,B|136:224,1,75
200,320,22620,2,0,B|112:320,1,75,8|8
125,320,22973,5,0
232,96,23326,1,8
352,280,23679,1,0
264,280,23855,1,0
200,216,24032,2,0,B|144:144|200:80,1,150,8|0
264,152,24561,1,0
120,232,24737,2,0,B|40:232,1,75,8|0
192,288,25090,2,0,B|280:288,1,75
168,168,25443,2,0,B|88:136,1,75,8|0
224,120,25796,6,0,B|376:120,1,150,0|8
192,184,26502,2,0,B|280:184,1,75
168,272,26855,2,0,B|240:240,1,75,0|8
96,8,27384,2,0,B|176:40,1,75,0|8
248,88,27737,1,0
272,176,27914,1,0
264,264,28090,1,0
216,344,28267,1,0
152,280,28443,1,8
96,352,28620,6,0,B|24:288|88:192,1,150,0|8
168,192,29149,1,0
152,280,29326,2,0,B|272:280,2,112.5
168,192,30032,2,0,B|216:192|216:192|264:168|264:168|328:168,1,150,0|8
272,88,30561,1,0
184,120,30737,2,0,B|72:120,2,112.5
256,56,31443,2,0,B|352:56|352:152,1,150,0|8
272,208,31973,2,0,B|272:304|160:304,1,150
128,224,32502,2,0,B|128:136|16:136,1,150,8|0
30,137,33032,5,2
30,137,33208,1,10
30,137,33384,1,2
184,288,33737,1,2
272,256,33914,1,10
360,224,34090,1,2
272,256,34267,6,0,B|272:88,1,150,0|8
273,107,34796,1,0
200,192,34973,2,0,B|144:192|144:192|96:136,2,112.5
192,104,35679,5,0
152,304,36032,1,8
112,104,36385,2,0,B|0:104,2,112.5
152,192,37090,2,0,B|224:168|224:56,1,150,0|8
296,144,37620,1,0
384,176,37796,2,0,B|504:184,2,112.5
296,168,38502,6,0,B|304:256,1,75,0|2
200,112,38855,2,0,B|208:200,1,75,8|2
120,168,39208,2,0,B|128:248,1,75,0|2
24,120,39561,2,0,B|32:216,1,75,8|2
120,168,39914,6,0,B|120:72|240:72,1,150,4|8
296,312,40620,2,0,B|376:312,1,75
216,256,40973,2,0,B|128:256,1,75,8|0
296,312,41326,2,0,B|384:312|384:216,1,150,0|8
320,144,41855,1,0
224,144,42032,5,2
120,312,42296,1,2
280,200,42561,1,2
192,240,42737,6,0,B|104:224|80:136,1,150,0|8
144,72,43267,2,0,B|224:104|304:40,1,150
336,136,43796,2,0,B|304:224|376:272,1,150,8|0
373,270,44326,1,2
288,312,44502,2,0,B|200:312,1,75,10|2
80,144,45032,1,2
152,88,45208,1,10
224,32,45385,1,2
152,88,45561,6,0,B|152:184|264:184,1,150,0|8
304,112,46090,1,0
392,136,46267,2,0,B|392:248,2,112.5
392,48,46973,1,0
320,256,47326,1,8
240,208,47502,1,0
320,256,47679,2,0,B|288:312|208:312,2,112.5
320,256,48385,6,0,B|312:328|392:352|440:272,1,150,0|8
418,300,48914,1,0
376,216,49090,2,0,B|376:128,1,75
320,208,49443,2,0,B|280:128,1,75,8|0
264,232,49796,2,0,B|128:144,1,150,0|8
140,152,50326,1,2
138,56,50502,1,2
304,160,50855,1,10
304,256,51032,1,2
304,352,51208,6,0,B|144:352,1,150,4|8
216,272,51737,2,0,B|168:256|168:192,1,75
240,48,52179,1,0
360,184,52443,2,0,B|448:184,1,75
240,48,52973,2,0,B|344:48,1,75,8|0
160,240,53502,2,0,B|80:240,1,75,0|8
216,160,54032,6,0,B|376:160,1,150,0|8
304,240,54561,1,0
336,88,54737,2,0,B|448:88,2,112.5
256,32,55443,2,0,B|104:32,1,150,0|8
176,136,55973,2,0,B|328:136,1,150
256,32,56502,2,0,B|160:32|104:104,1,150,8|0
352,224,57208,5,8
432,280,57385,1,0
352,224,57561,2,0,B|320:144|384:80,1,150,0|8
377,84,58090,1,0
432,168,58267,1,0
200,264,58620,1,8
104,280,58796,1,0
288,64,59149,1,0
384,48,59326,1,8
256,192,59679,12,0,61090
344,64,61267,5,8
248,112,61443,1,8
336,168,61620,1,8
112,344,61973,2,0,B|192:344,1,75,0|8
432,208,62502,6,0,B|488:280|440:352,1,150,0|8
280,96,63208,2,0,B|224:168|280:240,1,150,0|8
464,48,63914,1,0
392,192,64267,1,8
256,288,64620,1,0
96,312,64973,1,8
120,72,65326,6,0,B|208:-16|352:128|224:208,1,300
32,312,66385,2,0,B|120:312,1,75,8|0
136,224,66737,2,0,B|184:224|216:168,1,75
288,232,67090,2,0,B|328:200|312:136,1,75,8|0
408,200,67443,2,0,B|408:32,1,150,0|8
407,49,68149,5,0
312,248,68502,1,8
176,72,68855,2,8,B|96:88|88:184,1,150
416,320,69561,2,0,B|360:256|392:176,1,150,0|8
448,104,70090,1,0
368,48,70267,2,0,B|272:40|240:128,1,150,0|8
80,336,70973,6,0,B|80:184,1,150,0|8
336,24,71679,2,0,B|336:184,1,150,0|8
256,120,72208,1,0
192,184,72385,2,0,B|192:232|144:256,1,75
160,248,72737,1,8
448,144,73090,1,0
448,232,73267,1,0
408,312,73443,1,8
328,352,73620,1,8
240,352,73796,6,0,B|56:352,1,150,0|8
152,128,74502,2,0,B|304:128,1,150,0|8
480,240,75208,2,0,B|480:328,1,75
416,160,75561,2,0,B|416:64,1,75,8|0
417,86,75914,1,0
256,184,76267,1,8
72,80,76620,6,0,B|72:176|184:176,1,150,0|8
448,176,77326,2,0,B|448:272|336:272,1,150,0|8
144,272,78032,2,0,B|144:176|48:176,1,150,0|8
352,160,78737,2,0,B|352:64|464:64,1,150,0|8
256,336,79443,6,0,B|408:336,1,150,0|8
312,272,79973,1,0
184,312,80149,2,0,B|88:312,1,75
168,200,80502,2,0,B|256:200,1,75,8|0
312,272,80855,6,0,B|392:248|400:152,1,150,0|8
136,88,81561,1,0
232,328,81914,1,8
312,272,82090,2,0,B|464:272,1,150
376,208,82620,2,0,B|288:208,1,75,8|0
208,208,82973,5,0
368,16,83326,1,8
336,264,83679,1,0
96,208,84032,6,0,B|48:208|16:168,1,75
32,184,84384,1,8
256,32,84737,2,0,B|256:112,1,75,8|8
432,280,87914,6,0,B|272:304,1,150,8|0
192,312,88443,1,0
112,264,88620,1,2
176,112,88885,1,2
368,112,89149,1,2
304,184,89326,2,0,B|304:272,1,75,8|0
305,260,89679,1,0
80,208,90032,6,0,B|80:96,2,112.5,2|2|2
136,288,90737,2,0,B|168:376|280:344,1,150,8|0
240,256,91267,2,0,B|328:280|376:184,1,150
272,160,91796,2,0,B|344:104|280:24,2,150,0|8|0
208,88,92679,5,2
288,296,93032,1,2
376,272,93208,1,2
440,208,93385,1,2
456,120,93561,2,0,B|448:32|336:24,1,150,8|0
144,112,94267,5,2
208,304,94532,1,2
352,168,94796,1,2
288,232,94973,6,0,B|128:232,1,150,8|0
192,152,95502,2,0,B|256:88,1,75,0|2
400,24,95943,1,2
456,240,96208,2,0,B|456:160,1,75,2|8
192,152,96737,6,0,B|192:312,1,150,0|2
400,344,97355,1,2
336,144,97620,1,2
424,168,97796,2,0,B|392:264|296:256,1,150,8|0
232,304,98326,2,0,B|176:240|96:264,1,150,2|2
32,200,98855,1,8
88,128,99032,1,0
136,48,99208,6,0,B|312:48,1,150,4|0
376,80,99737,1,0
286,48,99914,2,0,B|288:160,2,112.5
376,80,100620,2,0,B|376:176|328:224,1,150
240,200,101149,2,0,B|136:200,1,75,0|2
424,256,101590,1,2
264,144,101855,2,0,B|168:144,1,75,2|0
392,64,102385,5,0
472,120,102561,1,0
344,272,102914,1,0
264,216,103090,1,8
80,72,103443,2,0,B|80:232,1,150
136,296,103973,1,0
320,56,104326,1,0
248,112,104502,1,8
176,168,104679,2,0,B|176:248,1,75
416,328,105208,1,0
432,112,105561,6,0,B|440:48|368:32,2,112.5
368,184,106267,1,0
128,192,106620,1,0
368,184,106973,2,0,B|448:184,1,75
288,240,107326,2,0,B|208:240,1,75,8|0
128,192,107679,2,0,B|152:112|240:104,1,150
392,312,108385,2,0,B|408:272|392:232,1,75
288,168,108737,2,0,B|272:208|288:248,1,75,8|0
232,328,109090,6,0,B|128:328,1,75,8|8
304,312,109443,2,0,B|384:312,1,75,8|8
216,224,109796,2,0,B|128:224,1,75,8|8
352,208,110149,6,0,B|368:168|352:136,1,75,0|4
104,192,110855,5,8
167,269,111032,1,0
104,192,111208,2,0,B|104:344,1,150,0|8
104,342,111737,1,0
167,269,111914,2,0,B|167:189|263:149,1,150,0|8
328,96,112443,1,0
328,96,112796,1,0
408,40,112973,2,0,B|472:104|440:184,1,150,8|0
216,280,113679,5,8
168,200,113855,1,0
168,104,114032,2,0,B|168:32|256:16,2,112.5
264,112,114737,2,0,B|424:112,1,150,0|8
224,168,115443,5,0
424,200,115708,1,0
224,240,115973,1,0
224,240,116149,6,0,B|216:336|112:336,1,150,0|8
128,240,116679,1,0
64,168,116855,2,0,B|64:48,2,112.5
144,112,117561,2,0,B|168:192|264:184,1,150,0|8
240,96,118090,2,0,B|336:96|376:16,1,150
368,32,118620,1,8
256,192,118973,12,0,121443
176,32,121796,5,0
360,80,122149,1,8
192,200,122502,1,0
360,256,122855,1,8
424,48,123208,6,0,B|424:136,1,75
424,216,123561,1,8
240,64,123914,1,0
424,216,124267,1,8
240,64,124620,2,0,B|88:64,1,150,0|8
200,136,125149,1,0
312,64,125326,2,0,B|392:96|392:184,1,150,0|8
168,232,126032,6,0,B|168:312,1,75
240,200,126385,2,0,B|240:40,1,150,8|0
328,88,126914,1,0
376,176,127090,1,8
296,120,127267,1,0
208,80,127443,2,0,B|128:48|56:120,1,150,0|8
304,176,128149,2,0,B|384:144|456:216,1,150,0|8
136,320,128855,5,0
272,160,129208,1,8
88,280,129561,2,0,B|128:208|80:128,1,150,0|8
40,64,130090,1,0
256,288,130443,1,0
312,216,130620,2,0,B|272:144|328:64,1,150,8|0
424,312,131326,2,0,B|480:240|432:152,1,150,8|0
256,336,132032,5,8
96,232,132385,1,0
24,296,132561,1,0
96,232,132737,1,8
24,296,132914,1,8
104,352,133090,6,0,B|128:280|240:280,1,150,0|8
416,32,133796,2,0,B|392:96|272:96,1,150,0|8
291,97,134326,1,0
256,184,134502,5,0
256,216,134855,1,8
256,248,135208,1,0
256,280,135561,1,8
168,88,135914,2,0,B|72:112|72:208,1,150,0|8
432,192,136620,2,0,B|432:112|328:88,1,150,0|8
256,152,137149,5,0
296,240,137326,2,0,B|336:224|360:176,1,75
296,64,137679,2,0,B|336:80|352:128,1,75,8|0
168,112,138032,2,0,B|184:72|232:56,1,75
224,240,138385,2,0,B|184:224|160:160,1,75,8|0
256,152,138737,6,0,B|352:152|360:264,1,150,0|8
168,144,139443,2,0,B|168:40|280:40,1,150,0|8
112,216,140149,2,0,B|16:216|16:112,1,150,0|8
320,64,140855,1,0
152,272,141208,1,8
232,320,141385,6,0,B|392:320,1,150
336,232,141914,2,0,B|432:232|432:128,1,150,8|0
232,32,142620,1,8
104,184,142973,2,0,B|144:352,1,150,0|8
200,240,143502,2,0,B|184:160,1,75
376,88,144032,2,0,B|360:16,1,75,8|0
96,136,144737,5,8
304,328,145090,1,0
368,264,145267,1,8
304,328,145443,2,0,B|216:328,1,75,0|8
384,128,145973,2,0,B|328:128|304:184,1,75,0|8
264,80,146326,2,0,B|224:96|224:144,1,75,0|8
240,224,146679,1,8
312,280,146855,1,0
400,288,147032,2,0,B|480:288,1,75,8|4
64,128,158502,5,0
152,320,158855,1,8
64,128,159208,2,0,B|144:128,1,75
192,24,159561,2,0,B|112:24,1,75,8|0
64,128,159914,2,0,B|96:184|216:184,1,150,0|8
448,64,160620,2,0,B|416:112|312:120,1,150,0|8
64,128,161326,5,0
224,344,161679,1,8
248,96,162032,2,0,B|360:80,2,112.5
320,168,162737,2,0,B|224:184,1,75
304,256,163090,2,0,B|216:272,1,75,8|0
144,296,163443,1,0
416,192,163796,1,8
144,296,164149,6,0,B|144:144,1,150,0|8
145,147,164679,1,0
72,208,164855,1,0
144,24,165120,1,0
216,208,165385,1,0
296,256,165561,6,0,B|376:288,1,75
296,168,165914,2,0,B|384:144,1,75,8|0
424,216,166267,1,0
144,224,166620,1,8
424,216,166973,6,0,B|344:72,1,150,0|8
160,320,167679,1,2
424,216,167943,1,2
160,320,168208,1,2
160,224,168385,5,8
256,168,168561,1,8
352,112,168737,1,4
136,176,169090,1,8
256,168,169267,1,8
368,160,169443,1,4
368,160,169796,5,0
144,64,181090,6,0,B|144:216,1,150,0|2
256,264,182149,1,0
368,304,182502,2,0,B|368:152,1,150,2|0
80,288,183914,6,0,B|184:360|288:208|184:128,1,300,2|0
96,192,185679,1,0
432,288,186032,6,0,B|328:360|224:208|328:128,1,300,2|0
416,192,187796,1,0
256,176,188149,6,0,B|256:16,2,150,0|2|0
256,208,190267,1,0
256,240,190973,1,0
256,272,191679,1,0
256,304,192385,5,2
328,240,192737,1,2
360,128,193090,1,2
256,24,193443,1,2
152,128,193796,1,2
184,240,194149,1,2
256,304,194502,5,2
288,304,194855,1,0
320,304,195208,2,0,B|392:336|392:264|464:304,1,150
336,216,196267,1,0
184,240,196620,2,0,B|136:280|104:208|40:264,1,150
184,112,197679,6,0,B|152:184,1,75,2|0
256,120,198385,2,0,B|256:208,1,75,2|0
328,112,199090,2,0,B|360:192,1,75,2|0
256,120,199796,2,0,B|256:272,1,150,2|0
352,192,200855,6,0,B|416:152|416:56,1,150,2|0
256,80,201914,1,0
160,192,202267,2,0,B|96:152|96:56,1,150,2|0
256,80,203326,1,2
256,328,203679,5,0
96,88,220620,5,0
176,128,220796,1,0
256,168,220973,2,0,B|256:248,1,75
257,244,221326,1,0
416,88,221679,1,0
416,88,222032,5,0
336,128,222208,1,0
256,168,222385,2,0,B|256:88,1,75
256,93,222737,1,0
104,272,223090,1,0
104,272,223443,5,0
184,224,223620,1,0
256,168,223796,2,0,B|336:168,1,75
424,168,224149,1,0
424,168,224326,1,0
424,168,224502,1,0
256,32,224855,6,0,B|256:112,1,75
312,192,225208,1,0
208,192,225385,1,0
312,192,225561,1,0
208,192,225737,1,0
312,192,225914,1,0
264,272,226090,5,0
264,272,226179,1,0
264,272,226267,2,0,B|264:120,1,150
136,288,226973,1,0
344,256,227326,2,0,B|256:112,1,150
264,320,228032,1,0
400,200,228385,2,0,B|256:120,1,150
256,192,229090,12,0,231208
144,32,231561,6,0,B|216:32,2,37.5
72,88,231914,2,0,B|72:184|176:184,1,150,0|8
272,344,232620,2,0,B|272:240|392:240,1,150,0|8
368,32,233326,1,0
232,176,233679,1,8
408,64,234032,1,0
272,208,234385,1,8
272,208,234737,6,0,B|384:320,1,150,0|8
176,256,235443,2,0,B|48:128,1,150,0|8
272,208,236149,2,0,B|320:264|424:264,1,150,0|8
176,256,236855,2,0,B|120:208|24:208,1,150,0|8
160,80,237561,5,0
360,152,237914,1,8
488,344,238267,1,0
320,208,238620,1,8
152,336,238973,2,0,B|240:336|288:264,1,150,0|8
488,256,239679,2,0,B|496:152|416:104,1,150,0|8
416,32,240208,2,0,B|256:32,1,150
176,32,240737,1,8
280,184,241090,1,0
80,184,241443,1,8
184,336,241796,5,0
256,288,241973,1,0
304,216,242149,1,8
440,312,242502,1,0
456,224,242679,1,0
448,136,242855,2,0,B|440:80|408:56,1,75,8|8
344,136,243208,6,0,B|176:136,2,150,0|0|0
136,240,244267,2,0,B|304:240,2,150,8|0|8
440,120,245326,2,0,B|384:72|272:104,1,150,0|8
72,128,246032,2,0,B|136:176|232:136,1,150,0|8
256,336,246737,1,0
96,216,247090,1,8
256,336,247443,6,0,B|336:320,1,75
416,216,247796,2,0,B|416:296,1,75,8|0
320,240,248149,2,0,B|248:224|248:104,1,150,0|8
248,32,248679,1,0
344,72,248855,6,0,B|344:160|248:192,1,150,0|8
72,192,249561,1,0
272,264,249914,2,0,B|400:264|456:264,1,150,8|0
216,96,250620,1,8
456,208,250973,1,0
216,280,251326,1,8
128,280,251502,1,0
304,144,251855,1,0
392,144,252032,1,8
472,304,252385,5,0
304,304,252737,1,8
136,240,253090,1,0
32,120,253443,1,8
256,192,253796,12,0,257149
80,112,265796,5,0
256,248,266149,1,8
120,72,266502,2,0,B|248:72,2,112.5
192,136,267208,2,0,B|352:136,1,150,0|8
272,328,267914,1,0
192,136,268267,1,8
320,272,268620,6,0,B|472:272,1,150,0|8
416,200,269149,1,0
360,128,269326,2,0,B|400:88|384:24,2,112.5
296,56,270032,2,0,B|160:72|152:224|280:256,1,300
464,160,271090,1,8
256,128,271443,6,0,B|120:144|112:296|240:328,1,300
384,208,272502,1,8
192,264,272855,2,0,B|40:264,1,150,0|8
136,96,273561,2,0,B|312:96,1,150,0|8
286,96,274267,5,0
176,304,274620,1,8
360,168,274973,2,0,B|408:184|440:120|376:96,2,112.5
256,184,275679,5,0
256,216,276032,1,8
256,248,276385,1,0
256,280,276737,1,8
256,280,277090,5,4
256,192,277179,12,0,278502
