osu file format v14

[General]
AudioFilename: Seven_Lions___Myon___Shane_54_feat__Tove_Lo_-_Strangers.mp3
AudioLeadIn: 0
PreviewTime: 77700
Countdown: 0
SampleSet: Soft
StackLeniency: 0.7
Mode: 0
LetterboxInBreaks: 0
WidescreenStoryboard: 0

[Editor]
Bookmarks: 33453,48222,62991,77761,107299,122068,151607,181145,195924
DistanceSpacing: 1
BeatDivisor: 8
GridSize: 4
TimelineZoom: 2.3

[Metadata]
Title:Strangers (Feat. Tove Lo)
TitleUnicode:Strangers (Feat. Tove Lo)
Artist:Seven Lions with Myon and Shane 54
ArtistUnicode:Seven Lions with Myon and Shane 54
Creator:Maeglwn
Version:Insane
Source:
Tags:dubstep Garven inverness the mortal instruments city of bones BrosephStalin
BeatmapID:457456
BeatmapSetID:192347

[Difficulty]
HPDrainRate:6
CircleSize:4
OverallDifficulty:8
ApproachRate:8.5
SliderMultiplier:2
SliderTickRate:2

[Events]
//Background and Video events
0,0,"bleh.jpg",0,0
//Break Periods
2,107554,117756
//Storyboard Layer 0 (Background)
//Storyboard Layer 1 (Fail)
//Storyboard Layer 2 (Pass)
//Storyboard Layer 3 (Foreground)
//Storyboard Sound Samples

[TimingPoints]
3970,461.538461538462,4,2,0,50,1,0
32585,-125,4,2,0,50,0,0
40893,-111.111111111111,4,2,0,50,0,0
66739,-125,4,2,0,50,0,0
68585,-100,4,2,0,50,0,0
77816,-125,4,2,0,60,0,1
78508,-83.3333333333333,4,2,0,60,0,1
83354,-125,4,2,0,60,0,1
83816,-83.3333333333333,4,2,0,60,0,1
85200,-125,4,2,0,60,0,1
85662,-83.3333333333333,4,2,0,60,0,1
90739,-125,4,2,0,60,0,1
91200,-83.3333333333333,4,2,0,60,0,1
92585,-125,4,2,0,60,0,1
93046,-83.3333333333333,4,2,0,60,0,1
98123,-125,4,2,0,60,0,1
98585,-83.3333333333333,4,2,0,60,0,1
99970,-125,4,2,0,60,0,1
100431,-83.3333333333333,4,2,0,60,0,1
107354,-100,4,2,0,60,0,0
122123,-83.3333333333333,4,2,0,60,0,0
151662,-76.9230769230769,4,2,0,65,0,1
165970,-76.9230769230769,4,2,0,50,0,0
166431,-76.9230769230769,4,2,0,50,0,1
181200,-90.9090909090909,4,2,0,50,0,0
196431,-90.9090909090909,4,2,0,40,0,0
197816,-90.9090909090909,4,2,0,25,0,0
199662,-90.9090909090909,4,2,0,15,0,0
201508,-90.9090909090909,4,2,0,5,0,0

[Colours]
Combo1 : 255,204,51
Combo2 : 225,0,0
Combo3 : 192,192,192
Combo4 : 255,104,32

[HitObjects]
160,72,32816,5,0,0:0:0:0:
160,72,33046,1,0,0:0:0:0:
160,72,33277,1,0,0:0:0:0:
160,72,33508,2,0,P|176:132|208:160,1,80
280,60,33970,1,0,0:0:0:0:
376,132,34200,2,0,P|408:200|380:280,1,160
288,208,34893,1,0,0:0:0:0:
204,280,35123,2,0,P|144:332|44:312,1,160
108,220,35816,5,0,0:0:0:0:
24,132,36046,1,0,0:0:0:0:
140,104,36277,1,0,0:0:0:0:
228,184,36508,1,0,0:0:0:0:
344,208,36739,1,0,0:0:0:0:
260,296,36970,2,0,P|212:336|108:332,1,160,0|0,0:0|0:0,0:0:0:0:
168,232,37662,1,0,0:0:0:0:
72,164,37893,2,0,P|120:124|224:128,1,160,0|0,0:0|0:0,0:0:0:0:
308,200,38585,1,0,0:0:0:0:
372,300,38816,2,0,P|416:252|416:152,1,160,0|0,0:0|0:0,0:0:0:0:
308,200,39508,5,0,0:0:0:0:
188,200,39739,1,0,0:0:0:0:
248,100,39970,1,0,0:0:0:0:
372,300,40200,1,0,0:0:0:0:
256,332,40431,1,0,0:0:0:0:
140,296,40662,2,0,P|76:252|64:164,1,160,0|0,0:0|0:0,0:0:0:0:
152,68,41354,1,0,0:0:0:0:
188,200,41585,1,0,0:0:0:0:
284,104,41816,1,0,0:0:0:0:
256,364,42046,1,0,0:0:0:0:
320,232,42277,1,0,0:0:0:0:
140,296,42508,6,0,P|72:236|88:136,1,179.999994506836,0|0,0:0|0:0,0:0:0:0:
172,48,43200,1,0,0:0:0:0:
308,20,43431,1,0,0:0:0:0:
264,148,43662,1,0,0:0:0:0:
180,252,43893,1,0,0:0:0:0:
276,360,44123,1,0,0:0:0:0:
400,308,44354,6,0,P|452:248|464:144,1,179.999994506836,0|0,0:0|0:0,0:0:0:0:
356,76,45046,1,0,0:0:0:0:
220,72,45277,2,0,P|160:152|168:232,1,179.999994506836,0|0,0:0|0:0,0:0:0:0:
284,184,45970,2,0,L|376:244,1,89.9999972534181,0|0,0:0|0:0,0:0:0:0:
268,332,46431,1,0,0:0:0:0:
164,244,46662,1,0,0:0:0:0:
284,184,46893,1,0,0:0:0:0:
268,332,47123,1,0,0:0:0:0:
164,244,47354,2,0,L|64:192,1,89.9999972534181,0|0,0:0|0:0,0:0:0:0:
140,80,47816,2,0,L|240:132,1,89.9999972534181,0|0,0:0|0:0,0:0:0:0:
376,240,48277,6,0,P|408:280|424:332,2,89.9999972534181,0|0|8,0:0|0:0|0:0,0:0:0:0:
256,192,48970,1,0,0:0:0:0:
136,144,49200,2,0,P|104:104|88:52,2,89.9999972534181,0|0|8,0:0|0:0|0:0,0:0:0:0:
256,192,49893,1,0,0:0:0:0:
408,68,50123,5,0,0:0:0:0:
420,84,50354,1,0,0:0:0:0:
432,100,50585,1,8,0:0:0:0:
304,284,50816,1,0,0:0:0:0:
144,248,51046,1,0,0:0:0:0:
132,236,51277,1,0,0:0:0:0:
120,224,51508,1,8,0:0:0:0:
176,40,51739,1,0,0:0:0:0:
120,224,51970,5,0,0:0:0:0:
176,40,52200,1,0,0:0:0:0:
236,140,52431,2,0,P|264:200|388:196,1,179.999994506836,8|0,0:0|0:0,0:0:0:0:
372,40,53123,1,0,0:0:0:0:
320,148,53354,2,0,L|260:256,1,89.9999972534181,8|0,0:0|0:0,0:0:0:0:
192,308,53816,2,0,P|128:336|80:328,1,89.9999972534181,0|0,0:0|0:0,0:0:0:0:
32,248,54277,2,0,P|96:220|144:228,1,89.9999972534181,8|0,0:0|0:0,0:0:0:0:
260,112,54739,2,0,P|196:140|148:132,1,89.9999972534181,0|0,0:0|0:0,0:0:0:0:
100,52,55200,2,0,P|164:24|212:32,1,89.9999972534181,8|0,0:0|0:0,0:0:0:0:
412,108,55662,5,0,0:0:0:0:
428,328,55893,1,0,0:0:0:0:
372,224,56123,2,0,P|316:152|200:156,1,179.999994506836,8|0,0:0|0:0,0:0:0:0:
128,196,56816,1,0,0:0:0:0:
56,288,57046,1,8,0:0:0:0:
172,296,57277,1,0,0:0:0:0:
76,108,57508,6,0,L|28:20,1,89.9999972534181,0|0,0:0|0:0,0:0:0:0:
152,40,57970,2,0,L|200:128,1,89.9999972534181,8|0,0:0|0:0,0:0:0:0:
296,300,58431,1,0,0:0:0:0:
240,196,58662,1,0,0:0:0:0:
356,196,58893,1,8,0:0:0:0:
184,300,59123,1,0,0:0:0:0:
108,184,59354,6,0,P|148:104|260:80,1,179.999994506836,2|8,0:0|0:0,0:0:0:0:
320,72,60046,1,0,0:0:0:0:
432,228,60277,2,0,L|488:320,1,89.9999972534181,0|0,0:0|0:0,0:0:0:0:
364,288,60739,2,0,L|308:196,1,89.9999972534181,8|0,0:0|0:0,0:0:0:0:
152,128,61200,2,0,L|208:220,1,89.9999972534181,2|0,0:0|0:0,0:0:0:0:
84,188,61662,2,0,L|28:96,1,89.9999972534181,8|0,0:0|0:0,0:0:0:0:
304,192,62123,2,0,L|424:192,1,89.9999972534181,2|0,0:0|0:0,0:0:0:0:
208,192,62585,2,0,L|88:192,1,89.9999972534181,8|0,0:0|0:0,0:0:0:0:
256,68,63046,5,0,0:0:0:0:
256,68,63508,1,8,0:0:0:0:
256,316,63970,1,0,0:0:0:0:
256,316,64432,1,8,0:0:0:0:
56,192,64893,2,0,P|80:112|200:92,1,179.999994506836,0|8,0:0|0:0,0:0:0:0:
456,192,65816,2,0,P|432:272|312:292,1,179.999994506836,0|8,0:0|0:0,0:0:0:0:
256,232,66508,1,0,0:0:0:0:
164,303,66739,6,0,P|82:274|56:204,1,160,2|8,0:0|0:0,0:0:0:0:
224,40,67431,1,0,0:0:0:0:
264,136,67662,2,0,P|296:192|392:200,1,160,0|8,0:0|0:0,0:0:0:0:
256,300,68354,1,0,0:0:0:0:
352,128,68585,2,0,P|380:80|428:48,1,100,0|0,0:0|0:0,0:0:0:0:
472,172,69046,2,0,P|444:220|396:252,1,100,8|0,0:0|0:0,0:0:0:0:
176,324,69508,2,0,P|144:280|164:208,1,100,0|0,0:0|0:0,0:0:0:0:
148,60,69970,2,0,P|180:104|160:176,1,100,8|0,0:0|0:0,0:0:0:0:
344,192,70431,5,2,0:0:0:0:
364,192,70662,1,0,0:0:0:0:
384,192,70893,1,0,0:0:0:0:
404,192,71123,1,0,0:0:0:0:
200,192,71354,5,2,0:0:0:0:
148,192,71585,1,0,0:0:0:0:
96,192,71816,1,0,0:0:0:0:
48,192,72046,1,0,0:0:0:0:
256,84,72277,5,2,0:0:0:0:
363,192,72508,1,0,0:0:0:0:
256,299,72739,1,0,0:0:0:0:
148,192,72970,1,0,0:0:0:0:
324,44,73200,5,2,0:0:0:0:
403,260,73431,1,0,0:0:0:0:
187,339,73662,1,0,0:0:0:0:
108,123,73893,1,0,0:0:0:0:
316,192,74123,6,0,L|404:192,3,50,0|0|0|0,1:0|0:0|0:0|0:0,0:0:0:0:
196,192,74585,2,0,L|108:192,3,50,0|0|0|0,1:0|0:0|0:0|0:0,0:0:0:0:
256,112,75046,1,0,1:0:0:0:
256,136,75162,1,0,0:0:0:0:
256,160,75277,1,0,0:0:0:0:
256,184,75393,1,0,0:0:0:0:
256,208,75508,1,0,1:0:0:0:
256,232,75623,1,0,0:0:0:0:
256,256,75739,1,0,0:0:0:0:
256,280,75854,1,0,0:0:0:0:
256,192,75970,12,0,76893,1:0:0:0:
256,68,77816,6,0,B|240:96|240:96|268:140|256:192,1,120,6|0,0:0|0:0,0:0:0:0:
256,232,78277,1,0,0:0:0:0:
140,136,78508,2,0,B|112:192|112:192|140:244,1,119.999996337891,0|0,0:0|1:0,0:0:0:0:
372,248,78970,2,0,B|400:192|400:192|372:140,1,119.999996337891,0|0,0:0|0:0,0:0:0:0:
140,136,79431,1,0,0:0:0:0:
372,248,79662,1,2,0:0:0:0:
336,60,79893,2,0,L|304:108,3,39.9999987792969
500,132,80354,1,0,0:0:0:0:
468,304,80585,2,0,P|388:352|284:308,1,179.999994506836,0|0,1:0|0:0,0:0:0:0:
256,253,81046,5,0,0:0:0:0:
175,134,81200,1,0,0:0:0:0:
336,134,81354,1,0,0:0:0:0:
156,264,81508,6,0,P|120:320|60:348,1,119.999996337891,2|0,0:0|0:0,0:0:0:0:
20,200,81970,2,0,P|56:144|116:116,1,119.999996337891,0|0,0:0|0:0,0:0:0:0:
256,92,82431,1,0,1:0:0:0:
256,292,82662,1,0,0:0:0:0:
215,65,82893,1,0,0:0:0:0:
296,318,83124,1,0,0:0:0:0:
412,192,83354,2,0,B|440:148|440:148|400:104|416:64,1,120,2|0,0:0|0:0,0:0:0:0:
464,28,83816,1,0,0:0:0:0:
256,192,84046,1,0,0:0:0:0:
20,88,84277,6,0,P|84:88|132:136,1,119.999996337891,0|0,1:0|0:0,0:0:0:0:
156,276,84585,2,0,P|92:276|44:228,1,119.999996337891
224,116,84893,2,0,P|288:116|336:164,1,119.999996337891
408,316,85200,6,0,B|440:340|440:340|448:288|504:260,1,120,2|0,0:0|0:0,0:0:0:0:
436,212,85662,1,0,0:0:0:0:
311,116,85893,2,0,P|256:136|202:114,1,119.999996337891,0|0,0:0|1:0,0:0:0:0:
256,332,86354,2,0,P|232:264|256:204,1,119.999996337891,0|0,0:0|0:0,0:0:0:0:
396,64,86816,1,0,0:0:0:0:
256,332,87046,1,2,0:0:0:0:
80,244,87277,1,0,0:0:0:0:
68,204,87354,1,0,0:0:0:0:
68,164,87431,1,0,0:0:0:0:
88,128,87508,2,0,P|137:84|203:77,1,119.999996337891
224,208,87970,2,0,P|256:288|360:288,1,179.999994506836,0|0,1:0|0:0,0:0:0:0:
390,192,88431,5,0,0:0:0:0:
256,72,88585,1,0,0:0:0:0:
121,192,88739,1,0,0:0:0:0:
328,140,88893,6,0,B|352:116|352:116|360:100|364:84|364:84|420:40,1,119.999996337891,2|0,0:0|0:0,0:0:0:0:
184,140,89354,2,0,B|160:116|160:116|152:100|148:84|148:84|92:40,1,119.999996337891,2|0,0:0|0:0,0:0:0:0:
96,352,89816,1,0,1:0:0:0:
180,224,90046,2,0,P|240:204|276:140,1,119.999996337891
356,296,90508,1,0,0:0:0:0:
184,140,90739,2,0,B|148:108|148:108|140:64|104:40,1,120,2|0,0:0|0:0,0:0:0:0:
228,56,91200,1,0,0:0:0:0:
456,216,91431,1,0,0:0:0:0:
376,100,91662,6,0,L|284:108,1,89.9999972534181,0|0,1:0|0:0,0:0:0:0:
228,56,91893,2,0,L|188:40,3,29.9999990844727
208,128,92123,2,0,L|164:112,5,39.9999987792969
276,168,92585,6,0,B|257:197|220:208|220:208|200:264,1,120,6|0,0:0|0:0,0:0:0:0:
208,128,93046,1,0,0:0:0:0:
352,316,93277,2,0,P|302:366|237:371,1,119.999996337891,0|0,0:0|1:0,0:0:0:0:
120,168,93739,2,0,P|170:117|235:113,1,119.999996337891
352,316,94200,1,0,0:0:0:0:
128,168,94431,1,2,0:0:0:0:
296,180,94662,2,0,L|332:136,3,39.9999987792969
172,320,95123,1,0,0:0:0:0:
300,176,95354,2,0,P|344:120|276:40,1,179.999994506836,0|0,1:0|0:0,0:0:0:0:
372,256,95816,5,0,0:0:0:0:
256,112,95970,1,0,0:0:0:0:
139,256,96123,1,0,0:0:0:0:
328,160,96277,6,0,B|352:128|336:76|336:76|384:100,1,119.999996337891,2|0,0:0|0:0,0:0:0:0:
184,160,96739,2,0,B|160:128|176:76|176:76|128:100,1,119.999996337891,2|0,0:0|0:0,0:0:0:0:
300,316,97200,1,0,1:0:0:0:
512,208,97431,1,0,0:0:0:0:
300,316,97662,2,0,B|248:344|248:344|184:308,1,119.999996337891,0|0,0:0|0:0,0:0:0:0:
88,124,98123,2,0,B|108:164|108:164|192:208,1,120,2|0,0:0|0:0,0:0:0:0:
228,228,98585,1,0,0:0:0:0:
440,60,98816,1,0,0:0:0:0:
404,288,99046,6,0,P|368:352|320:368,1,119.999996337891,0|0,1:0|0:0,0:0:0:0:
206,262,99354,2,0,P|257:235|308:264,1,119.999996337891
184,367,99662,2,0,P|132:341|108:288,1,119.999996337891
116,100,99970,6,0,B|148:100|168:124|168:124|224:56,1,120,2|0,0:0|0:0,0:0:0:0:
104,184,100431,1,0,0:0:0:0:
308,76,100662,2,0,P|372:64|456:88,1,119.999996337891,0|0,0:0|1:0,0:0:0:0:
368,308,101123,2,0,P|304:320|220:296,1,119.999996337891,0|0,0:0|0:0,0:0:0:0:
96,72,101585,1,0,0:0:0:0:
44,272,101816,1,2,0:0:0:0:
172,188,102046,2,0,L|224:188,3,39.9999987792969
272,312,102508,1,0,0:0:0:0:
436,128,102739,2,0,B|472:80|472:80|384:120|344:40,1,179.999994506836,0|0,1:0|0:0,0:0:0:0:
300,112,103200,5,0,0:0:0:0:
172,268,103354,1,0,0:0:0:0:
300,112,103508,1,0,0:0:0:0:
172,268,103662,2,0,P|92:328|48:316,1,119.999996337891,2|0,0:0|0:0,0:0:0:0:
300,112,104123,2,0,P|380:52|424:64,1,119.999996337891,0|0,0:0|0:0,0:0:0:0:
300,366,104585,1,0,1:0:0:0:
151,161,104816,1,0,0:0:0:0:
392,240,105046,1,0,0:0:0:0:
151,317,105277,1,0,0:0:0:0:
300,113,105508,1,4,0:0:0:0:
256,192,105623,12,2,107354,0:0:0:0:
208,96,118431,6,0,L|144:96,3,50,0|0|0|0,0:0|0:0|0:0|0:0,0:0:0:0:
296,152,118893,2,0,L|360:152,3,50,0|0|0|0,0:0|0:0|0:0|0:0,0:0:0:0:
188,220,119354,1,0,0:0:0:0:
158,260,119469,1,0,0:0:0:0:
188,300,119585,1,0,0:0:0:0:
224,336,119700,1,0,0:0:0:0:
256,372,119815,1,0,0:0:0:0:
288,336,119931,1,0,0:0:0:0:
324,300,120046,1,0,0:0:0:0:
354,260,120162,1,0,0:0:0:0:
256,192,120277,12,8,121662,0:0:0:0:
144,200,122123,6,0,P|180:120|240:76,1,119.999996337891,6|0,0:0|0:0,0:0:0:0:
356,132,122585,2,0,P|320:212|260:256,1,119.999996337891,8|0,0:0|0:0,0:0:0:0:
202,98,123046,1,2,0:0:0:0:
376,328,123277,1,0,0:0:0:0:
232,268,123508,2,0,B|161:237|161:237|133:179,1,119.999996337891,8|0,0:0|0:0,0:0:0:0:
316,52,123970,2,0,L|240:160,1,119.999996337891,2|0,0:0|0:0,0:0:0:0:
376,328,124431,2,0,L|452:220,1,119.999996337891,8|0,0:0|0:0,0:0:0:0:
192,144,124893,1,2,0:0:0:0:
316,52,125123,1,0,0:0:0:0:
296,300,125354,2,0,B|352:328|352:328|416:296,1,119.999996337891,8|0,0:0|0:0,0:0:0:0:
460,248,125700,1,0,0:0:0:0:
408,184,125815,6,0,P|352:167|297:188,1,119.999996337891,2|0,0:0|0:0,0:0:0:0:
180,272,126277,2,0,B|232:324|232:324|332:348,1,119.999996337891,8|0,0:0|0:0,0:0:0:0:
396,260,126739,2,0,B|448:312|448:312|472:412,1,119.999996337891,2|0,0:0|0:0,0:0:0:0:
200,320,127200,2,0,B|245:309|245:309|297:257,1,119.999996337891,8|0,0:0|0:0,0:0:0:0:
396,136,127662,1,2,0:0:0:0:
264,52,127893,1,0,0:0:0:0:
200,320,128123,1,8,0:0:0:0:
124,184,128354,1,0,0:0:0:0:
396,136,128585,2,0,L|296:228,1,119.999996337891,2|0,0:0|0:0,0:0:0:0:
200,320,129046,1,8,0:0:0:0:
264,52,129277,1,0,0:0:0:0:
400,252,129508,6,0,P|428:312|408:364,1,119.999996337891,6|0,0:0|0:0,0:0:0:0:
296,256,129970,2,0,P|268:196|288:144,1,119.999996337891,8|0,0:0|0:0,0:0:0:0:
136,264,130431,2,0,B|92:304|92:304|16:304,1,119.999996337891,2|0,0:0|0:0,0:0:0:0:
136,80,130893,2,0,B|180:40|180:40|256:40,1,119.999996337891,8|0,0:0|0:0,0:0:0:0:
372,128,131354,2,0,P|428:84|436:-4,1,119.999996337891,2|0,0:0|0:0,0:0:0:0:
276,196,131816,2,0,P|220:240|212:328,1,119.999996337891,8|0,0:0|0:0,0:0:0:0:
356,320,132277,1,2,0:0:0:0:
448,196,132508,1,0,0:0:0:0:
216,84,132739,2,0,B|160:56|160:56|96:88,1,119.999996337891,8|0,0:0|0:0,0:0:0:0:
52,136,133085,1,0,0:0:0:0:
104,200,133200,6,0,P|160:217|215:196,1,119.999996337891,2|0,0:0|0:0,0:0:0:0:
296,64,133662,1,10,0:0:0:0:
384,312,133893,1,0,0:0:0:0:
244,248,134123,2,0,B|188:216|188:216|188:144,1,119.999996337891,2|0,0:0|0:0,0:0:0:0:
344,144,134585,2,0,B|400:176|400:176|400:248,1,119.999996337891,8|0,0:0|0:0,0:0:0:0:
256,192,135046,12,0,136431,0:0:0:0:
368,184,136893,6,0,P|332:264|272:308,1,119.999996337891,6|0,0:0|0:0,0:0:0:0:
156,252,137355,2,0,P|192:172|252:128,1,119.999996337891,8|0,0:0|0:0,0:0:0:0:
310,286,137816,1,2,0:0:0:0:
136,56,138047,1,0,0:0:0:0:
280,116,138278,2,0,B|351:147|351:147|379:205,1,119.999996337891,8|0,0:0|0:0,0:0:0:0:
196,332,138740,2,0,L|272:224,1,119.999996337891,2|0,0:0|0:0,0:0:0:0:
136,56,139201,2,0,L|60:164,1,119.999996337891,8|0,0:0|0:0,0:0:0:0:
320,240,139663,1,2,0:0:0:0:
196,332,139893,1,0,0:0:0:0:
104,276,140124,2,0,B|96:228|96:228|156:164,1,119.999996337891,8|0,0:0|0:0,0:0:0:0:
188,116,140470,1,0,0:0:0:0:
212,48,140586,5,2,0:0:0:0:
424,188,140816,1,0,0:0:0:0:
268,208,141047,2,0,B|216:260|216:260|116:284,1,119.999996337891,8|0,0:0|0:0,0:0:0:0:
116,124,141509,2,0,B|64:72|64:72|40:-28,1,119.999996337891,2|0,0:0|0:0,0:0:0:0:
312,64,141970,2,0,B|266:74|266:74|214:126,1,119.999996337891,8|0,0:0|0:0,0:0:0:0:
116,248,142432,1,2,0:0:0:0:
248,332,142663,1,0,0:0:0:0:
312,64,142893,1,8,0:0:0:0:
388,200,143124,1,0,0:0:0:0:
116,248,143355,2,0,L|216:156,1,119.999996337891,2|0,0:0|0:0,0:0:0:0:
312,64,143816,1,8,0:0:0:0:
248,332,144047,1,0,0:0:0:0:
112,132,144278,6,0,P|84:72|104:20,1,119.999996337891,6|0,0:0|0:0,0:0:0:0:
216,128,144740,2,0,P|244:188|224:240,1,119.999996337891,8|0,0:0|0:0,0:0:0:0:
376,120,145201,2,0,B|420:80|420:80|496:80,1,119.999996337891,2|0,0:0|0:0,0:0:0:0:
376,304,145663,2,0,B|332:344|332:344|256:344,1,119.999996337891,8|0,0:0|0:0,0:0:0:0:
140,256,146124,2,0,P|84:300|76:388,1,119.999996337891,2|0,0:0|0:0,0:0:0:0:
236,188,146586,2,0,P|292:144|300:56,1,119.999996337891,8|0,0:0|0:0,0:0:0:0:
156,64,147047,1,2,0:0:0:0:
64,188,147278,1,0,0:0:0:0:
296,300,147509,2,0,B|352:328|352:328|416:296,1,119.999996337891,8|0,0:0|0:0,0:0:0:0:
472,164,147970,6,0,P|415:146|360:167,1,119.999996337891,2|0,0:0|0:0,0:0:0:0:
216,320,148432,1,10,0:0:0:0:
128,72,148663,1,0,0:0:0:0:
268,136,148893,2,0,B|324:168|324:168|324:240,1,119.999996337891,2|0,0:0|0:0,0:0:0:0:
168,240,149355,2,0,B|112:208|112:208|112:136,1,119.999996337891,8|0,0:0|0:0,0:0:0:0:
344,68,149816,2,0,P|400:104|416:188,1,119.999996337891,2|0,0:0|0:0,0:0:0:0:
160,320,150277,2,0,P|104:284|88:200,1,119.999996337891,8|0,0:0|0:0,0:0:0:0:
256,96,150739,1,2,0:0:0:0:
256,288,150970,1,0,0:0:0:0:
152,59,151200,1,8,3:0:0:0:
357,322,151431,1,4,3:0:0:0:
100,228,151662,6,0,P|28:192|8:132,1,129.999994049073,2|0,0:0|0:0,0:0:0:0:
152,60,152123,2,0,P|224:96|244:156,1,129.999994049073,8|0,0:0|0:0,0:0:0:0:
448,300,152585,2,0,L|448:112,1,129.999994049073,2|0,0:0|0:0,0:0:0:0:
340,40,153046,1,8,0:0:0:0:
132,224,153277,1,0,0:0:0:0:
296,175,153508,2,0,P|359:164|423:173,1,129.999994049073,2|0,0:0|0:0,0:0:0:0:
280,288,153970,2,0,P|216:299|152:290,1,129.999994049073,8|0,0:0|0:0,0:0:0:0:
156,76,154431,2,0,B|216:112|216:112|216:192,1,129.999994049073,2|0,0:0|0:0,0:0:0:0:
212,340,154893,1,8,0:0:0:0:
56,132,155123,1,0,0:0:0:0:
204,216,155354,6,0,P|272:256|340:240,1,129.999994049073,2|0,0:0|0:0,0:0:0:0:
432,84,155816,2,0,P|364:44|296:60,1,129.999994049073,8|0,0:0|0:0,0:0:0:0:
320,248,156277,2,0,P|360:180|344:112,1,129.999994049073,2|0,0:0|0:0,0:0:0:0:
184,28,156739,2,0,P|144:96|160:164,1,129.999994049073,8|0,0:0|0:0,0:0:0:0:
232,292,157200,1,2,0:0:0:0:
396,336,157431,1,0,0:0:0:0:
356,172,157662,1,8,0:0:0:0:
232,292,157893,1,0,0:0:0:0:
176,88,158123,1,2,0:0:0:0:
336,296,158354,1,0,0:0:0:0:
251,34,158585,1,8,0:0:0:0:
260,349,158816,1,0,0:0:0:0:
256,180,159046,6,0,P|296:120|384:104,1,129.999994049073,6|0,0:0|0:0,0:0:0:0:
404,260,159508,2,0,P|364:320|276:336,1,129.999994049073,8|0,0:0|0:0,0:0:0:0:
112,208,159970,2,0,L|112:72,1,129.999994049073,2|0,0:0|0:0,0:0:0:0:
280,48,160431,1,8,0:0:0:0:
404,260,160662,1,0,0:0:0:0:
280,48,160893,2,0,P|192:32|148:52,1,129.999994049073,2|0,0:0|0:0,0:0:0:0:
112,208,161354,2,0,P|200:224|244:204,1,129.999994049073,10|0,0:0|0:0,0:0:0:0:
340,344,161816,1,2,0:0:0:0:
448,216,162046,1,0,0:0:0:0:
152,328,162277,1,8,0:0:0:0:
260,200,162507,1,0,0:0:0:0:
152,328,162739,6,0,P|64:284|52:240,1,129.999994049073,2|0,0:0|0:0,0:0:0:0:
184,152,163200,2,0,P|228:64|272:52,1,129.999994049073,8|0,0:0|0:0,0:0:0:0:
416,284,163662,2,0,P|372:196|328:184,1,129.999994049073,2|0,0:0|0:0,0:0:0:0:
180,368,164123,2,0,P|215:315|277:300,1,129.999994049073,8|0,0:0|0:0,0:0:0:0:
103,181,164585,2,0,L|41:60,1,129.999994049073,2|0,0:0|0:0,0:0:0:0:
196,144,165046,2,0,L|257:264,1,129.999994049073,8|0,0:0|0:0,0:0:0:0:
256,72,165508,1,2,0:0:0:0:
376,192,165739,1,0,0:0:0:0:
136,192,165970,1,8,0:0:0:0:
256,312,166201,1,0,0:0:0:0:
256,72,166431,6,0,P|328:40|420:56,1,129.999994049073,6|0,0:0|0:0,0:0:0:0:
378,282,166893,2,0,P|306:314|214:298,1,129.999994049073,8|0,0:0|0:0,0:0:0:0:
76,112,167354,2,0,P|46:169|45:234,1,129.999994049073,2|0,0:0|0:0,0:0:0:0:
156,360,167816,1,8,0:0:0:0:
304,96,168046,1,0,0:0:0:0:
308,264,168277,2,0,P|348:352|388:360,1,129.999994049073,2|0,0:0|0:0,0:0:0:0:
472,220,168739,2,0,P|432:132|392:124,1,129.999994049073,8|0,0:0|0:0,0:0:0:0:
208,324,169200,2,0,P|280:308|312:228,1,129.999994049073,2|0,0:0|0:0,0:0:0:0:
304,60,169662,1,8,0:0:0:0:
208,324,169893,1,0,0:0:0:0:
304,60,170123,6,0,P|240:40|144:68,1,129.999994049073,2|0,0:0|0:0,0:0:0:0:
208,324,170585,2,0,P|272:344|368:316,1,129.999994049073,8|0,0:0|0:0,0:0:0:0:
436,112,171046,2,0,L|436:248,1,129.999994049073,2|0,0:0|0:0,0:0:0:0:
176,236,171508,2,0,L|176:100,1,129.999994049073,8|0,0:0|0:0,0:0:0:0:
332,176,171970,2,0,P|404:216|428:276,1,129.999994049073,2|0,0:0|0:0,0:0:0:0:
256,256,172431,2,0,P|184:216|160:156,1,129.999994049073,8|0,0:0|0:0,0:0:0:0:
308,84,172893,1,2,0:0:0:0:
204,300,173123,1,0,0:0:0:0:
440,104,173354,1,8,0:0:0:0:
72,280,173585,1,0,0:0:0:0:
308,84,173816,6,0,P|358:122|376:184,1,129.999994049073,6|0,0:0|0:0,0:0:0:0:
340,348,174277,2,0,P|289:309|271:247,1,129.999994049073,8|0,0:0|0:0,0:0:0:0:
172,112,174739,1,2,0:0:0:0:
64,244,174970,1,0,0:0:0:0:
408,152,175200,1,8,0:0:0:0:
296,280,175431,1,0,0:0:0:0:
152,192,175662,2,0,P|168:124|224:68,1,129.999994049073,2|0,0:0|0:0,0:0:0:0:
464,40,176123,2,0,P|448:108|392:164,1,129.999994049073,10|0,0:0|0:0,0:0:0:0:
294,280,176585,2,0,P|253:230|240:168,1,129.999994049073,2|0,0:0|0:0,0:0:0:0:
448,208,177046,1,8,0:0:0:0:
184,328,177277,1,0,0:0:0:0:
448,208,177508,6,0,P|472:136|432:72,1,129.999994049073,2|0,0:0|0:0,0:0:0:0:
324,204,177970,2,0,P|300:276|340:340,1,129.999994049073,8|0,0:0|0:0,0:0:0:0:
448,208,178431,1,2,0:0:0:0:
344,72,178662,1,0,0:0:0:0:
64,208,178893,1,8,0:0:0:0:
168,72,179124,1,0,0:0:0:0:
308,296,179354,2,0,P|360:360|416:364,1,129.999994049073,2|0,0:0|0:0,0:0:0:0:
336,208,179816,2,0,P|284:144|228:140,1,129.999994049073,8|0,0:0|0:0,0:0:0:0:
136,268,180277,1,2,0:0:0:0:
236,132,180508,1,0,0:0:0:0:
416,312,180739,1,8,0:0:0:0:
96,72,180970,1,0,0:0:0:0:
308,280,181200,6,0,P|376:232|368:76,1,220.000006713867,6|8,0:0|0:0,0:0:0:0:
252,56,181893,1,0,0:0:0:0:
132,132,182123,2,0,B|172:180|172:180|96:212|116:324,1,220.000006713867,2|8,0:0|0:0,0:0:0:0:
248,364,182816,1,0,0:0:0:0:
408,192,183046,2,0,L|408:72,1,110.000003356934,2|0,0:0|0:0,0:0:0:0:
320,196,183508,2,0,L|320:316,1,110.000003356934,8|0,0:0|0:0,0:0:0:0:
144,328,183970,2,0,P|68:304|40:240,1,110.000003356934,2|0,0:0|0:0,0:0:0:0:
12,144,184431,2,0,P|88:168|116:232,1,110.000003356934,8|0,0:0|0:0,0:0:0:0:
244,344,184893,6,0,P|360:344|416:244,1,220.000006713867,2|8,0:0|0:0,0:0:0:0:
360,136,185585,2,0,B|292:128|292:128|296:108|296:108|268:132|268:132|248:88|248:88|172:136,1,220.000006713867,0|0,0:0|0:0,0:0:0:0:
80,176,186277,1,8,0:0:0:0:
156,296,186508,1,0,0:0:0:0:
256,40,186739,2,0,L|136:40,1,110.000003356934,2|0,0:0|0:0,0:0:0:0:
260,128,187201,2,0,L|380:128,1,110.000003356934,8|0,0:0|0:0,0:0:0:0:
424,288,187663,2,0,P|400:364|336:392,1,110.000003356934,2|0,0:0|0:0,0:0:0:0:
328,256,188124,2,0,P|352:180|416:152,1,110.000003356934,8|0,0:0|0:0,0:0:0:0:
164,92,188585,6,0,L|44:92,1,110.000003356934,2|0,0:0|0:0,0:0:0:0:
348,292,189046,2,0,L|468:292,1,110.000003356934,8|0,0:0|0:0,0:0:0:0:
199,68,189508,2,0,L|85:31,1,110.000003356934,2|0,0:0|0:0,0:0:0:0:
312,315,189970,2,0,L|426:352,1,110.000003356934,8|0,0:0|0:0,0:0:0:0:
448,128,190431,2,0,P|423:79|374:58,1,110.000003356934,2|0,0:0|0:0,0:0:0:0:
63,255,190893,2,0,P|88:304|137:325,1,110.000003356934,8|0,0:0|0:0,0:0:0:0:
256,16,191354,2,0,L|256:144,1,110.000003356934,2|0,0:0|0:0,0:0:0:0:
256,368,191816,2,0,L|256:240,1,110.000003356934,8|0,0:0|0:0,0:0:0:0:
256,192,192277,12,12,195508,0:0:0:0:
256,192,195970,12,0,201508,0:0:0:0:
