osu file format v14

[General]
AudioFilename: Seven_Lions___Myon___Shane_54_feat__Tove_Lo_-_Strangers.mp3
AudioLeadIn: 0
PreviewTime: 77700
Countdown: 0
SampleSet: Soft
StackLeniency: 0.7
Mode: 0
LetterboxInBreaks: 0
WidescreenStoryboard: 0

[Editor]
Bookmarks: 33453,48222,62991,77761,107299,122068,151607,181145,195924
DistanceSpacing: 1
BeatDivisor: 4
GridSize: 4
TimelineZoom: 2

[Metadata]
Title:Strangers (Feat. Tove Lo)
TitleUnicode:Strangers (Feat. Tove Lo)
Artist:Seven Lions with Myon and Shane 54
ArtistUnicode:Seven Lions with Myon and Shane 54
Creator:Maeglwn
Version:Hard
Source:
Tags:dubstep Garven inverness the mortal instruments city of bones BrosephStalin
BeatmapID:457455
BeatmapSetID:192347

[Difficulty]
HPDrainRate:4.5
CircleSize:4
OverallDifficulty:6.5
ApproachRate:7.5
SliderMultiplier:1.8
SliderTickRate:2

[Events]
//Background and Video events
0,0,"bleh.jpg",0,0
//Break Periods
2,107554,117606
//Storyboard Layer 0 (Background)
//Storyboard Layer 1 (Fail)
//Storyboard Layer 2 (Pass)
//Storyboard Layer 3 (Foreground)
//Storyboard Sound Samples

[TimingPoints]
3970,461.538461538462,4,2,0,50,1,0
32816,-125,4,2,0,50,0,0
40893,-111.111111111111,4,2,0,50,0,0
66739,-125,4,2,0,50,0,0
77816,-125,4,2,0,60,0,1
78508,-83.3333333333333,4,2,0,60,0,1
83354,-125,4,2,0,60,0,1
83816,-83.3333333333333,4,2,0,60,0,1
85200,-125,4,2,0,60,0,1
85662,-83.3333333333333,4,2,0,60,0,1
90739,-125,4,2,0,60,0,1
91200,-83.3333333333333,4,2,0,60,0,1
92585,-125,4,2,0,60,0,1
93046,-83.3333333333333,4,2,0,60,0,1
98123,-125,4,2,0,60,0,1
98585,-83.3333333333333,4,2,0,60,0,1
99970,-125,4,2,0,60,0,1
100431,-83.3333333333333,4,2,0,60,0,1
107354,-100,4,2,0,60,0,0
122123,-83.3333333333333,4,2,0,60,0,0
151662,-76.9230769230769,4,2,0,65,0,1
165970,-76.9230769230769,4,2,0,50,0,0
166431,-76.9230769230769,4,2,0,50,0,1
181200,-90.9090909090909,4,2,0,50,0,0
196431,-90.9090909090909,4,2,0,40,0,0
197816,-90.9090909090909,4,2,0,25,0,0
199662,-90.9090909090909,4,2,0,15,0,0
201508,-90.9090909090909,4,2,0,5,0,0

[Colours]
Combo1 : 255,204,51
Combo2 : 225,0,0
Combo3 : 192,192,192
Combo4 : 255,104,32

[HitObjects]
172,292,32816,5,0,0:0:0:0:
108,260,33046,1,0,0:0:0:0:
84,192,33277,2,0,P|96:112|144:64,1,144
188,120,33970,1,0,0:0:0:0:
252,84,34200,2,0,P|300:52|396:76,1,144,0|0,0:0|0:0,0:0:0:0:
364,136,34893,1,0,0:0:0:0:
312,184,35123,2,0,L|312:344,1,144,0|0,0:0|0:0,0:0:0:0:
244,308,35816,5,0,0:0:0:0:
176,332,36046,1,0,0:0:0:0:
108,308,36277,1,0,0:0:0:0:
72,244,36508,2,0,L|48:172,1,72,0|0,0:0|0:0,0:0:0:0:
96,120,36970,6,0,P|136:72|232:64,1,144
220,128,37662,1,0,0:0:0:0:
236,200,37893,2,0,P|305:190|353:138,1,144,0|0,0:0|0:0,0:0:0:0:
352,64,38585,1,0,0:0:0:0:
284,36,38816,2,0,P|212:24|144:44,1,144,0|0,0:0|0:0,0:0:0:0:
100,100,39508,5,0,0:0:0:0:
80,168,39739,1,0,0:0:0:0:
96,240,39970,1,0,0:0:0:0:
160,276,40200,2,0,L|244:296,1,72,0|0,0:0|0:0,0:0:0:0:
300,272,40662,6,0,P|376:240|404:180,1,144
352,124,41354,1,0,0:0:0:0:
280,84,41585,2,0,P|196:72|132:116,1,161.999995056153,0|0,0:0|0:0,0:0:0:0:
188,172,42277,1,0,0:0:0:0:
124,224,42508,6,0,P|108:292|184:352,1,161.999995056153
232,300,43200,1,0,0:0:0:0:
300,344,43431,2,0,P|368:332|416:252,1,161.999995056153,0|0,0:0|0:0,0:0:0:0:
392,180,44123,5,0,0:0:0:0:
344,112,44354,2,0,P|296:72|200:76,1,161.999995056153,0|0,0:0|0:0,0:0:0:0:
132,120,45046,1,0,0:0:0:0:
160,196,45277,2,0,P|208:236|304:232,1,161.999995056153,0|0,0:0|0:0,0:0:0:0:
380,200,45970,6,0,L|460:144,1,80.9999975280763
432,72,46431,2,0,L|352:128,1,80.9999975280763,0|0,0:0|0:0,0:0:0:0:
292,152,46893,2,0,L|212:208,1,80.9999975280763,0|0,0:0|0:0,0:0:0:0:
240,280,47354,2,0,L|320:224,1,80.9999975280763,0|0,0:0|0:0,0:0:0:0:
292,152,47816,5,0,0:0:0:0:
280,72,48046,1,0,0:0:0:0:
216,120,48277,1,0,0:0:0:0:
52,124,48739,5,8,0:0:0:0:
52,124,49662,1,8,0:0:0:0:
460,260,50585,5,8,0:0:0:0:
460,260,51508,1,8,0:0:0:0:
252,12,52431,5,8,0:0:0:0:
252,12,53354,1,8,0:0:0:0:
252,372,54277,5,8,0:0:0:0:
252,372,55200,1,8,0:0:0:0:
344,60,56123,5,8,0:0:0:0:
344,60,57046,1,8,0:0:0:0:
168,324,57970,5,8,0:0:0:0:
168,324,58893,1,8,0:0:0:0:
136,164,59354,6,0,P|152:76|224:20,1,161.999995056153,2|8,0:0|0:0,0:0:0:0:
300,164,60277,1,0,0:0:0:0:
300,164,60739,1,8,0:0:0:0:
176,268,61200,5,2,0:0:0:0:
176,268,61662,1,8,0:0:0:0:
336,268,62123,1,2,0:0:0:0:
336,268,62585,1,8,0:0:0:0:
324,108,63046,6,0,P|257:68|187:102,1,161.999995056153,0|8,0:0|0:0,0:0:0:0:
108,244,63970,2,0,P|174:283|244:249,1,161.999995056153,0|8,0:0|0:0,0:0:0:0:
368,144,64893,6,0,L|368:308,1,161.999995056153,0|8,0:0|0:0,0:0:0:0:
228,224,65816,2,0,L|228:60,1,161.999995056153,0|8,0:0|0:0,0:0:0:0:
368,28,66739,6,0,P|396:100|368:160,1,144,2|8,0:0|0:0,0:0:0:0:
252,240,67662,2,0,P|224:168|252:108,1,144,0|8,0:0|0:0,0:0:0:0:
377,177,68585,6,0,L|469:301,1,144,0|8,0:0|0:0,0:0:0:0:
319,281,69508,2,0,L|227:157,1,144,0|8,0:0|0:0,0:0:0:0:
152,48,70431,6,0,L|264:48,1,72,2|0,0:0|0:0,0:0:0:0:
296,48,70893,2,0,L|368:48,1,72,0|0,0:0|0:0,0:0:0:0:
372,124,71354,2,0,L|260:124,1,72,2|0,0:0|0:0,0:0:0:0:
228,124,71816,2,0,L|156:124,1,72,0|0,0:0|0:0,0:0:0:0:
67,240,72277,6,0,L|112:184,1,72,2|0,0:0|0:0,0:0:0:0:
176,219,72739,2,0,L|132:276,1,72,0|0,0:0|0:0,0:0:0:0:
248,220,73200,2,0,L|320:220,1,72,2|0,0:0|0:0,0:0:0:0:
320,292,73662,2,0,L|248:292,1,72,0|0,0:0|0:0,0:0:0:0:
176,292,74123,6,0,L|128:292,3,36,0|0|0|0,1:0|0:0|0:0|0:0,0:0:0:0:
116,264,74585,2,0,L|116:208,3,36,0|0|0|0,1:0|0:0|0:0|0:0,0:0:0:0:
140,200,75046,2,0,L|188:200,3,36,0|0|0|0,1:0|0:0|0:0|0:0,0:0:0:0:
200,228,75508,2,0,L|200:284,3,36,0|0|0|0,1:0|0:0|0:0|0:0,0:0:0:0:
200,300,75970,1,0,0:0:0:0:
256,192,76085,12,0,76893,1:0:0:0:
80,200,77816,6,0,P|124:128|204:108,1,144,6|0,0:0|0:0,0:0:0:0:
264,288,78508,2,0,L|186:214,1,107.999996704102,0|0,0:0|1:0,0:0:0:0:
177,107,78970,2,0,L|255:181,1,107.999996704102,0|0,0:0|0:0,0:0:0:0:
296,68,79431,1,0,0:0:0:0:
296,68,79662,5,2,0:0:0:0:
372,160,79893,2,0,L|420:180,3,35.9999989013672
256,180,80354,1,0,0:0:0:0:
340,264,80585,1,0,1:0:0:0:
104,300,81046,5,0,0:0:0:0:
104,300,81200,1,0,0:0:0:0:
104,300,81354,1,0,0:0:0:0:
24,184,81508,6,0,P|108:160|172:184,1,107.999996704102,2|0,0:0|0:0,0:0:0:0:
212,248,81970,2,0,P|265:248|314:226,1,107.999996704102,0|0,0:0|0:0,0:0:0:0:
372,120,82431,1,0,1:0:0:0:
272,56,82662,1,0,0:0:0:0:
260,176,82893,2,0,L|196:268,1,107.999996704102,0|0,0:0|0:0,0:0:0:0:
227,336,83354,6,0,P|158:336|120:278,1,144,2|0,0:0|0:0,0:0:0:0:
116,160,84046,1,0,0:0:0:0:
348,32,84277,5,0,1:0:0:0:
440,176,84585,1,0,0:0:0:0:
272,184,84893,1,0,0:0:0:0:
112,232,85200,6,0,P|56:200|48:132,1,108,2|0,0:0|0:0,0:0:0:0:
64,104,85662,1,0,0:0:0:0:
192,108,85893,2,0,L|292:48,1,107.999996704102,0|0,0:0|1:0,0:0:0:0:
376,116,86354,2,0,L|276:176,1,107.999996704102,0|0,0:0|0:0,0:0:0:0:
180,232,86816,1,0,0:0:0:0:
180,232,87046,5,2,0:0:0:0:
180,232,87277,2,0,L|132:260,3,35.9999989013672
276,304,87739,1,0,0:0:0:0:
300,188,87970,1,0,1:0:0:0:
132,20,88431,5,0,0:0:0:0:
132,20,88585,1,0,0:0:0:0:
132,20,88739,1,0,0:0:0:0:
64,136,88893,6,0,P|40:192|72:260,1,107.999996704102,2|0,0:0|0:0,0:0:0:0:
148,304,89354,2,0,P|172:248|140:180,1,107.999996704102,0|0,0:0|0:0,0:0:0:0:
196,92,89816,2,0,L|312:92,1,107.999996704102,0|0,1:0|0:0,0:0:0:0:
380,184,90277,2,0,L|264:184,1,107.999996704102
192,184,90739,6,0,P|116:180|48:240,1,144,2|0,0:0|0:0,0:0:0:0:
152,300,91431,1,0,0:0:0:0:
260,236,91662,2,0,P|277:185|262:134,1,107.999996704102
372,92,92123,2,0,L|371:56,3,35.9999989013672
432,184,92585,6,0,P|388:256|308:276,1,144,6|0,0:0|0:0,0:0:0:0:
248,96,93277,2,0,L|326:170,1,107.999996704102,0|0,0:0|1:0,0:0:0:0:
335,277,93739,2,0,L|257:203,1,107.999996704102,0|0,0:0|0:0,0:0:0:0:
216,316,94200,1,0,0:0:0:0:
216,316,94431,5,2,0:0:0:0:
140,224,94662,2,0,L|92:200,3,35.9999989013672
256,204,95123,1,0,0:0:0:0:
184,116,95354,1,0,1:0:0:0:
408,84,95815,5,0,0:0:0:0:
408,84,95969,1,0,0:0:0:0:
408,84,96123,1,0,0:0:0:0:
488,200,96277,6,0,P|404:224|340:200,1,107.999996704102,2|0,0:0|0:0,0:0:0:0:
314,120,96739,2,0,P|261:120|212:142,1,107.999996704102,0|0,0:0|0:0,0:0:0:0:
165,240,97200,1,0,1:0:0:0:
240,328,97431,1,0,0:0:0:0:
252,208,97662,2,0,L|316:116,1,107.999996704102,0|0,0:0|0:0,0:0:0:0:
285,48,98123,6,0,P|354:48|392:106,1,144,2|0,0:0|0:0,0:0:0:0:
396,224,98815,1,0,0:0:0:0:
164,352,99046,5,0,1:0:0:0:
72,208,99354,1,0,0:0:0:0:
240,196,99662,1,0,0:0:0:0:
400,152,99970,6,0,P|456:184|464:252,1,108,2|0,0:0|0:0,0:0:0:0:
448,280,100431,1,0,0:0:0:0:
328,272,100662,2,0,L|228:332,1,107.999996704102,0|0,0:0|1:0,0:0:0:0:
136,268,101123,2,0,L|236:208,1,107.999996704102,0|0,0:0|0:0,0:0:0:0:
332,152,101585,1,0,0:0:0:0:
332,152,101815,5,2,0:0:0:0:
332,152,102046,2,0,L|380:120,3,35.9999989013672
236,80,102508,1,0,0:0:0:0:
212,196,102739,1,0,1:0:0:0:
380,364,103200,5,0,0:0:0:0:
380,364,103354,1,0,0:0:0:0:
380,364,103508,1,0,0:0:0:0:
448,248,103662,6,0,P|472:192|440:124,1,107.999996704102,2|0,0:0|0:0,0:0:0:0:
364,80,104123,2,0,P|340:136|372:204,1,107.999996704102,0|0,0:0|0:0,0:0:0:0:
316,292,104585,2,0,L|200:292,1,107.999996704102,0|0,1:0|0:0,0:0:0:0:
132,200,105046,2,0,L|248:200,1,107.999996704102,2|0,0:0|0:0,0:0:0:0:
256,80,105508,1,4,1:2:0:0:
256,192,105623,12,2,107354,0:0:0:0:
256,192,118431,12,8,121662,0:0:0:0:
120,148,122123,6,0,L|224:64,1,107.999996704102,6|0,0:0|0:0,0:0:0:0:
344,104,122585,2,0,L|240:188,1,107.999996704102,8|0,0:0|0:0,0:0:0:0:
132,232,123046,2,0,B|172:288|172:288|211:288,1,107.999996704102,2|0,0:0|0:0,0:0:0:0:
352,288,123508,2,0,B|391:288|391:288|431:232,1,107.999996704102,8|0,0:0|0:0,0:0:0:0:
256,88,123970,6,0,P|224:152|240:208,1,107.999996704102,2|0,0:0|0:0,0:0:0:0:
368,160,124431,2,0,P|400:96|384:40,1,107.999996704102,8|0,0:0|0:0,0:0:0:0:
256,88,124893,1,2,0:0:0:0:
120,124,125123,1,0,0:0:0:0:
228,212,125354,2,0,P|248:272|284:312,1,107.999996704102,8|0,0:0|0:0,0:0:0:0:
464,176,125816,6,0,P|444:116|404:76,1,107.999996704102,2|0,0:0|0:0,0:0:0:0:
328,192,126277,2,0,P|348:252|384:288,1,107.999996704102,8|0,0:0|0:0,0:0:0:0:
464,176,126739,1,2,0:0:0:0:
380,64,126970,1,0,0:0:0:0:
328,192,127200,1,8,0:0:0:0:
464,176,127431,1,0,0:0:0:0:
296,40,127662,6,0,L|184:40,1,107.999996704102,2|0,0:0|0:0,0:0:0:0:
84,132,128123,2,0,L|196:132,1,107.999996704102,8|0,0:0|0:0,0:0:0:0:
296,40,128585,1,2,0:0:0:0:
408,124,128816,1,0,0:0:0:0:
348,252,129046,2,0,P|296:324|240:340,1,107.999996704102,8|0,0:0|0:0,0:0:0:0:
228,120,129508,6,0,P|280:48|336:32,1,107.999996704102,6|0,0:0|0:0,0:0:0:0:
408,124,129970,1,8,0:0:0:0:
488,240,130200,1,0,0:0:0:0:
348,252,130431,2,0,P|296:228|284:156,1,107.999996704102,2|0,0:0|0:0,0:0:0:0:
408,124,130893,1,8,0:0:0:0:
488,240,131123,1,0,0:0:0:0:
252,356,131354,6,0,B|196:356|196:356|128:316,1,107.999996704102,2|0,0:0|0:0,0:0:0:0:
247,225,131816,2,0,B|303:225|303:225|371:265,1,107.999996704102,8|0,0:0|0:0,0:0:0:0:
252,356,132277,1,2,0:0:0:0:
247,225,132508,1,0,0:0:0:0:
132,300,132739,2,0,P|83:278|59:231,1,107.999996704102,8|0,0:0|0:0,0:0:0:0:
220,88,133200,6,0,L|320:32,1,107.999996704102,2|0,0:0|0:0,0:0:0:0:
336,176,133662,2,0,L|392:276,1,107.999996704102,10|0,0:0|0:0,0:0:0:0:
256,312,134123,1,2,0:0:0:0:
120,352,134354,1,0,0:0:0:0:
76,220,134585,1,8,0:0:0:0:
212,180,134816,1,0,0:0:0:0:
256,192,135046,12,0,136431,0:0:0:0:
392,236,136893,6,0,L|288:320,1,107.999996704102,6|0,0:0|0:0,0:0:0:0:
168,280,137355,2,0,L|272:196,1,107.999996704102,8|0,0:0|0:0,0:0:0:0:
380,152,137816,2,0,B|340:96|340:96|300:96,1,107.999996704102,2|0,0:0|0:0,0:0:0:0:
160,96,138278,2,0,B|120:96|120:96|80:152,1,107.999996704102,8|0,0:0|0:0,0:0:0:0:
256,296,138740,6,0,P|288:232|272:176,1,107.999996704102,2|0,0:0|0:0,0:0:0:0:
144,224,139201,2,0,P|112:288|128:344,1,107.999996704102,8|0,0:0|0:0,0:0:0:0:
256,296,139663,1,2,0:0:0:0:
392,260,139893,1,0,0:0:0:0:
292,160,140123,1,8,0:0:0:0:
48,88,140354,2,0,L|28:152,1,53.9999983520508,0|0,0:0|0:0,0:0:0:0:
48,208,140586,6,0,P|68:268|108:308,1,107.999996704102,2|0,0:0|0:0,0:0:0:0:
184,192,141047,2,0,P|164:132|128:96,1,107.999996704102,8|0,0:0|0:0,0:0:0:0:
48,208,141509,1,2,0:0:0:0:
132,320,141740,1,0,0:0:0:0:
184,192,141970,1,8,0:0:0:0:
48,208,142201,1,0,0:0:0:0:
216,344,142432,6,0,L|328:344,1,107.999996704102,2|0,0:0|0:0,0:0:0:0:
428,252,142893,2,0,L|316:252,1,107.999996704102,8|0,0:0|0:0,0:0:0:0:
216,344,143355,1,2,0:0:0:0:
104,260,143586,1,0,0:0:0:0:
96,120,143816,1,8,0:0:0:0:
220,52,144046,1,0,0:0:0:0:
284,264,144278,6,0,P|232:336|176:352,1,107.999996704102,6|0,0:0|0:0,0:0:0:0:
104,260,144740,1,8,0:0:0:0:
24,144,144970,1,0,0:0:0:0:
164,132,145201,2,0,P|216:156|228:228,1,107.999996704102,2|0,0:0|0:0,0:0:0:0:
104,260,145663,1,8,0:0:0:0:
24,144,145893,1,0,0:0:0:0:
260,28,146124,6,0,B|316:28|316:28|384:68,1,107.999996704102,2|0,0:0|0:0,0:0:0:0:
265,159,146586,2,0,B|209:159|209:159|141:119,1,107.999996704102,8|0,0:0|0:0,0:0:0:0:
260,28,147047,1,2,0:0:0:0:
265,159,147278,1,0,0:0:0:0:
380,84,147509,2,0,P|428:105|452:152,1,107.999996704102,8|0,0:0|0:0,0:0:0:0:
292,296,147970,6,0,L|192:352,1,107.999996704102,2|0,0:0|0:0,0:0:0:0:
176,208,148432,2,0,L|120:108,1,107.999996704102,10|0,0:0|0:0,0:0:0:0:
256,72,148893,1,2,0:0:0:0:
392,32,149124,1,0,0:0:0:0:
436,164,149355,1,8,0:0:0:0:
300,204,149586,1,0,0:0:0:0:
84,200,149816,6,0,P|108:256|156:296,1,107.999996704102,2|0,0:0|0:0,0:0:0:0:
276,336,150277,2,0,P|252:280|204:240,1,107.999996704102,8|0,0:0|0:0,0:0:0:0:
84,200,150739,1,2,0:0:0:0:
196,116,150970,1,0,0:0:0:0:
300,204,151200,1,8,3:0:0:0:
416,124,151431,1,4,3:0:0:0:
444,296,151662,6,0,P|392:344|336:348,1,116.999994644165,2|0,0:0|0:0,0:0:0:0:
196,336,152123,2,0,P|248:288|304:284,1,116.999994644165,8|0,0:0|0:0,0:0:0:0:
424,204,152585,1,2,0:0:0:0:
304,112,152816,1,0,0:0:0:0:
160,156,153046,2,0,P|104:228|108:280,1,116.999994644165,8|0,0:0|0:0,0:0:0:0:
368,300,153508,6,0,P|424:228|420:176,1,116.999994644165,2|0,0:0|0:0,0:0:0:0:
304,112,153970,1,8,0:0:0:0:
444,48,154200,1,0,0:0:0:0:
304,112,154431,1,2,0:0:0:0:
160,64,154662,1,0,0:0:0:0:
304,112,154893,1,8,0:0:0:0:
180,200,155123,1,0,0:0:0:0:
336,372,155354,6,0,P|400:324|408:260,1,116.999994644165,2|0,0:0|0:0,0:0:0:0:
428,140,155816,2,0,P|364:188|356:252,1,116.999994644165,8|0,0:0|0:0,0:0:0:0:
336,372,156277,1,2,0:0:0:0:
184,368,156508,1,0,0:0:0:0:
260,236,156739,1,8,0:0:0:0:
108,236,156970,1,0,0:0:0:0:
196,32,157200,6,0,L|328:32,1,116.999994644165,2|0,0:0|0:0,0:0:0:0:
436,124,157662,2,0,L|304:124,1,116.999994644165,8|0,0:0|0:0,0:0:0:0:
168,116,158123,1,2,0:0:0:0:
40,200,158354,1,0,0:0:0:0:
168,116,158585,1,8,0:0:0:0:
40,200,158816,1,0,0:0:0:0:
256,308,159046,6,0,L|388:308,1,116.999994644165,6|0,0:0|0:0,0:0:0:0:
496,216,159508,2,0,L|364:216,1,116.999994644165,8|0,0:0|0:0,0:0:0:0:
228,216,159970,1,2,0:0:0:0:
104,304,160200,1,0,0:0:0:0:
92,152,160431,1,8,0:0:0:0:
228,216,160662,1,0,0:0:0:0:
452,284,160893,6,0,P|472:220|452:160,1,116.999994644165,2|0,0:0|0:0,0:0:0:0:
336,84,161354,2,0,P|316:148|336:208,1,116.999994644165,10|0,0:0|0:0,0:0:0:0:
452,284,161816,1,2,0:0:0:0:
304,324,162046,2,0,L|212:324,2,58.4999973220826,0|0|8,0:0|0:0|0:0,0:0:0:0:
348,176,162508,1,0,0:0:0:0:
120,216,162739,6,0,P|72:252|64:324,1,116.999994644165,2|0,0:0|0:0,0:0:0:0:
212,264,163200,2,0,P|260:228|268:156,1,116.999994644165,8|0,0:0|0:0,0:0:0:0:
148,84,163662,2,0,B|208:48|208:48|288:52,1,116.999994644165,2|0,0:0|0:0,0:0:0:0:
400,92,164123,2,0,B|340:128|340:128|260:124,1,116.999994644165,8|0,0:0|0:0,0:0:0:0:
148,84,164585,5,2,0:0:0:0:
48,200,164816,1,0,0:0:0:0:
176,284,165046,1,8,0:0:0:0:
276,168,165277,1,0,0:0:0:0:
424,136,165508,2,0,B|444:196|444:196|424:268,1,116.999994644165,2|0,0:0|0:0,0:0:0:0:
328,360,165970,2,0,B|308:300|308:300|328:228,1,116.999994644165,8|0,0:0|0:0,0:0:0:0:
148,84,166431,6,0,P|200:36|256:32,1,116.999994644165,6|0,0:0|0:0,0:0:0:0:
332,152,166892,2,0,P|280:200|224:204,1,116.999994644165,8|0,0:0|0:0,0:0:0:0:
88,180,167354,1,2,0:0:0:0:
208,272,167585,1,0,0:0:0:0:
352,228,167815,2,0,P|408:156|404:104,1,116.999994644165,8|0,0:0|0:0,0:0:0:0:
144,84,168277,6,0,P|88:156|92:208,1,116.999994644165,2|0,0:0|0:0,0:0:0:0:
208,272,168739,1,8,0:0:0:0:
68,336,168969,1,0,0:0:0:0:
208,272,169200,1,2,0:0:0:0:
352,320,169431,1,0,0:0:0:0:
208,272,169662,1,8,0:0:0:0:
332,184,169892,1,0,0:0:0:0:
176,12,170123,6,0,P|112:60|104:124,1,116.999994644165,2|0,0:0|0:0,0:0:0:0:
84,244,170585,2,0,P|148:196|156:132,1,116.999994644165,8|0,0:0|0:0,0:0:0:0:
176,12,171046,1,2,0:0:0:0:
328,16,171277,1,0,0:0:0:0:
252,148,171508,1,8,0:0:0:0:
404,148,171739,1,0,0:0:0:0:
316,352,171969,6,0,L|184:352,1,116.999994644165,2|0,0:0|0:0,0:0:0:0:
76,260,172431,2,0,L|208:260,1,116.999994644165,8|0,0:0|0:0,0:0:0:0:
344,268,172892,1,2,0:0:0:0:
472,184,173123,1,0,0:0:0:0:
344,268,173354,1,8,0:0:0:0:
472,184,173585,1,0,0:0:0:0:
256,76,173815,6,0,L|124:76,1,116.999994644165,6|0,0:0|0:0,0:0:0:0:
16,168,174277,2,0,L|148:168,1,116.999994644165,8|0,0:0|0:0,0:0:0:0:
284,168,174739,1,2,0:0:0:0:
408,80,174969,1,0,0:0:0:0:
420,232,175200,1,8,0:0:0:0:
284,168,175431,1,0,0:0:0:0:
60,100,175662,6,0,P|40:164|60:224,1,116.999994644165,2|0,0:0|0:0,0:0:0:0:
176,300,176123,2,0,P|196:236|176:176,1,116.999994644165,10|0,0:0|0:0,0:0:0:0:
60,100,176585,1,2,0:0:0:0:
208,60,176815,2,0,L|300:60,2,58.4999973220826,0|0|8,0:0|0:0|0:0,0:0:0:0:
164,208,177277,1,0,0:0:0:0:
392,168,177508,6,0,P|440:132|448:60,1,116.999994644165,2|0,0:0|0:0,0:0:0:0:
300,120,177969,2,0,P|252:156|244:228,1,116.999994644165,8|0,0:0|0:0,0:0:0:0:
364,300,178431,2,0,B|304:336|304:336|224:332,1,116.999994644165,2|0,0:0|0:0,0:0:0:0:
112,292,178892,2,0,B|172:256|172:256|252:260,1,116.999994644165,8|0,0:0|0:0,0:0:0:0:
256,108,179354,1,2,0:0:0:0:
256,192,179470,12,8,180739,0:0:0:0:
168,280,181200,6,0,P|254:321|340:278,1,198.000006042481,6|8,0:0|0:0,0:0:0:0:
344,104,182123,2,0,P|257:62|171:105,1,198.000006042481,2|8,0:0|0:0,0:0:0:0:
88,264,183046,2,0,L|88:56,1,198.000006042481,2|8,0:0|0:0,0:0:0:0:
280,12,183970,2,0,L|280:220,1,198.000006042481,2|8,0:0|0:0,0:0:0:0:
144,356,184893,6,0,P|104:269|155:189,1,198.000006042481,2|8,0:0|0:0,0:0:0:0:
328,96,185816,2,0,P|367:182|316:262,1,198.000006042481,2|8,0:0|0:0,0:0:0:0:
135,207,186739,2,0,L|12:44,1,198.000006042481,2|8,0:0|0:0,0:0:0:0:
204,108,187662,2,0,L|327:271,1,198.000006042481,2|8,0:0|0:0,0:0:0:0:
140,192,188585,5,2,0:0:0:0:
256,32,189046,1,8,0:0:0:0:
372,192,189508,1,2,0:0:0:0:
256,352,189969,1,8,0:0:0:0:
256,120,190431,1,2,0:0:0:0:
336,180,190662,1,0,0:0:0:0:
416,236,190892,1,8,0:0:0:0:
336,296,191123,1,0,0:0:0:0:
256,352,191354,1,2,0:0:0:0:
172,296,191585,1,0,0:0:0:0:
96,236,191815,1,8,0:0:0:0:
168,168,192046,1,0,0:0:0:0:
248,108,192277,6,0,L|336:108,3,49.5000015106202,4|0|2|0,0:0|0:0|0:0|0:0,0:0:0:0:
224,88,192739,2,0,L|168:36,3,49.5000015106202,8|0|2|0,0:0|0:0|0:0|0:0,0:0:0:0:
264,92,193200,2,0,L|320:40,3,49.5000015106202,8|0|2|0,0:0|0:0|0:0|0:0,0:0:0:0:
248,108,193662,2,0,L|248:196,3,49.5000015106202,8|0|2|0,0:0|0:0|0:0|0:0,0:0:0:0:
248,208,194123,1,0,0:0:0:0:
256,192,194239,12,12,195508,0:0:0:0:
256,192,195970,12,0,201508,0:0:0:0:
