osu file format v12

[General]
AudioFilename: Kaa.mp3
AudioLeadIn: 0
PreviewTime: 82015
Countdown: 0
SampleSet: Soft
StackLeniency: 0.7
Mode: 0
LetterboxInBreaks: 1
WidescreenStoryboard: 0

[Editor]
DistanceSpacing: 1
BeatDivisor: 2
GridSize: 8

[Metadata]
Title:Cherry Blossoms, Falling -Beautifully-
TitleUnicode:Cherry Blossoms, Falling -Beautifully-
Artist:Seven Color Light Project
ArtistUnicode:Seven Color Light Project
Creator:nattap
Version:Easy
Source:
Tags:Kamui Gakupo KAITO Kagamine Len Vanan'ice natsuP haruaki haku scl project last color Blue rose Gackpo Kyte Vocaloid
BeatmapID:232574
BeatmapSetID:84422

[Difficulty]
HPDrainRate:3
CircleSize:3
OverallDifficulty:3
ApproachRate:3
SliderMultiplier:0.9
SliderTickRate:1

[Events]
//Background and Video events
0,0,"Sakura.Maichirinu.-Rei-.full.1099154.jpg",0,0
Video,0,"b1.avi"
//Break Periods
2,79015,80575
2,96615,120575
//Storyboard Layer 0 (Background)
//Storyboard Layer 1 (Fail)
//Storyboard Layer 2 (Pass)
//Storyboard Layer 3 (Foreground)
//Storyboard Sound Samples
//Background Colour Transformations
3,100,163,162,255

[TimingPoints]
13215,400,4,2,0,80,1,0
38815,-100,4,2,0,80,0,0
40415,-100,4,2,0,80,0,0
43615,-100,4,2,0,80,0,0
47815,-100,4,2,0,80,0,0
80415,-100,4,2,0,40,0,0
82015,-100,4,2,0,80,0,1
96415,-100,4,2,0,80,0,0
122015,-100,4,2,0,80,0,0
139615,-100,4,2,0,80,0,1
152215,-100,4,2,0,80,0,0
152415,-100,4,2,0,80,0,1
162015,-100,4,2,0,80,0,0
166815,-100,4,2,0,80,0,0

[Colours]
Combo1 : 167,79,255
Combo2 : 255,255,128
Combo3 : 255,128,128
Combo4 : 51,153,255

[HitObjects]
344,288,13215,2,0,P|256:312|160:280,1,180,4|2,0:0|0:0,0:0:0:0:
168,112,14815,2,0,P|256:88|352:120,1,180,0|2,0:0|0:0,0:0:0:0:
256,272,16415,2,0,P|176:264|104:192,1,180,4|2,0:0|0:0,0:0:0:0:
256,112,18015,2,0,P|336:120|400:176,1,90,0|8,0:0|0:0,0:0:0:0:
384,288,19215,1,0,0:0:0:0:
296,280,19615,6,0,P|152:280|56:104,2,360,4|4|4,0:0|0:0|0:0,0:0:0:0:
384,120,23615,2,0,P|280:160|176:136,1,180,2|2,0:0|0:0,0:0:0:0:
96,96,25215,1,2,0:0:0:0:
96,272,26015,5,4,0:0:0:0:
272,304,26815,2,0,P|328:272|344:160,1,180,2|0,0:0|0:0,0:0:0:0:
200,56,28415,2,0,P|144:88|128:200,1,180,2|4,0:0|0:0,0:0:0:0:
256,320,30015,1,2,0:0:0:0:
400,216,30815,2,0,P|376:152|256:96,1,180,0|2,0:0|0:0,0:0:0:0:
112,32,32415,6,0,P|40:216|112:368,2,360,4|2|4,0:0|0:0|0:0,0:0:0:0:
376,72,36815,2,0,P|408:128|360:280,1,180,2|2,0:0|0:0,0:0:0:0:
144,304,38815,6,0,P|136:208|184:160,1,135,4|0,0:0|0:0,0:0:0:0:
256,272,40015,1,2,0:0:0:0:
344,256,40415,2,0,P|368:192|232:80,1,270,4|0,0:0|0:0,0:0:0:0:
144,88,42015,1,8,0:0:0:0:
104,216,42615,2,0,P|112:288|256:320,1,225,2|8,0:0|0:0,0:0:0:0:
320,168,44415,1,2,0:0:0:0:
496,128,45215,6,0,P|488:200|424:280,1,135,4|0,0:0|0:0,0:0:0:0:
336,304,46415,1,0,0:0:0:0:
240,320,46815,2,0,P|152:288|192:120,1,270,10|0,0:0|0:0,0:0:0:0:
240,88,48415,2,0,L|384:88,1,135,2|0,0:0|0:0,0:0:0:0:
376,312,50015,6,0,P|256:280|112:320,1,270,4|0,0:0|0:0,0:0:0:0:
88,232,51615,1,8,0:0:0:0:
120,56,52415,2,0,P|248:104|464:48,1,360,2|0,0:0|0:0,0:0:0:0:
440,232,54815,6,2,P|400:288|304:312,1,135,4|2,0:0|0:0,0:0:0:0:
112,312,56415,2,0,P|88:264|136:48,1,270,2|0,0:0|0:0,0:0:0:0:
216,64,58015,1,8,0:0:0:0:
400,64,58815,2,0,P|376:120|448:216,1,180,4|2,0:0|0:0,0:0:0:0:
368,320,61215,6,0,P|320:288|96:304,1,270,4|0,0:0|0:0,0:0:0:0:
64,216,62815,1,8,0:0:0:0:
120,48,63615,1,8,0:0:0:0:
288,112,64415,6,0,P|384:88|400:0,2,180,4|2|4,0:0|0:0|0:0,0:0:0:0:
136,216,66815,1,2,0:0:0:0:
312,200,67615,6,0,P|408:224|424:312,2,180,4|2|4,0:0|0:0|0:0,0:0:0:0:
160,96,70015,1,2,0:0:0:0:
160,272,70815,6,0,P|256:296|344:272,2,180,4|2|4,0:0|0:0|0:0,0:0:0:0:
256,120,73215,1,2,0:0:0:0:
80,136,74015,6,4,P|56:216|112:336,1,180,4|2,0:0|0:0,0:0:0:0:
264,304,75615,2,0,P|288:216|256:120,1,180,4|2,0:0|0:0,0:0:0:0:
104,208,77215,5,8,0:0:0:0:
256,304,78015,1,8,0:0:0:0:
256,128,78815,1,8,0:0:0:0:
360,304,82015,6,0,P|296:328|176:312,1,180,4|0,0:0|0:0,0:0:0:0:
64,184,83615,2,0,P|128:160|237:171,1,180,4|2,0:0|0:0,0:0:0:0:
416,208,85215,2,0,P|440:152|352:64,2,180,2|2|2,0:0|0:0|0:0,0:0:0:0:
280,320,87615,1,10,0:0:0:0:
112,248,88415,6,0,P|80:184|192:48,1,270,4|2,0:0|0:0,0:0:0:0:
184,136,90015,2,0,P|280:144|328:208,1,180,4|2,0:0|0:0,0:0:0:0:
256,368,91615,1,2,0:0:0:0:
112,256,92415,1,2,0:0:0:0:
112,80,93215,1,2,0:0:0:0:
256,192,94015,1,2,0:0:0:0:
256,192,94815,12,4,96415,0:0:0:0:
72,304,122015,6,0,P|128:312|256:272,1,180,4|2,0:0|0:0,0:0:0:0:
376,160,123615,2,0,P|320:152|192:192,1,180,4|2,0:0|0:0,0:0:0:0:
344,296,125215,2,0,P|280:320|144:304,1,180,4|2,0:0|0:0,0:0:0:0:
40,184,126815,2,0,P|150:178|214:202,1,180,4|2,0:0|0:0,0:0:0:0:
360,96,128415,6,0,P|384:160|368:304,2,180
88,88,131215,1,2,0:0:0:0:
64,176,131615,2,0,P|104:232|176:272,1,135,4|0,0:0|0:0,0:0:0:0:
296,272,132815,5,2,0:0:0:0:
360,208,133215,2,4,P|312:160|232:128,1,135,4|0,0:0|0:0,0:0:0:0:
120,160,134415,5,8,0:0:0:0:
128,248,134815,2,0,P|192:304|304:304,1,180,8|8,0:0|0:0,0:0:0:0:
384,160,136415,2,2,P|336:128|216:112,2,180,4|2|2,0:0|0:0|0:0,0:0:0:0:
440,296,139615,6,0,P|376:320|320:328,1,90,4|0,0:0|0:0,0:0:0:0:
264,328,140415,2,0,P|208:312|168:296,1,90,2|0,0:0|0:0,0:0:0:0:
104,256,141215,2,0,P|168:200|288:200,1,180,4|0,0:0|0:0,0:0:0:0:
344,168,142415,1,2,0:0:0:0:
344,80,142815,6,0,P|256:48|152:96,2,180,2|2|2,0:0|0:0|0:0,0:0:0:0:
432,240,145215,2,0,P|376:264|232:248,1,180,8|4,0:0|0:0,0:0:0:0:
88,192,146815,1,2,0:0:0:0:
240,88,147615,6,0,P|304:64|352:80,2,90,4|0|2,0:0|0:0|0:0,0:0:0:0:
152,248,149215,2,0,P|272:288|352:288,2,180,2|2|2,0:0|0:0|0:0,0:0:0:0:
96,80,151615,1,10,0:0:0:0:
272,48,152415,6,0,P|312:88|344:144,1,90,4|0,0:0|0:0,0:0:0:0:
376,192,153215,2,0,P|352:240|312:272,1,90,2|0,0:0|0:0,0:0:0:0:
240,288,154015,2,0,P|128:256|56:160,1,180,4|0,0:0|0:0,0:0:0:0:
192,72,155615,6,0,P|304:104|384:192,2,180,2|2|2,0:0|0:0|0:0,0:0:0:0:
56,192,158015,1,2,0:0:0:0:
200,296,158815,6,0,L|304:296,1,90,4|0,0:0|0:0,0:0:0:0:
376,296,159615,2,0,L|376:192,1,90,2|0,0:0|0:0,0:0:0:0:
352,120,160415,2,0,P|264:88|184:128,1,180,4|0,0:0|0:0,0:0:0:0:
256,288,162015,6,0,P|176:336|72:288,3,180,2|2|2|4,0:0|0:0|0:0|0:0,0:0:0:0:
256,192,164815,12,4,166815,0:0:0:0:
88,296,167615,5,2,0:0:0:0:
88,120,168415,2,0,P|168:64|256:72,1,180,2|0,0:0|0:0,0:0:0:0:
408,144,170015,2,0,P|336:208|240:216,1,180,2|0,0:0|0:0,0:0:0:0:
80,240,171615,2,0,P|136:320|224:304,1,180,2|0,0:0|0:0,0:0:0:0:
384,272,173215,6,0,P|368:176|200:104,1,270,2|0,0:0|0:0,0:0:0:0:
136,112,174815,2,0,L|48:184,1,90,2|8,0:0|0:0,0:0:0:0:
112,248,175615,2,0,L|208:176,1,90,2|8,0:0|0:0,0:0:0:0:
272,168,176415,1,4,0:0:0:0:
376,312,177215,1,2,0:0:0:0:
424,136,178015,6,2,P|352:64|256:64,2,180,2|2|4,0:0|0:0|0:0,0:0:0:0:
344,296,180415,1,2,0:0:0:0:
168,296,181215,2,0,P|112:224|120:120,2,180,2|0|0,0:0|0:0|0:0,0:0:0:0:
344,264,183615,6,0,L|416:184,1,90,2|8,0:0|0:0,0:0:0:0:
336,144,184415,2,0,L|264:208,1,90,2|8,0:0|0:0,0:0:0:0:
208,136,185215,2,0,L|280:64,1,90,2|8,0:0|0:0,0:0:0:0:
184,40,186015,1,2,0:0:0:0:
88,192,186815,6,0,P|120:304|192:328,1,180,2|0,0:0|0:0,0:0:0:0:
352,328,188415,2,0,P|402:305|434:193,1,180,2|0,0:0|0:0,0:0:0:0:
256,200,190015,1,8,0:0:0:0:
256,192,190815,12,0,192415,0:0:0:0:
