osu file format v9

[General]
AudioFilename: Seto Asami & Hayami Saori - Kokoro no Senritsu.mp3
AudioLeadIn: 0
PreviewTime: 60647
Countdown: 0
SampleSet: Soft
StackLeniency: 0.4
Mode: 0
LetterboxInBreaks: 0

[Editor]
DistanceSpacing: 0.8
BeatDivisor: 2
GridSize: 8

[Metadata]
Title:Kokoro no Senritsu (TV Size)
Artist:Seto Asami & Hayami Saori
Creator:Andrea
Version:Normal
Source:TARI TARI
Tags:Ending P.A. Works Corporation Miyamoto Konatsu Okita Sawa (#2 ED Ver.)

[Difficulty]
HPDrainRate:3
CircleSize:3
OverallDifficulty:3
ApproachRate:4
SliderMultiplier:1.2
SliderTickRate:1

[Events]
//Background and Video events
0,0,"BG.jpg"
Video,-1500,"ED.avi"
//Break Periods
//Storyboard Layer 0 (Background)
//Storyboard Layer 1 (Fail)
//Storyboard Layer 2 (Pass)
//Storyboard Layer 3 (Foreground)
//Storyboard Sound Samples
//Background Colour Transformations
3,100,163,162,255

[TimingPoints]
16205,454.545454545455,4,2,2,25,1,0
60750,-100,4,2,1,50,0,0
118932,-100,4,1,1,20,0,0
119387,-100,4,1,1,30,0,0
119841,-100,4,2,1,50,0,0
120523,-100,4,2,1,25,0,0
129841,-100,4,1,1,20,0,0
130296,-100,4,1,1,30,0,0
130750,-100,4,2,1,50,0,0
143705,-100,4,1,1,25,0,0
143932,-100,4,2,1,50,0,0
144387,-100,4,1,1,25,0,0
144614,-100,4,2,1,50,0,0
145296,-100,4,1,1,25,0,0
145978,-100,4,2,1,50,0,0
147114,-100,4,2,1,40,0,0
148023,-100,4,2,1,30,0,0
148932,-100,4,2,1,20,0,0
149841,-100,4,2,1,10,0,0
150523,-100,4,2,1,5,0,0

[Colours]
Combo1 : 128,0,128
Combo2 : 170,170,85
Combo3 : 0,172,255
Combo4 : 128,0,0

[HitObjects]
160,288,15750,1,0
256,288,16205,2,0,B|360:348|360:348|464:288,2,240,2|2|2
256,192,18478,1,0
256,96,18932,2,0,B|152:36|152:36|48:96,2,240,2|2|2
176,272,21659,5,2
256,328,22114,1,0
336,272,22568,2,0,B|408:176|408:176|408:56,2,240,2|2|2
256,96,25295,6,0,B|192:96|144:136,1,120,2|0
72,192,26205,1,2
144,248,26659,2,0,B|192:288|256:288,1,120,0|2
424,192,28023,1,2
256,96,28932,1,2
64,304,30750,6,0,B|160:304|216:216,2,180,2|2|2
64,208,32569,1,2
128,136,33023,1,0
192,64,33477,2,0,B|312:64|400:168,1,240,2|2
256,296,35296,1,2
96,192,36205,6,0,B|160:192|200:136,1,120,2|0
200,40,37114,2,0,B|320:40|408:144,1,240,2|2
408,240,38478,1,0
336,304,38932,1,2
256,360,39387,1,0
176,304,39841,6,0,B|104:208|104:208|104:88,1,240,2|2
200,88,41205,1,0
256,168,41659,2,0,B|376:168|464:272,1,240,2|2
392,336,43023,1,0
304,296,43478,5,2
208,296,43932,1,0
120,336,44386,2,0,B|48:272|48:176,1,180,2|2
160,88,45750,1,0
256,88,46205,6,0,B|320:88|368:128,1,120,2|0
440,192,47114,2,0,B|440:280|360:352,1,180,2|2
256,256,48478,1,0
184,312,48932,6,0,B|0:312,2,180,2|2|0
256,256,50750,2,0,B|256:72,2,180,2|2|0
328,312,52568,2,0,B|512:312,2,180,2|2|0
256,368,54387,5,2
120,240,55296,1,2
256,104,56205,2,0,B|344:104|416:184,2,180,2|2|0
256,200,58023,5,2
72,152,58932,1,2
256,96,59841,1,2
256,96,60296,1,2
256,96,60750,6,0,B|256:36,2,60,8|0|8
256,192,61660,1,4
176,248,62114,2,8,B|256:337|256:337|336:248,1,240,10|10
256,192,63478,1,0
336,136,63932,2,8,B|256:47|256:47|176:136,1,240,10|10
80,136,65296,5,0
80,232,65750,2,0,B|144:232|192:272,1,120,10|0
256,344,66659,1,10
320,272,67114,2,0,B|368:232|432:232,1,120,0|10
432,136,68023,1,0
360,72,68478,6,0,B|296:72|256:128,1,120,10|0
160,128,69387,2,8,B|160:248|160:248|88:344,2,240,10|10|10
208,48,71659,1,0
304,48,72114,1,10
352,128,72569,5,0
440,145,73023,1,10
416,232,73478,1,0
416,232,73932,6,0,B|416:296|368:344,1,120,10|0
320,256,74841,1,10
256,328,75296,1,0
192,256,75750,1,10
140,340,76205,2,0,B|96:296|96:232,1,120,4|10
256,120,77569,5,10
344,156,78023,1,0
432,192,78478,1,10
256,264,79387,1,10
168,228,79841,1,0
80,192,80296,1,10
256,120,81205,6,0,B|320:120|320:120|368:80,1,120,10|0
440,144,82114,1,10
440,240,82569,1,0
363,299,83023,2,0,B|320:264|320:264|256:264,1,120,10|4
160,264,83932,5,10
96,192,84387,1,0
40,112,84841,1,10
136,112,85296,6,0,B|200:112|240:56,1,120,0|10
336,56,86205,1,0
408,120,86659,1,10
336,184,87114,1,0
408,248,87569,1,10
336,312,88023,1,0
256,360,88478,6,0,B|200:328,1,60,10|4
120,288,89159,2,0,B|120:224,1,60,8|0
168,144,89841,1,8
208,56,90296,1,0
304,56,90750,5,4
344,144,91205,2,8,B|417:169|433:233|417:297|344:321,1,240,10|10
256,352,92569,1,0
168,321,93023,2,8,B|95:297|79:233|95:169|168:144,1,240,10|10
208,56,94387,6,0,B|144:56|96:16,2,120,0|10|0
304,56,95750,2,0,B|368:56|416:16,2,120,10|0|10
256,136,97114,1,0
176,192,97569,1,10
256,248,98023,5,0
336,192,98478,2,0,B|456:192|456:192|496:136|464:80,1,240,10|10
376,32,99841,1,0
304,96,100296,1,10
208,96,100750,1,0
136,32,101205,1,10
72,104,101659,5,0
72,200,102114,2,8,B|72:304|168:304|168:304|216:368,1,240,10|10
256,280,103478,1,0
296,367,103932,2,8,B|344:304|344:304|440:304|440:200,1,240,10|10
440,104,105296,5,4
344,104,105750,2,8,B|320:32|256:16|192:32|168:104,1,240,10|10
256,144,107114,1,0
167,183,107569,2,8,B|192:256|256:272|320:256|344:183,1,240,10|10
440,184,108932,5,0
440,280,109387,1,10
368,344,109841,1,0
272,344,110296,2,8,B|152:344|152:344|72:256,1,240,10|10
8,184,111659,1,0
56,104,112114,5,10
152,104,112569,1,0
208,184,113023,2,8,B|328:184|424:280,1,240,10|10
472,192,114387,1,0
400,128,114841,6,8,B|280:128|184:32,1,240,10|10
88,32,116205,1,4
24,104,116659,1,10
88,176,117114,1,0
168,232,117569,1,10
256,272,118023,6,0,B|320:272|320:272|368:240,1,120,0|10
448,192,118932,1,0
366,143,119387,2,0,B|320:112|320:112|256:112,1,120,0|4
120,72,120523,2,0,B|40:112|24:192|40:272|120:312,1,300,0|2
256,48,123478,5,2
48,192,124387,1,0
256,336,125296,1,2
464,192,126205,1,0
256,192,127114,5,2
136,272,127796,2,0,B|176:352|256:368|336:352|376:272,1,300,0|2
256,192,129841,6,0,B|256:72,2,120,0|0|4
328,256,131205,1,10
256,320,131659,2,0,B|256:384,2,60,0|0|10
184,256,132569,5,0
256,192,133023,1,10
256,96,133478,2,0,B|256:24,2,60,0|0|10
352,96,134387,5,0
352,192,134841,1,10
448,192,135296,2,0,B|512:192,2,60,0|0|10
352,192,136205,5,0
352,288,136659,1,10
256,288,137114,2,0,B|192:288,2,60,0|0|10
256,192,138023,6,0,B|136:192,1,120,4|10
72,120,138932,2,0,B|32:72,2,60,0|0|10
136,48,139841,5,0
208,112,140296,1,10
304,112,140750,1,0
376,48,141205,1,10
440,120,141659,2,0,B|480:72,2,60,0|0|10
408,160,142341,1,0
408,256,142796,6,0,B|456:304,2,60,0|10|4
336,320,143705,1,0
336,320,143932,1,0
256,264,144387,2,0,B|256:192,2,60,0|0|10
176,320,145296,1,0
176,320,145523,1,0
104,256,145978,1,4
256,192,146205,12,0,150523
