osu file format v9

[General]
AudioFilename: Seto Asami & Hayami Saori - Kokoro no Senritsu.mp3
AudioLeadIn: 0
PreviewTime: 60647
Countdown: 0
SampleSet: Soft
StackLeniency: 0.4
Mode: 0
LetterboxInBreaks: 0

[Editor]
DistanceSpacing: 0.9
BeatDivisor: 4
GridSize: 4

[Metadata]
Title:Kokoro no Senritsu (TV Size)
Artist:Seto Asami & Hayami Saori
Creator:Andrea
Version:Hard
Source:TARI TARI
Tags:Ending P.A. Works Corporation Miyamoto Konatsu Okita Sawa (#2 ED Ver.)

[Difficulty]
HPDrainRate:7
CircleSize:4
OverallDifficulty:7
ApproachRate:8
SliderMultiplier:1.8
SliderTickRate:1

[Events]
//Background and Video events
0,0,"BG.jpg"
Video,-1500,"ED.avi"
//Break Periods
//Storyboard Layer 0 (Background)
//Storyboard Layer 1 (Fail)
//Storyboard Layer 2 (Pass)
//Storyboard Layer 3 (Foreground)
//Storyboard Sound Samples
//Background Colour Transformations
3,100,163,162,255

[TimingPoints]
16205,454.545454545455,4,2,2,25,1,0
60750,-100,4,2,1,50,0,0
118705,-100,4,1,1,15,0,0
118932,-100,4,1,1,20,0,0
119159,-100,4,1,1,25,0,0
119387,-100,4,1,1,30,0,0
119614,-100,4,1,1,25,0,0
119841,-100,4,2,1,50,0,0
120523,-100,4,2,1,25,0,0
129614,-100,4,1,1,15,0,0
129841,-100,4,1,1,20,0,0
130069,-100,4,1,1,25,0,0
130296,-100,4,1,1,30,0,0
130523,-100,4,1,1,35,0,0
130637,-100,4,1,1,40,0,0
130750,-100,4,2,1,50,0,0
143705,-100,4,1,1,25,0,0
143932,-100,4,2,1,50,0,0
144387,-100,4,1,1,25,0,0
144614,-100,4,2,1,50,0,0
145296,-100,4,1,1,25,0,0
145978,-100,4,2,1,50,0,0
147114,-100,4,2,1,40,0,0
148023,-100,4,2,1,30,0,0
148932,-100,4,2,1,20,0,0
149841,-100,4,2,1,10,0,0
150523,-100,4,2,1,5,0,0

[Colours]
Combo1 : 128,0,128
Combo2 : 170,170,85
Combo3 : 0,172,255
Combo4 : 128,0,0

[HitObjects]
256,44,15750,1,0
156,172,16204,2,0,B|180:248|256:276|328:248|356:172,1,270,2|0
296,116,17114,1,2
216,116,17341,1,0
176,44,17569,1,0
256,44,17796,1,0
336,44,18023,1,2
180,352,18478,1,0
256,320,18704,1,0
332,352,18932,1,2
472,192,19387,5,0
256,44,19841,2,0,B|156:44|80:120|80:216,1,270,2|0
80,292,20750,1,2
160,292,20977,2,0,B|216:364,1,90
352,292,21432,2,0,B|296:364,1,90,0|2
256,292,21886,1,0
184,216,22114,6,0,B|208:168|256:160|304:168|328:216,2,180,0|2|0
104,216,23250,1,0
104,136,23478,1,2
408,136,23932,1,0
408,216,24159,1,2
324,356,24614,6,0,B|324:312|324:312|296:276,1,90
188,356,25068,2,0,B|188:312|188:312|216:276,1,90,0|2
256,204,25523,1,0
208,140,25750,1,0
256,76,25978,1,0
304,140,26205,1,2
188,356,26659,1,0
324,356,27114,6,0,B|404:260|404:260|404:112,1,270,2|0
336,68,28023,1,2
256,68,28250,2,0,B|164:68|96:140,1,180
96,139,28932,1,2
124,336,30295,5,0
176,276,30522,1,0
256,276,30750,1,2
336,276,30978,1,0
388,336,31205,1,0
440,276,31432,2,0,B|440:184|368:116,1,180,2|0
312,60,32114,1,2
256,116,32341,1,0
200,60,32568,6,0,B|112:60|112:60|44:120,2,180,2|0|2
256,116,33705,1,0
312,60,33932,2,0,B|360:60|396:96,1,90,0|0
448,152,34387,1,2
448,232,34614,1,0
393,290,34841,2,0,B|360:324|312:324,1,90
256,268,35295,2,0,B|196:268|196:268|152:296|152:296|84:296,1,180,2|0
84,88,36205,6,0,B|152:88|152:88|196:116|196:116|256:116,1,180,2|0
336,116,36887,1,0
360,192,37114,2,0,B|452:192,2,90,2|0|0
336,268,37796,1,0
256,288,38023,1,2
152,192,38478,1,0
256,96,38932,1,2
360,192,39386,6,0,B|448:192,1,90
484,264,39841,2,0,B|532:240|540:192|532:144|484:120,1,180,2|0
450,192,40523,2,0,B|266:192,1,180,2|0
216,132,41205,1,0
164,192,41432,1,0
216,252,41659,1,2
44,192,42114,1,0
216,132,42569,1,2
256,60,42795,6,0,B|344:60,1,90
428,60,43250,1,0
388,128,43477,2,0,B|388:216|388:216|340:296,1,180,2|0
296,360,44159,1,0
216,360,44387,1,2
172,292,44614,1,0
216,224,44841,1,0
296,224,45069,1,2
168,124,45523,5,0
216,60,45750,1,0
296,60,45977,1,0
344,124,46205,2,0,B|440:124|504:196,1,180,2|0
8,196,47114,6,0,B|72:124|168:124,1,180,2|0
256,124,47796,1,2
368,240,48250,2,0,B|368:288|332:320,1,90
256,352,48705,1,0
180,320,48932,2,0,B|144:288|144:240,1,90,2|0
216,204,49387,1,0
296,204,49614,1,2
348,52,50068,6,0,B|296:124,1,90
164,52,50523,2,0,B|216:124,1,90,0|2
104,340,51432,2,0,B|152:340|184:304,1,90,0|2
256,174,51886,2,0,B|256:264,1,90
408,340,52341,2,0,B|360:340|328:304,1,90,0|2
256,52,53023,1,0
256,52,53250,1,2
172,192,53705,5,0
216,260,53932,1,0
296,260,54159,1,0
340,192,54387,1,2
296,348,54841,1,0
216,348,55069,1,0
144,312,55296,1,2
64,312,55523,2,0,B|36:276|36:276|36:232,1,90
36,152,55977,6,0,B|36:108|36:108|64:72,1,90,0|2
216,16,56659,1,0
296,16,56886,2,0,B|384:16|456:92,1,180,2|0
508,152,57569,1,0
508,232,57796,1,0
456,292,58023,6,0,B|384:368|296:368,1,180,2|0
212,368,58705,1,0
144,320,58932,2,0,B|144:228,1,90,2|0
64,232,59386,1,0
104,160,59614,1,0
64,88,59841,1,2
448,88,60296,1,2
256,192,60750,5,8
256,112,60978,2,0,B|256:64,2,45,0|8|8
336,160,61432,1,0
336,240,61659,2,0,B|256:281|256:281|176:240,1,180,4|10
176,160,62341,1,0
64,264,62796,1,0
28,192,63023,1,10
64,120,63250,2,0,B|164:120|216:36,1,180
297,38,63932,2,0,B|349:122|449:122,1,180,10|0
324,300,64841,5,10
256,344,65069,1,0
188,300,65296,2,0,B|96:300|36:216,1,180,0|10
100,164,65978,2,0,B|148:164|176:120,1,90
256,120,66432,1,0
337,121,66659,2,0,B|364:164|412:164,1,90,10|0
452,232,67114,1,0
384,272,67341,2,0,B|328:344,1,90,0|10
256,296,67796,2,0,B|256:208,1,90
128,272,68250,2,0,B|184:344,1,90,0|10
184,84,68932,6,0,B|208:36|256:28|304:36|328:84,1,180,0|10
328,164,69614,1,0
328,244,69841,1,0
256,280,70069,1,0
184,244,70296,1,10
184,164,70523,1,0
256,198,70750,1,0
328,84,70978,6,0,B|400:28,1,90,0|10
256,108,71432,2,0,B|256:200,1,90
184,84,71887,2,0,B|112:28,1,90,0|10
60,88,72341,1,0
8,148,72569,2,0,B|8:236|8:236|64:312,1,180,0|10
144,308,73250,1,0
212,352,73478,2,0,B|304:352|368:272,1,180,0|10
368,192,74159,5,0
424,132,74387,1,0
368,72,74614,2,0,B|408:32,2,45,0|0|10
296,36,75069,1,0
216,36,75296,1,0
144,72,75523,2,0,B|104:32,2,45,0|0|10
88,132,75978,1,0
144,192,76205,5,4
368,192,76659,1,10
256,344,77114,2,0,B|256:252,2,90,0|0|10
184,84,78023,6,0,B|208:36|256:28|304:36|328:84,2,180,0|10|0
256,124,79159,1,0
328,164,79387,2,0,B|303:212|255:220|207:212|183:164,2,180,10|0|10
320,324,80750,5,0
256,372,80978,1,0
192,324,81205,2,0,B|132:324|132:324|80:296|80:296|20:296,2,180,10|0|10
136,172,82569,5,0
184,104,82796,1,0
256,64,83023,1,10
328,104,83250,1,0
376,172,83478,2,0,B|376:240|416:268|416:268|416:340,1,180,4|10
96,340,84387,1,0
96,340,84614,1,0
96,340,84841,2,0,B|96:268|96:268|136:240|136:172,1,180,10|0
256,44,85750,5,10
416,340,86205,1,0
96,340,86659,1,10
152,124,87114,2,0,B|212:192,1,90
360,124,87569,2,0,B|300:192,1,90,10|0
256,348,88023,2,0,B|256:256,1,90
256,127,88478,1,10
184,92,88705,6,0,B|208:43|256:35|304:43|328:91,1,180,4|8
360,168,89387,2,0,B|360:216|360:216|332:252,1,90
152,168,89841,2,0,B|152:216|152:216|180:252,1,90,8|0
256,276,90296,2,0,B|256:324,2,45,0|8|8
256,196,90750,1,4
256,32,91205,5,10
328,68,91432,2,0,B|304:117|256:125|208:117|184:69,1,180,0|0
104,68,92114,1,10
40,120,92341,2,0,B|89:144|97:192|89:240|41:264,1,180,0|0
104,316,93023,1,10
176,352,93250,1,0
256,352,93478,6,0,B|352:352|404:264,1,180,0|10
440,192,94159,1,0
404,120,94387,2,0,B|352:32|256:32,1,180,0|10
192,84,95069,2,0,B|144:84|112:124,1,90
72,192,95523,1,0
113,262,95750,2,0,B|144:300|192:300,1,90,10|0
256,352,96205,6,0,B|328:352|356:304|356:304|420:304,1,180,0|10
480,248,96887,1,0
420,192,97114,1,0
480,136,97341,1,0
420,80,97569,2,0,B|356:80|356:80|328:32|256:32,1,180,10|0
116,108,98478,6,0,B|68:108|36:144,1,90,10|0
104,192,98932,1,0
36,240,99160,2,0,B|68:276|116:276,1,90,0|10
194,276,99614,1,0
264,308,99841,2,0,B|352:308|352:308|412:236,1,180,0|10
410,146,100523,2,0,B|352:76|352:76|264:76,1,180
184,76,101205,1,10
40,192,101660,5,0
184,308,102114,2,0,B|184:264|184:264|208:220,1,90,10|0
256,160,102569,1,0
328,308,102796,2,0,B|328:264|328:264|305:223,1,90,0|10
256,77,103364,6,8,B|256:32,1,45
256,160,103705,1,0
304,224,103932,2,0,B|328:264,2,45,0|8|8
256,292,104387,1,0
208,224,104614,2,0,B|184:262,2,45,0|8|8
256,160,105069,1,0
184,124,105296,6,0,B|208:75|256:67|304:75|328:124,1,180,4|10
256,160,105978,2,0,B|256:344,1,180
256,340,106660,1,10
336,340,106887,2,0,B|436:340|484:252,1,180
336,44,107569,2,0,B|436:44|484:132,1,180,10|0
40,192,108478,6,0,B|132:192,1,90,10|0
168,264,108932,2,0,B|216:239|224:191|216:143|167:119,1,180,0|10
94,84,109614,2,0,B|124:40|168:40,1,90
256,40,110069,1,0
417,84,110296,2,0,B|388:40|344:40,1,90,10|0
344,119,110750,2,0,B|295:143|287:191|295:239|344:264,1,180,0|10
416,288,111432,6,0,B|416:336|376:364,1,90
296,364,111887,1,0
216,364,112114,1,10
136,364,112341,2,0,B|96:336|96:288,1,90
96,136,113023,6,0,B|160:68,1,90,10|0
216,16,113478,1,0
296,16,113705,1,0
354,70,113932,2,0,B|416:136,1,90,10|0
356,192,114387,2,0,B|356:240|320:272,1,90
256,320,114841,1,10
192,272,115069,2,0,B|156:240|156:192,1,90,0|8
256,192,115523,2,0,B|256:147,2,45,0|8|8
256,68,115978,1,0
336,68,116205,6,0,B|424:68|496:140,1,180,4|10
432,192,116887,1,0
495,244,117114,2,0,B|424:316|336:316,1,180,0|10
256,316,117796,1,0
176,316,118023,1,0
120,260,118250,5,0
104,240,118364,1,0
88,220,118478,2,0,B|88:176|124:140,1,90,10|0
424,220,118932,2,0,B|424:176|388:140,1,90
256,48,119387,2,0,B|256:144,2,90,0|0|4
256,192,120523,12,2,121660
256,48,123250,5,0
256,48,123478,1,2
256,336,124160,1,0
256,336,124387,1,2
44,192,125069,5,0
124,192,125296,2,0,B|172:192|204:152,1,90,2|0
202,154,125637,2,0,B|248:100|324:100,1,135,0|2
400,100,126205,2,0,B|448:100|480:136,1,90,0|0
400,284,126660,2,0,B|448:284|480:248,1,90,2|0
420,192,127114,1,2
256,192,127796,12,2,128932
164,192,129614,5,0
256,108,129841,1,0
348,192,130069,1,0
256,276,130296,1,0
256,192,130523,1,0
256,192,130637,1,0
256,192,130750,1,4
184,68,131205,6,0,B|208:19|256:11|304:19|328:68,1,180,10|0
256,108,131887,1,0
328,144,132114,2,0,B|304:193|256:201|208:193|184:144,2,180,10|0|10
408,144,133250,1,0
472,192,133478,1,0
408,240,133705,1,0
344,288,133932,2,0,B|256:308|256:308|168:288,1,180,10|0
256,152,134841,6,0,B|256:60,2,90,10|0|0
216,224,135523,1,0
296,224,135750,1,10
176,332,136205,1,0
336,332,136660,1,10
256,316,136887,2,0,B|256:228,1,90
156,80,137341,2,0,B|216:152,1,90,0|10
356,80,137796,2,0,B|296:152,1,90,0|4
184,324,138478,6,0,B|208:275|256:267|304:275|328:324,1,180,10|0
327,323,139160,1,0
256,364,139387,2,0,B|256:184,1,180,10|0
144,68,140296,2,0,B|144:160|144:160|92:232,1,180,10|0
368,68,141205,2,0,B|368:160|368:160|420:232,1,180,10|0
456,304,141887,1,0
396,360,142114,1,10
336,304,142341,2,0,B|256:345|256:345|176:304,1,180
116,360,143023,1,10
56,304,143250,1,4
56,140,143705,6,0,B|108:64,1,90
456,140,144160,2,0,B|404:64,1,90
148,156,144614,2,0,B|96:232,1,90,0|10
364,156,145069,2,0,B|416:232,1,90
184,324,145523,2,0,B|208:275|256:267|304:275|328:324,1,180,0|4
256,192,146091,12,0,150523
