osu file format v9

[General]
AudioFilename: Sunslammer.mp3
AudioLeadIn: 0
PreviewTime: 5927
Countdown: 1
SampleSet: Soft
StackLeniency: 0.7
Mode: 0
LetterboxInBreaks: 0

[Editor]
DistanceSpacing: 0.7
BeatDivisor: 4
GridSize: 8

[Metadata]
Title:Sunslammer
Artist:Seth "Beatfox" Peelle
Creator:Silarial
Version:Normal
Source:Homestuck
Tags:MS Paint Adventures What Pumpkin Cheesewarlock

[Difficulty]
HPDrainRate:5
CircleSize:4
OverallDifficulty:5
ApproachRate:5
SliderMultiplier:1.4
SliderTickRate:1

[Events]
//Background and Video events
0,0,"Homestuck Sun.png"
//Break Periods
2,54127,59584
2,88412,93869
2,108984,111012
2,129555,130726
//Storyboard Layer 0 (Background)
//Storyboard Layer 1 (Fail)
//Storyboard Layer 2 (Pass)
//Storyboard Layer 3 (Foreground)
//Storyboard Sound Samples
//Background Colour Transformations
3,100,163,162,255

[TimingPoints]
5927,428.571428571429,4,2,1,85,1,0
131927,-100,4,2,1,20,0,0
133641,-100,4,2,1,40,0,0
135141,-100,4,2,1,60,0,0
136427,-100,4,2,1,80,0,0
137069,-100,4,2,1,100,0,0
138784,-100,4,2,1,80,0,0
140498,-100,4,2,1,60,0,0
141784,-100,4,2,1,40,0,0
143926,-100,4,2,1,90,0,0
145641,-100,4,2,1,100,0,1
165355,-100,4,2,1,100,0,0

[Colours]
Combo1 : 170,85,157
Combo2 : 57,166,131
Combo3 : 0,128,192
Combo4 : 211,65,44
SliderBorder : 0,0,0

[HitObjects]
88,160,5927,1,2
136,160,6141,2,0,B|216:104,1,70
240,120,6569,2,0,B|320:176,1,70
304,232,7105,2,0,B|240:264|176:232,1,105
152,240,7641,6,0,B|88:160,1,70,2|0
104,136,8069,2,0,B|176:80,1,70
208,104,8498,2,0,B|272:176|192:248,1,140
144,160,9355,2,0,B|56:160,1,70,2|0
24,160,9784,5,0
24,256,10212,2,0,B|24:376,1,105,0|0
24,360,10855,1,2
112,312,11284,2,0,B|272:312,1,140,0|2
328,248,12141,6,0,B|328:152,2,70,0|0|0
280,248,12784,1,2
232,248,12998,1,0
256,200,13212,1,0
296,112,13641,2,0,B|368:96|392:184,1,105,0|0
480,224,14498,6,0,B|480:320,2,70,2|0|0
384,224,15355,1,0
304,288,15784,1,0
232,224,16212,5,2
200,184,16426,1,0
176,224,16641,1,0
88,272,17069,1,0
144,320,17391,1,0
216,320,17712,1,2
288,248,18141,1,0
320,216,18355,1,0
352,184,18569,1,2
112,248,19641,5,2
144,152,20069,1,8
176,248,20498,1,0
272,248,20927,2,0,B|336:184|304:120,1,140,8|2
208,120,21784,1,8
112,120,22212,1,0
152,32,22641,6,0,B|280:32|312:128,1,140,8|2
360,136,23498,1,8
432,208,23927,1,0
432,16,24784,6,0,B|368:80,1,70,2|0
376,16,25212,6,0,B|312:80,1,70,2|0
320,16,25641,6,0,B|256:80,1,70,2|0
272,16,26069,6,0,B|208:80,1,70,2|2
176,64,26498,5,4
80,64,26927,2,0,B|48:128|112:192,1,140,8|0
120,240,27569,2,0,B|120:344,2,70,0|8|0
168,240,28212,1,2
264,240,28641,6,0,B|360:240|360:144,1,140,8|0
360,112,29284,2,0,B|448:112,2,70,0|8|2
280,56,30141,2,8,B|216:120|280:184,1,140,0|0
472,312,32069,5,8
296,72,33355,5,2
376,128,33784,1,8
304,192,34212,2,0,B|304:288|240:320,2,140,0|8|2
208,192,35498,5,8
112,192,35927,1,0
64,192,36141,2,8,B|0:256,1,70,0|8
16,288,36569,1,0
112,288,36998,1,0
400,104,38498,5,2
208,96,39355,1,0
168,120,39569,1,0
128,144,39784,1,8
168,176,39998,1,0
208,208,40212,1,2
80,192,41927,5,2
176,192,42355,1,2
272,192,42784,1,2
368,192,43212,1,2
256,192,43641,12,4,46212
192,128,47069,6,0,B|192:160|224:192,1,70,2|0
272,192,47498,2,0,B|272:224|240:256,2,70
344,192,48248,1,0
368,96,48784,6,0,B|272:96,1,70,2|0
248,96,49212,1,0
208,72,49426,1,0
208,120,49641,1,0
136,96,49962,1,0
112,216,50498,6,0,B|176:216|176:280,2,70,2|0|0
96,264,51141,2,0,B|32:264|32:200,1,70
8,136,51784,6,0,B|104:168|40:232,2,70,0|0|2
8,184,52426,1,0
8,232,52641,2,0,B|68:313|109:232,1,70,0|2
176,176,53498,6,0,B|240:176|240:240,1,70,0|0
234,256,53927,1,2
128,96,60784,6,0,B|128:184|224:216|288:128,1,210,2|0
376,144,61855,2,0,B|376:240,2,70,0|8|0
448,216,62712,5,0
448,216,62926,2,0,B|448:288,1,70,8|2
352,288,63569,5,0
312,256,63784,1,8
272,224,63998,1,0
160,128,64641,1,8
88,64,65069,1,0
104,256,65926,6,0,B|168:192,1,70,2|0
160,256,66355,6,0,B|224:192,1,70,2|0
224,256,66784,6,0,B|288:192,1,70,2|0
280,256,67212,6,0,B|344:192,1,70,2|0
336,160,67641,5,4
256,96,68069,2,0,B|176:48,2,70,8|0|0
256,144,68712,2,0,B|184:192,1,70,0|8
160,208,69141,1,0
120,232,69355,1,2
120,232,69784,1,8
248,160,70426,5,0
344,160,70855,1,0
344,256,71284,2,0,B|344:352,2,70
56,72,73212,5,8
264,280,74498,5,2
264,184,74926,2,0,B|328:120,1,70,8|0
264,48,75569,2,0,B|360:48,2,70,0|8|0
120,48,76641,6,0,B|88:80|120:112,1,70,8|0
120,208,77284,2,0,B|152:240|184:208,1,70,0|8
280,208,77927,1,2
360,152,78355,1,8
280,96,78784,1,0
32,264,80498,6,0,B|96:328,1,70
96,264,80926,2,0,B|160:328,1,70,8|0
184,344,81355,1,0
472,280,82641,6,0,B|472:120,1,140,8|2
376,144,83498,6,0,B|376:336,1,140,2|2
280,288,84355,6,0,B|120:288,1,140,2|0
256,192,85212,12,4,88212
184,96,95069,6,0,B|184:192,1,70
232,168,95498,2,0,B|232:72,1,70
328,96,96141,6,8,B|328:192,3,70,0|0|0|2
96,256,97855,6,0,B|128:288|160:256,3,70,0|8|0|0
96,192,98926,1,0
144,192,99141,1,0
208,120,99569,5,0
248,144,99784,1,0
248,192,99998,1,0
208,224,100212,1,2
96,128,101926,5,0
96,128,102141,1,0
96,128,102355,2,0,B|256:128,1,140
236,128,103105,1,0
236,128,103427,2,0,B|248:16|360:0|416:32|464:104|432:200|368:248|256:216|232:120,1,490
256,192,105355,12,4,108784
136,104,112212,5,2
280,104,112855,1,0
392,192,113498,1,0
280,288,114141,1,0
136,288,114784,1,0
136,288,115212,1,0
72,96,117355,5,0
72,96,118426,2,0,B|72:192,2,70,2|0|2
360,168,120141,6,0,B|360:72,2,70,2|0|2
72,104,121855,6,0,B|72:200,2,70,2|0|2
280,312,123569,6,0,B|376:312,2,70,2|0|2
256,192,125284,12,0,129355
160,192,131926,5,2
256,192,132355,2,0,B|416:192,2,140
176,248,133641,5,2
88,208,134069,1,0
88,160,134284,2,0,B|88:64,2,70
152,88,135141,1,2
248,120,135569,1,0
288,88,135784,1,0
328,120,135998,1,2
424,120,136426,1,0
472,120,136641,1,0
448,216,137069,6,0,B|224:344,2,210,2|0|2
456,120,138784,2,0,B|264:-8,2,210,0|0|2
360,136,140498,5,0
440,192,140926,1,0
360,240,141355,1,0
440,296,141784,1,0
360,344,142212,1,0
256,192,143926,5,8
256,192,144141,1,8
256,192,144355,1,8
64,184,145212,5,0
64,184,145641,2,0,B|160:216|256:120,1,210
400,120,146927,1,8
352,208,147355,1,0
256,208,147784,6,8,B|176:176|224:80,2,140,8|0|8
352,208,149069,2,0,B|456:288|320:368,1,140,0|8
288,280,149927,1,0
224,208,150355,1,8
160,280,150784,1,0
96,208,151212,1,8
32,280,151641,1,0
96,208,152069,6,0,B|200:72|352:176,2,280,8|8|8
96,304,154212,2,8,B|200:440|352:336,1,280,0|0
352,248,155498,5,8
448,248,155927,2,0,B|504:192|432:136,1,105
376,152,156569,1,0
328,152,156784,2,0,B|272:208|344:264,1,105
384,200,157427,1,0
376,152,157641,1,0
304,80,158069,1,8
208,80,158498,1,0
128,136,158927,1,8
168,112,159141,6,0,B|200:176,2,70,0|0|0
88,56,159998,1,0
88,56,160427,2,0,B|136:24|208:40|328:56|336:336|32:328|-24:120|80:72|72:80,1,490
56,104,162355,1,8
192,144,162998,6,0,B|272:96,1,70,0|8
272,152,163427,2,0,B|192:200,1,70,0|0
160,192,163855,1,0
168,240,164069,2,0,B|232:240|264:240,2,70,8|0|0
120,240,164712,2,0,B|88:176,1,70,0|8
88,128,165141,1,0
120,88,165355,1,0
264,88,165998,6,0,B|328:152,1,70,0|0
232,192,166641,2,0,B|168:128,1,70,0|0
416,96,167927,2,0,B|544:160|448:320,1,210,0|0
424,272,168784,2,0,B|360:240,2,70,2|0|0
448,312,169427,1,0
400,312,169641,1,0
208,304,170498,6,0,B|144:176|240:16,1,280,2|0
376,40,171998,2,0,B|448:40,1,70,0|2
448,112,172534,2,0,B|448:200,1,70
448,256,173069,1,0
168,296,174141,6,0,B|104:264|104:200,2,70
208,272,174784,1,0
288,224,175212,1,0
376,176,175641,1,2
288,136,176069,1,0
208,88,176498,1,0
256,192,176927,12,4,179712
