osu file format v9

[General]
AudioFilename: Sunslammer.mp3
AudioLeadIn: 0
PreviewTime: 5926
Countdown: 1
SampleSet: Soft
StackLeniency: 0.7
Mode: 0
LetterboxInBreaks: 0

[Editor]
DistanceSpacing: 1
BeatDivisor: 4
GridSize: 8

[Metadata]
Title:Sunslammer
Artist:Seth "Beatfox" Peelle
Creator:Silarial
Version:Hard
Source:Homestuck
Tags:MS Paint Adventures What Pumpkin Cheesewarlock

[Difficulty]
HPDrainRate:6
CircleSize:5
OverallDifficulty:7
ApproachRate:7
SliderMultiplier:1.4
SliderTickRate:1

[Events]
//Background and Video events
0,0,"Homestuck Sun.png"
//Break Periods
2,47069,53026
2,88412,94169
2,107269,111312
2,129555,132741
//Storyboard Layer 0 (Background)
//Storyboard Layer 1 (Fail)
//Storyboard Layer 2 (Pass)
//Storyboard Layer 3 (Foreground)
//Storyboard Sound Samples
//Background Colour Transformations
3,100,163,162,255

[TimingPoints]
5927,428.571428571429,4,2,1,85,1,0
129355,-100,4,2,1,5,0,0
133641,-100,4,2,1,40,0,0
135141,-100,4,2,1,60,0,0
136427,-100,4,2,1,80,0,0
137069,-100,4,2,1,100,0,0
138784,-100,4,2,1,80,0,0
140498,-100,4,2,1,60,0,0
141784,-100,4,2,1,40,0,0
143926,-100,4,2,1,90,0,0
145641,-100,4,2,1,100,0,1
165355,-100,4,2,1,85,0,0

[Colours]
Combo1 : 170,85,157
Combo2 : 57,166,131
Combo3 : 0,128,192
Combo4 : 211,65,44
SliderBorder : 0,0,0

[HitObjects]
120,96,5926,1,2
168,152,6141,1,0
216,200,6355,1,0
264,152,6569,1,0
312,96,6784,2,0,B|416:176,1,105,0|0
432,328,7641,5,2
376,280,7855,1,0
424,232,8069,1,0
376,176,8284,1,0
320,224,8498,2,0,B|216:144,1,105,0|0
128,296,9355,5,2
80,240,9569,1,0
128,184,9784,1,0
128,112,9998,2,0,B|56:56,2,70
272,112,10855,1,2
408,160,11284,5,0
408,192,11391,1,0
408,224,11498,1,0
352,264,11712,2,0,B|288:296,2,70,2|0|0
352,264,12355,1,0
352,264,12569,1,0
280,264,12784,6,0,B|216:264,2,35,2|0|0
208,264,13212,2,0,B|144:232,1,70,0|0
136,160,13641,2,0,B|200:112,1,70
208,192,14069,2,0,B|368:192,1,140,0|2
376,128,14712,6,0,B|376:64,2,35
376,128,15141,1,0
320,168,15355,2,0,B|368:224,1,70
435,220,15784,2,0,B|491:156,1,70
496,240,16212,6,0,B|496:320,1,70,2|0
424,312,16641,1,0
424,312,16855,2,0,B|376:312,2,35
424,312,17284,1,0
424,240,17498,2,0,B|424:80,1,140,0|2
424,32,18141,5,0
424,32,18355,1,0
424,32,18569,1,2
280,32,18998,1,0
280,104,19212,2,0,B|248:136,2,35
216,72,19641,5,2
144,72,19855,2,0,B|144:136,2,35,0|0|8
72,72,20284,1,0
72,144,20498,6,0,B|136:208,2,70,0|0|8
56,216,21141,2,0,B|-8:280,2,70,0|2|0
72,144,21784,1,8
144,144,21998,1,0
216,144,22212,1,0
288,144,22427,2,0,B|384:144,2,70,0|8|0
216,144,23069,5,2
72,144,23498,1,8
72,288,23927,1,0
128,336,24141,1,0
184,288,24355,1,8
304,216,24784,5,2
304,216,24998,1,0
352,264,25212,5,2
352,264,25427,1,0
400,216,25641,5,2
400,216,25855,1,0
448,264,26069,5,2
448,264,26284,1,0
504,216,26498,5,2
392,128,26927,2,0,B|296:128,1,70,8|0
256,128,27355,1,0
304,72,27569,1,0
256,128,27784,1,8
256,200,27998,2,0,B|352:200|352:104,1,140
351,120,28641,1,8
376,256,29069,6,0,B|464:256,2,70,0|0|8
376,184,29712,1,0
376,40,30141,1,0
312,72,30355,1,8
280,136,30569,1,0
256,192,30784,12,0,32927
336,304,33355,6,0,B|432:336|400:336,2,70,2|0|8
304,240,33998,1,0
352,184,34212,1,0
400,240,34427,1,0
456,288,34641,1,8
400,336,34855,1,0
328,336,35069,5,2
272,288,35284,1,0
224,232,35498,1,8
176,176,35712,1,0
128,120,35927,2,0,B|192:56,2,70,0|0|8
176,72,36569,1,0
320,72,36998,1,0
256,192,37212,12,0,38070
160,256,38498,5,8
440,256,39355,1,0
496,208,39569,1,0
448,152,39784,1,8
392,112,39998,1,0
392,112,40212,2,0,B|392:272,2,140
256,152,41498,1,8
208,288,41927,6,0,B|144:352,1,70,2|0
104,296,42355,2,0,B|168:232,1,70,2|0
200,200,42784,2,0,B|136:136,1,70,2|0
200,104,43212,2,0,B|264:168,1,70,8|0
256,192,43641,12,4,46212
128,64,53926,6,0,B|192:96,1,70,2|0
200,168,54355,2,0,B|200:264,2,70
200,64,55105,1,0
376,176,55641,6,0,B|408:144,2,35,2|0|0
408,240,56069,1,0
344,264,56284,1,0
320,240,56391,1,0
296,216,56498,1,0
344,120,56819,1,0
168,136,57355,5,2
168,136,57569,2,0,B|168:88,2,35
168,136,57998,1,0
168,208,58212,2,0,B|136:256|176:304,2,105
112,336,59284,1,0
176,304,59498,1,0
240,336,59712,1,2
376,312,60141,5,0
432,272,60355,1,0
376,232,60569,1,0
304,232,60784,6,0,B|208:200|240:104,1,140,2|8
168,128,61426,1,0
112,176,61641,1,0
176,208,61855,1,0
120,256,62069,6,0,B|168:320,2,70,8|0|2
192,240,62712,1,0
248,280,62926,1,8
304,240,63141,1,0
304,168,63355,2,0,B|368:136,2,70,0|0|8
232,176,63998,1,0
160,176,64212,5,2
48,256,64641,1,8
96,200,64855,1,0
48,144,65069,1,0
168,72,65498,1,8
32,80,65926,5,2
32,80,66141,1,0
80,136,66355,5,2
80,136,66569,1,0
32,192,66784,5,2
32,192,66998,1,0
80,240,67212,5,2
80,240,67426,1,0
80,312,67641,6,0,B|144:280|176:344|240:280,1,140,2|8
288,296,68284,1,0
288,224,68498,2,0,B|352:160,2,70,0|0|8
216,224,69141,2,0,B|184:192|216:160,2,70,0|2|0
280,192,69784,1,8
280,120,69998,1,0
208,112,70212,6,0,B|144:144,2,70,0|0|8
160,64,70855,1,0
96,96,71069,1,2
96,96,71284,1,0
56,152,71498,2,0,B|32:200|64:240,1,70,8|0
256,192,71927,12,0,74069
48,152,74498,2,0,B|80:88|176:88,2,140,2|8|2
48,224,75569,5,0
112,192,75784,2,0,B|144:232|104:264,1,70,8|0
56,296,76212,2,0,B|88:360|184:360,2,140,2|8|2
104,248,77284,5,0
168,216,77498,1,8
232,248,77712,1,0
168,288,77927,2,0,B|168:360,1,70,2|0
256,192,78355,12,0,79641
96,160,80498,5,0
96,160,80712,1,0
160,192,80926,1,8
160,192,81141,1,0
224,160,81355,6,0,B|256:88|352:40|440:88|496:168|472:288|384:296,1,420,2|8
272,288,83069,1,2
168,200,83498,1,2
272,104,83926,1,2
376,200,84355,1,2
256,192,84784,12,4,88212
160,128,95069,6,0,B|256:128,1,70
300,128,95498,2,0,B|328:80,2,35
368,148,95926,1,0
428,188,96141,1,0
464,248,96355,1,0
416,300,96569,1,0
356,340,96784,1,2
216,336,97212,2,0,B|120:304|120:208|152:144|248:144,1,280,0|8
368,104,98498,6,2,B|400:136,2,35,0|0|0
296,104,98926,1,0
240,144,99141,1,0
200,200,99355,1,0
200,272,99569,1,0
240,328,99784,1,0
296,368,99998,1,0
368,368,100212,1,2
504,360,100641,2,0,B|504:200,1,140,0|8
392,136,101498,1,8
256,136,101926,5,0
184,136,102141,1,0
128,176,102355,1,0
184,216,102569,1,0
128,256,102784,1,0
184,296,102998,2,0,B|152:328,2,35
256,192,103426,12,0,107069
96,192,112212,5,2
184,304,112641,1,0
264,192,113069,1,0
352,88,113498,1,0
448,192,113926,1,2
400,240,114141,2,0,B|272:304|240:144,1,210,0|0
152,56,115212,1,0
272,120,115641,2,0,B|400:176|400:328|240:424|56:304|80:168|216:120|216:120,1,560,2|2
264,192,118212,6,0,B|200:256,1,70,0|2
272,280,118641,2,0,B|304:312,2,35,0|0|2
216,240,119069,1,0
144,240,119284,2,0,B|80:176|144:112,1,140,0|0
200,80,119926,2,0,B|232:112,2,35,0|0|2
144,40,120355,1,0
88,80,120569,6,0,B|24:144|88:208,2,140,2|0|0
144,120,121641,2,0,B|208:184,1,70,0|2
192,240,122069,2,0,B|160:272|96:240,1,70,0|2
192,240,122498,1,0
200,168,122712,2,0,B|192:80|320:32|368:112,1,210
344,160,123569,2,0,B|376:192,2,35,2|2|0
344,160,123998,1,2
256,192,124212,12,0,129355
224,128,133641,6,0,B|256:192,2,70,2|0|0
184,72,134284,1,0
144,16,134498,1,0
144,120,134819,2,0,B|144:224,1,105
144,368,135569,1,0
208,344,135784,1,0
272,320,135998,1,2
416,320,136427,2,0,B|416:224,1,70
416,184,136855,5,0
416,184,137069,2,0,B|384:56|256:56,1,210,2|0
224,112,137927,1,0
224,112,138141,1,0
288,144,138355,1,0
224,176,138569,1,2
280,216,138784,5,0
224,256,138998,1,0
280,296,139212,2,0,B|312:328,6,35
224,256,140069,1,0
224,328,140284,1,0
152,328,140498,2,0,B|16:200|168:80,1,280,2|0
256,192,141784,12,0,143069
64,192,143926,6,4,B|128:192,2,35,8|0|8
64,120,144355,1,8
128,144,144569,5,0
152,168,144676,1,0
184,168,144784,1,0
216,104,144998,1,0
256,48,145212,1,0
296,104,145426,1,0
256,160,145641,6,0,B|160:192|192:256|128:256,1,140,0|8
40,328,146498,1,0
40,328,146927,1,8
40,256,147141,6,0,B|72:224,1,35
96,208,147355,2,0,B|48:168,1,35
56,152,147569,2,0,B|88:120,2,35,0|0|8
24,128,147891,2,0,B|-16:88,1,35
0,64,148105,1,0
72,64,148319,2,0,B|104:96,1,35,0|8
168,88,148641,2,0,B|232:24,2,70,8|0|0
208,144,149284,2,0,B|152:216|80:144,1,140
80,224,149927,5,0
128,272,150141,1,0
184,224,150355,1,8
232,272,150569,1,0
280,224,150784,2,0,B|344:288|312:352,1,140,0|8
184,304,151641,1,0
136,248,151855,2,0,B|104:216,2,35,8|0|8
88,192,152284,1,0
128,136,152498,1,0
256,184,152927,6,0,B|328:112|224:56,1,140,8|0
208,72,153462,2,0,B|144:72,1,35
136,80,153677,2,0,B|160:112,2,35,0|8|0
104,88,153998,2,0,B|72:120,1,35
56,144,154212,2,0,B|64:192|112:192,2,70,0|0|8
128,136,154855,2,0,B|184:136|184:200,1,70
248,168,155284,2,0,B|312:104|248:40,1,140,8|0
184,40,155927,2,0,B|120:-24|56:40,1,140,0|8
56,104,156569,5,0
56,176,156784,1,0
152,216,157105,1,0
256,216,157427,1,0
256,216,157641,2,0,B|320:280|384:216,1,140,0|8
384,80,158498,1,0
240,80,158927,1,8
240,80,159141,1,0
240,152,159355,5,0
192,200,159569,2,0,B|192:264,2,35,0|0|8
144,152,159998,1,0
144,288,160427,2,0,B|208:384|304:288|400:384,1,280
432,320,161498,2,0,B|464:288,4,35,8|0|0|0|0
432,320,162355,1,8
432,176,162784,6,0,B|432:80,1,70,0|0
432,40,163212,1,8
360,40,163427,2,0,B|296:72,1,70
264,88,163748,1,0
232,88,163855,2,0,B|200:56,6,35,0|0|8|0|0|0|0
232,88,164605,1,0
168,120,164819,2,0,B|120:144,1,35,0|8
64,136,165141,2,0,B|24:104,2,35
8,176,165569,1,8
72,208,165784,6,0,B|16:248,1,70,8|0
16,320,166212,2,0,B|48:386|112:386,1,105
128,376,166641,1,0
192,344,166855,1,0
112,152,167498,6,0,B|112:56|272:-8|368:56|384:168,1,385
384,200,168784,1,2
384,304,169105,2,0,B|384:368,1,35
424,280,169427,1,0
464,224,169641,1,0
280,328,170927,6,0,B|184:328|152:232,1,140
160,192,171569,2,0,B|160:120,1,70
160,48,171998,1,0
192,64,172105,1,0
224,48,172212,1,2
256,64,172319,1,0
288,48,172427,1,0
296,152,172748,6,0,B|328:216|392:184,2,105
296,152,173498,1,0
224,152,173712,2,0,B|168:200,3,70,0|2|0|0
144,216,174462,1,0
120,240,174569,1,0
176,288,174784,5,0
304,232,175212,1,0
432,168,175641,1,2
304,112,176069,1,0
176,48,176498,1,0
256,192,176927,12,4,179712
