osu file format v9

[General]
AudioFilename: Sunslammer.mp3
AudioLeadIn: 0
PreviewTime: 5926
Countdown: 1
SampleSet: Soft
StackLeniency: 0.7
Mode: 0
LetterboxInBreaks: 0

[Editor]
DistanceSpacing: 0.7
BeatDivisor: 4
GridSize: 8

[Metadata]
Title:Sunslammer
Artist:Seth "Beatfox" Peelle
Creator:Silarial
Version:Easy
Source:Homestuck
Tags:MS Paint Adventures What Pumpkin Cheesewarlock

[Difficulty]
HPDrainRate:2
CircleSize:3
OverallDifficulty:3
ApproachRate:2
SliderMultiplier:1.1
SliderTickRate:1

[Events]
//Background and Video events
0,0,"Homestuck Sun.png"
//Break Periods
2,33555,36938
2,88412,93509
2,108984,114081
//Storyboard Layer 0 (Background)
//Storyboard Layer 1 (Fail)
//Storyboard Layer 2 (Pass)
//Storyboard Layer 3 (Foreground)
//Storyboard Sound Samples
//Background Colour Transformations
3,100,163,162,255

[TimingPoints]
5927,428.571428571429,4,2,1,85,1,0
131927,-100,4,2,1,20,0,0
133641,-100,4,2,1,40,0,0
135141,-100,4,2,1,60,0,0
137069,-100,4,2,1,100,0,0
138784,-100,4,2,1,80,0,0
140498,-100,4,2,1,60,0,0
141784,-100,4,2,1,40,0,0
143926,-100,4,2,1,90,0,0
145641,-100,4,2,1,100,0,1
165355,-100,4,2,1,100,0,0

[Colours]
Combo1 : 170,85,157
Combo2 : 57,166,131
Combo3 : 0,128,192
Combo4 : 211,65,44
SliderBorder : 0,0,0

[HitObjects]
152,128,5926,2,0,B|280:128,1,110,2|0
344,128,6784,2,0,B|344:256,1,110
264,240,7641,1,2
184,240,8069,2,0,B|120:144,2,110
264,240,9355,5,2
344,240,9784,1,0
344,160,10212,1,0
344,80,10641,2,0,B|192:96|192:208,1,220
272,208,11926,1,0
352,208,12355,1,0
352,288,12784,6,0,B|256:352|128:288,1,220,2|0
136,216,14069,1,0
136,136,14498,1,2
136,56,14926,1,0
216,56,15355,2,0,B|176:176|272:256,1,220,0|2
112,256,17069,1,0
112,104,17926,2,0,B|168:56|216:104,2,110,2|0|0
112,184,19212,1,0
112,264,19641,5,2
176,312,20069,1,8
240,264,20498,1,0
240,184,20927,2,0,B|216:120|280:64,3,110,8|2|8|0
336,80,22641,5,8
336,160,23069,1,2
336,240,23498,2,0,B|288:312|232:320,2,110,8|0|8
400,280,24784,5,2
336,240,25212,5,2
272,192,25641,5,2
336,144,26069,5,2
400,96,26498,5,2
464,144,26927,1,8
472,224,27355,2,0,B|472:288|400:320|328:288|328:216,1,220,0|2
336,144,28641,1,8
144,280,29927,6,0,B|72:280|72:208,1,110,2|8
64,136,30784,2,0,B|64:64|136:64,1,110,0|8
208,64,31641,2,0,B|280:64|280:136,1,110,2|8
280,208,32498,2,0,B|280:280|208:280,1,110,2|8
136,280,33355,1,2
128,128,38498,5,2
280,128,39355,2,0,B|280:240,2,110,2|8|2
336,72,40641,1,8
384,136,41069,1,0
432,72,41498,1,8
256,192,41927,12,0,46212
160,96,47069,5,2
240,96,47498,1,0
320,96,47926,1,0
216,216,48784,5,2
296,216,49212,1,0
376,216,49641,1,0
448,80,50498,6,0,B|448:200,1,110,2|0
448,264,51355,1,0
360,136,52212,5,2
208,136,53069,1,0
160,280,53926,6,0,B|272:336|392:256,2,220,2|0|2
160,128,56498,1,0
304,128,57355,5,2
304,280,58212,2,0,B|192:336|88:272,1,220,0|2
96,120,59926,1,0
248,120,60784,5,2
248,200,61212,1,8
248,280,61641,2,0,B|296:336|352:272,2,110,0|8|2
184,232,62926,1,8
120,184,63355,1,0
72,120,63784,1,8
40,48,64212,5,0
40,48,64641,2,0,B|144:-16|248:48,1,220,8|8
200,112,65926,5,2
248,176,66355,5,2
304,232,66784,5,2
360,176,67212,5,2
416,120,67641,5,2
416,40,68069,1,8
336,40,68498,2,0,B|288:96|232:32,2,110,0|8|0
416,40,69784,1,8
416,120,70212,2,0,B|384:184|328:184,1,110,0|8
256,192,71069,12,4,73212
256,256,74498,5,2
256,104,75355,2,0,B|312:80|368:104,2,110,0|8|2
256,184,76641,1,8
184,328,77498,1,8
128,272,77926,1,2
104,200,78355,1,8
104,120,78784,2,0,B|272:120|272:256,1,220,0|2
256,80,80498,5,0
200,136,80926,1,8
256,192,81355,1,2
312,136,81784,2,0,B|440:136,1,110,8|0
496,136,82641,1,8
496,216,83069,5,2
440,272,83498,1,2
376,320,83926,1,2
312,272,84355,1,2
256,216,84784,1,2
256,192,85212,12,4,88212
304,80,95069,6,0,B|376:88|376:176,3,110
376,232,96784,1,2
120,328,98498,6,0,B|48:328|48:240,3,110
48,184,100212,1,2
344,88,101926,5,0
400,144,102355,1,0
344,200,102784,1,0
264,200,103212,2,0,B|224:144|264:96,1,110,0|2
256,192,105355,12,0,108784
128,128,115641,5,2
280,128,116498,2,0,B|352:128|352:216,1,110
352,272,117355,1,0
176,192,118426,5,2
176,272,118855,1,2
392,200,120141,5,2
472,200,120569,1,2
240,208,121855,6,0,B|192:160|240:112,1,110,2|2
8,104,123569,5,2
8,184,123998,1,2
256,192,125284,12,0,129355
280,128,131926,2,0,B|336:184|264:240,2,110,2|0|0
200,128,133212,1,0
120,128,133641,2,0,B|64:184|136:240,1,110,2|0
200,232,134498,2,0,B|200:315|200:315|280:360,1,165
328,248,135784,1,0
328,168,136212,1,0
184,104,137069,5,2
472,208,138784,1,2
184,328,140498,1,2
48,56,142212,1,2
256,192,143926,5,2
256,192,144355,1,2
208,128,144784,2,8,B|120:224|216:328,1,220,0|0
288,328,146069,5,8
344,272,146498,1,0
280,224,146927,1,8
336,168,147355,1,0
264,136,147784,5,8
328,88,148212,1,0
256,56,148641,1,8
176,56,149069,2,0,B|112:152|144:288|288:312,1,330,0|8
360,312,150784,1,0
360,160,151641,6,0,B|360:80|272:80,2,110,0|8|0
368,240,152927,1,8
288,240,153355,2,0,B|208:240|208:160,2,110,0|8|0
296,160,154641,2,0,B|296:24|160:24,1,220,8|8
160,104,155927,6,0,B|88:104|88:184,3,110,0|8|0|8
88,248,157641,1,0
144,304,158069,2,0,B|208:304|208:224,1,110,8|0
208,152,158927,6,0,B|208:64|288:64,3,110,8|0|8|0
320,128,160641,1,8
376,72,161069,1,0
432,128,161498,1,8
376,184,161927,1,0
296,184,162355,1,8
216,184,162784,6,0,B|216:120|168:88,1,110,0|8
96,88,163641,1,0
40,144,164069,1,8
96,200,164498,1,0
160,248,164927,1,8
96,296,165355,1,0
248,296,166212,6,0,B|336:296|336:224,2,110,0|0|2
336,168,167927,1,0
336,16,168784,1,2
464,96,169641,1,0
160,96,171355,6,0,B|16:96|16:224,1,220,0|2
168,224,173069,1,0
168,72,173927,6,0,B|240:168,1,110,2|0
240,240,174784,1,0
304,192,175212,1,0
360,136,175641,1,2
304,80,176069,1,0
240,32,176498,1,0
256,192,176927,12,4,179712
