osu file format v9

[General]
AudioFilename: Sertab Erener - Everyway That I Can.mp3
AudioLeadIn: 0
PreviewTime: 38138
Countdown: 0
SampleSet: Normal
StackLeniency: 0.7
Mode: 0
LetterboxInBreaks: 1
CountdownOffset: 1

[Editor]
DistanceSpacing: 0.8
BeatDivisor: 4
GridSize: 4

[Metadata]
Title:Everyway That I Can
Artist:Sertab Erener
Creator:Tonoicutzu
Version:Easy
Source:Eurovision Song Contest 2003
Tags:selimsrm impossiblexu

[Difficulty]
HPDrainRate:2
CircleSize:3
OverallDifficulty:1
ApproachRate:3
SliderMultiplier:0.8
SliderTickRate:1

[Events]
//Background and Video events
0,0,"bg Sertab Erener.jpg"
//Break Periods
2,56039,59419
2,106565,109943
2,136881,145310
//Storyboard Layer 0 (Background)
//Storyboard Layer 1 (Fail)
//Storyboard Layer 2 (Pass)
//Storyboard Layer 3 (Foreground)
//Storyboard Sound Samples
//Background Colour Transformations
3,100,163,162,255

[TimingPoints]
261,315.789473684211,4,1,0,70,1,0
5313,-100,4,1,0,70,0,1
5471,-100,4,1,0,70,0,0
38155,-100,4,1,0,70,0,1
55839,-100,4,1,0,70,0,0
60892,-100,4,1,0,70,0,1
61050,-100,4,1,0,70,0,0
88682,-100,4,1,0,70,0,1
106366,-100,4,1,0,70,0,0
111418,-100,4,1,0,70,0,1
111576,-100,4,1,0,70,0,0
146787,-100,4,1,0,70,0,1
163839,-100,4,1,0,70,0,0

[Colours]
Combo1 : 255,128,0
Combo2 : 5,240,5
Combo3 : 5,5,240
Combo4 : 240,5,5

[HitObjects]
64,192,5313,2,0,B|64:136|112:128|160:136|160:192,1,160,4|8
288,192,6576,1,0
416,192,7208,1,8
416,64,7839,6,0,B|415:7|367:0|319:7|319:63,1,160,4|8
192,64,9103,1,0
64,64,9734,1,8
64,192,10366,6,0,B|64:288,2,80,0|0|8
192,192,11629,1,0
320,192,12261,1,8
256,304,12892,38,0,B|168:304,2,80,0|0|8
384,304,14155,2,0,B|440:303|448:255|440:207|384:207,1,160,0|8
384,80,15418,5,4
272,140,16050,1,0
168,72,16682,1,0
104,72,16997,1,8
40,72,17313,1,8
104,184,17945,5,4
224,240,18576,1,0
344,184,19208,1,0
344,120,19524,1,8
344,56,19839,1,8
216,56,20471,6,0,B|159:56|151:104|159:152|215:152,2,160,4|0|0
280,56,22050,1,8
344,56,22366,1,8
344,184,22997,6,0,B|416:112|416:216|488:152,2,160,4|0|0
280,184,24576,1,8
216,184,24892,1,8
120,272,25524,6,4,B|-24:280|-24:64|136:88,2,320
208,176,28682,1,4
336,176,29313,2,0,B|336:88,1,80,0|8
272,96,29945,1,8
208,96,30261,1,8
144,96,30576,6,4,B|0:88|0:296|144:280,2,320
272,96,33734,1,0
143,96,34366,1,0
143,160,34682,1,8
143,224,34997,1,8
256,192,35629,12,4,37524
80,192,38155,6,8,B|80:256|192:256|192:184,1,160
136,80,39418,2,8,B|135:19|247:19|247:81,1,160
376,80,40682,5,2
376,208,41313,1,8
248,208,41945,1,2
184,208,42261,1,8
120,208,42576,1,8
120,80,43208,22,8,B|120:16|232:16|232:88,2,160,2|8|2
120,208,45103,1,8
248,208,45734,6,8,B|248:272|360:272|360:192,2,160,2|8|2
248,144,47313,1,8
248,80,47629,1,8
120,80,48261,6,8,B|48:128|160:168|72:216,1,160,4|8
200,216,49524,2,8,B|248:144|288:256|336:168,1,160,4|8
336,40,50787,5,2
272,40,51103,1,2
80,40,52050,1,2
80,104,52366,1,2
80,296,53313,6,0,B|252:296,2,160,4|2|4
80,168,55208,2,0,B|165:121|53:81|125:33,1,160,2|4
448,72,60892,5,4
448,200,61524,2,0,B|448:264|336:264|336:184,1,160,2|2
272,200,62471,1,2
208,200,62787,1,2
80,200,63418,5,4
80,72,64050,1,2
192,136,64682,2,0,B|288:136,2,80,2|2|2
192,264,65945,6,4,B|192:376|296:368|400:376|400:264,3,320,4|4|4|2
400,200,70050,1,2
400,136,70366,1,4
272,136,70997,6,8,B|96:136,1,160,2|8
112,264,72261,2,8,B|288:264,1,160,2|8
400,264,73524,1,2
400,136,74155,1,8
272,136,74787,1,2
208,136,75103,1,8
144,136,75418,1,8
144,264,76050,6,0,B|224:264,3,80,4|8|0|8
224,200,77313,1,0
288,200,77629,1,8
288,136,77945,2,4,B|328:136|368:88|328:32|288:32,2,160,4|4|4
160,136,79839,1,8
32,136,80471,2,0,B|32:296,1,160,0|8
160,296,81734,6,8,B|328:296,1,160,0|8
320,168,82997,2,8,B|140:168,2,160,0|8|8
416,256,84892,1,2
416,320,85208,1,8
352,320,85524,1,8
256,192,86155,12,4,88050
112,184,88682,5,4
240,184,89313,1,8
368,184,89945,2,0,B|464:40,2,160,0|8|0
240,184,91839,1,8
112,184,92471,2,0,B|112:276,2,80,0|8|8
208,264,93734,6,0,B|312:264|312:160,1,160,4|8
184,144,94997,2,0,B|184:44|288:44,1,160,0|8
412,44,96261,1,0
412,171,96892,1,8
283,171,97524,1,0
219,171,97839,1,8
155,171,98155,1,8
283,171,98787,6,8,B|283:131|339:91|387:131|387:171,1,160,4|8
284,248,100050,2,8,B|284:288|340:328|388:288|388:248,1,160,4|8
333,131,101313,6,0,B|237:131,1,80,2|2
65,88,102576,2,0,B|65:184,1,80,2|2
256,232,103839,5,4
368,168,104471,1,2
256,104,105103,1,4
144,168,105734,2,0,B|107:150|50:175|61:243|97:261,1,160,2|4
48,192,111418,6,0,B|128:136|128:208|200:168,1,160,4|8
200,296,112682,2,0,B|280:240|280:312|352:272,1,160,4|8
352,144,113945,2,0,B|272:144,1,80,4|0
208,144,114576,1,8
80,144,115208,2,0,B|80:236,2,80,4|0|8
208,144,116471,6,0,B|304:144|304:144|304:208,1,160,4|8
304,336,117734,2,0,B|400:336|400:336|400:256,1,160,4|8
304,192,118997,2,0,B|304:272,1,80,4|0
240,272,119629,1,8
112,272,120261,1,4
48,272,120576,1,8
48,336,120892,1,8
96,192,121524,6,4,B|94:51|257:3|420:51|420:197,1,480
336,280,124050,2,4,B|336:352|256:376|176:352|176:280,2,240
336,151,126576,6,4,B|336:79|256:55|176:79|176:151,2,240
336,279,129103,2,4,B|172:279,2,160,4|0|4
256,192,130997,12,2,134155
196,112,135103,2,2,B|324:112,1,120,2|0
336,208,136050,2,2,B|256:228|256:228|180:208,1,160,2|0
104,296,146787,6,8,B|104:200|200:184,1,160,12|8
296,264,148050,2,8,B|392:264|408:168,1,160
280,168,149313,5,2
152,168,149945,1,8
152,296,150576,1,2
216,296,150892,1,8
280,296,151208,1,8
280,168,151839,6,8,B|280:80|376:80|404:120,2,160,4|8|4
152,168,153734,1,8
152,296,154366,6,0,B|240:296,1,80,2|2
392,192,155629,1,2
328,192,155945,1,2
136,192,156892,6,4,B|48:192|56:104|80:80,2,160,6|6|6
264,192,158787,1,2
264,256,159103,1,8
264,320,159418,6,2,B|352:320|360:248|352:200,2,160
200,320,160997,1,0
136,320,161313,1,8
256,192,161945,12,4,163839
