osu file format v9

[General]
AudioFilename: Serj Tankian - Sky Is Over.mp3
AudioLeadIn: 0
PreviewTime: 125944
Countdown: 0
SampleSet: Soft
StackLeniency: 0.7
Mode: 0
LetterboxInBreaks: 1

[Editor]
Bookmarks: 61885,89313,98456,107599,125885,164760
DistanceSpacing: 1
BeatDivisor: 4
GridSize: 4

[Metadata]
Title:Sky Is Over
Artist:Serj Tankian
Creator:Sieg
Version:Hard
Source:
Tags:empty walls elect the dead metal rock system of a down soad Ylinestra44

[Difficulty]
HPDrainRate:6
CircleSize:5
OverallDifficulty:6
ApproachRate:7
SliderMultiplier:1.8
SliderTickRate:2

[Events]
//Background and Video events
0,0,"bg.jpg"
//Break Periods
2,62144,65615
//Storyboard Layer 0 (Background)
//Storyboard Layer 1 (Fail)
//Storyboard Layer 2 (Pass)
//Storyboard Layer 3 (Foreground)
//Storyboard Sound Samples
//Background Colour Transformations
3,100,163,162,255

[TimingPoints]
230,571.428571428571,4,2,0,45,1,0
16801,-100,4,2,0,40,0,0
25372,-100,4,2,0,50,0,0
25944,-100,4,2,0,60,0,0
32229,-100,4,2,0,40,0,0
32372,-100,4,2,0,60,0,0
34515,-100,4,2,0,40,0,0
34801,-100,4,2,0,65,0,0
36801,-100,4,2,0,75,0,0
41372,-100,4,1,0,70,0,0
43658,-100,4,1,0,65,0,1
48229,-100,4,1,0,60,0,1
50515,-100,4,1,0,55,0,1
52801,-100,4,1,0,50,0,1
61944,-100,4,1,0,70,0,0
66515,-100,4,1,0,45,0,0
67087,-100,4,2,0,45,0,0
67229,-100,4,1,0,45,0,0
68229,-100,4,2,0,45,0,0
68372,-100,4,1,0,45,0,0
69372,-100,4,2,0,50,0,0
69515,-100,4,1,0,45,0,0
70515,-100,4,2,0,45,0,0
70658,-100,4,1,0,45,0,0
71658,-100,4,2,0,65,0,0
71801,-100,4,1,0,45,0,0
72801,-100,4,2,0,45,0,0
72944,-100,4,1,0,45,0,0
73944,-100,4,2,0,45,0,0
74087,-100,4,1,0,45,0,0
75087,-100,4,2,0,65,0,0
75229,-100,4,1,0,45,0,0
76229,-100,4,2,0,45,0,0
76372,-100,4,1,0,45,0,0
77372,-100,4,2,0,45,0,0
77515,-100,4,1,0,45,0,0
77944,-100,4,1,0,50,0,0
80229,-100,4,2,0,60,0,0
80515,-100,4,2,0,70,0,0
87087,-100,4,1,0,70,0,0
89372,-100,4,1,0,70,0,0
89658,-100,4,2,0,70,0,0
90515,-100,4,1,0,70,0,0
90801,-100,4,2,0,70,0,0
91658,-100,4,1,0,70,0,0
91944,-100,4,2,0,70,0,0
92801,-100,4,1,0,70,0,0
93087,-100,4,2,0,70,0,0
93944,-100,4,1,0,70,0,0
94229,-100,4,2,0,70,0,0
95087,-100,4,1,0,70,0,0
95372,-100,4,2,0,70,0,0
96229,-100,4,1,0,70,0,0
96515,-100,4,2,0,70,0,0
97372,-100,4,1,0,70,0,0
97658,-100,4,2,0,70,0,0
98515,-100,4,1,0,55,0,0
107658,-100,4,1,0,70,0,0
107801,-100,4,2,0,60,0,0
119087,-100,4,1,0,70,0,0
121372,-100,4,1,0,80,0,0
121944,-100,4,1,0,60,0,0
125944,-100,4,2,0,50,0,0
127658,-100,4,1,0,40,0,0
128229,-100,4,1,0,60,0,1
129944,-100,4,1,0,80,0,1
130229,-100,4,1,0,60,0,1
134515,-100,4,1,0,80,0,1
134801,-100,4,1,0,60,0,1
136229,-100,4,1,0,80,0,1
137087,-100,4,1,0,60,0,1
139087,-100,4,1,0,80,0,1
139658,-100,4,1,0,60,0,1
141944,-100,4,1,0,80,0,1
142515,-100,4,1,0,60,0,1
143087,-100,4,1,0,80,0,1
144087,-100,4,1,0,80,0,0
144229,-100,4,1,0,60,0,1
148229,-100,4,1,0,80,0,1
148801,-100,4,1,0,60,0,1
152801,-100,4,1,0,80,0,1
153372,-100,4,1,0,60,0,1
157372,-100,4,1,0,80,0,1
157658,-100,4,1,0,60,0,1
160229,-100,4,1,0,80,0,1
164801,-100,4,1,0,60,0,1
167087,-100,4,1,0,80,0,0
167658,-100,4,2,0,60,0,0
168229,-100,4,2,0,40,0,0
168801,-100,4,2,0,20,0,0

[Colours]
Combo1 : 183,65,14
Combo2 : 93,138,168
Combo3 : 254,111,94
Combo4 : 15,82,186
SliderBorder : 0,0,0

[HitObjects]
256,192,9372,12,0,13944
68,128,14515,21,2
164,280,15087,1,0
348,280,15658,1,2
444,128,16230,1,0
348,280,16801,6,0,B|384:240|396:200|384:160|348:120,1,180,2|0
256,112,17658,1,0
164,119,17944,2,0,B|128:160|116:200|128:240|164:280,1,180,2|0
348,280,19087,21,2
256,320,19372,1,0
164,280,19658,1,0
256,128,20229,1,2
256,128,20801,1,4
412,216,21372,5,2
400,128,21658,1,0
328,72,21944,1,2
256,128,22229,1,0
184,72,22515,1,2
112,128,22801,1,0
100,216,23087,1,6
216,352,23658,6,0,B|256:316|296:352,1,90
304,264,24229,2,0,B|344:228|384:264,1,90,2|0
376,176,24801,2,0,B|416:140|456:176,1,90
464,264,25372,6,0,B|432:296|384:296|384:232|336:232|304:264,1,180,4|0
344,344,26229,1,2
256,320,26515,1,0
228,236,26801,1,0
296,176,27087,1,2
128,236,27658,5,0
84,156,27944,1,2
172,140,28229,2,0,B|256:84|340:140,1,180,0|0
408,328,29372,2,0,B|152:400|56:184|256:56|456:184|360:400|104:328,1,720,2|2
172,140,32229,6,0,B|256:84|340:140,1,180,4|2
392,64,33087,1,0
304,40,33372,1,0
208,40,33658,1,0
120,64,33944,1,2
288,264,34515,6,0,B|256:232|256:232|224:264,1,90,4|0
168,224,35087,2,0,B|200:192|200:192|168:160,1,90,2|0
224,120,35658,2,0,B|256:152|256:152|288:120,1,90,0|0
344,160,36229,2,0,B|312:192|312:192|344:224,1,90,2|0
296,280,36801,6,0,B|256:320|216:280,1,90
160,232,37372,2,0,B|120:192|160:152,1,90,2|0
216,104,37944,2,0,B|256:64|296:104,1,90
352,152,38515,2,0,B|392:192|352:232,1,90,2|0
388,316,39087,6,0,B|293:347,1,90
212,344,39658,2,0,B|126:315,1,90,2|0
168,236,40229,2,0,B|216:148,1,90
300,156,40801,2,0,B|343:235,1,90,2|0
256,264,41372,21,0
192,232,41658,1,0
192,160,41944,1,0
256,120,42229,1,0
320,160,42515,1,0
320,232,42801,1,0
256,264,43087,1,4
256,192,43372,1,0
364,288,43658,37,4
432,160,43944,1,0
328,64,44230,1,8
184,64,44515,1,0
80,160,44801,1,0
148,288,45087,1,0
256,192,45372,2,0,B|224:168|288:136|256:112,1,90,8|0
400,80,45944,6,0,B|432:128|432:128|432:168,1,90,4|0
408,304,46515,2,0,B|360:336|360:336|320:336,1,90,8|0
184,336,47087,2,0,B|151:336|151:336|103:304,1,90,0|0
80,160,47658,2,0,B|80:128|80:128|112:80,1,90,8|0
256,104,48230,5,4
184,228,48515,1,0
328,228,48801,1,8
256,104,49087,1,0
256,248,49372,1,0
328,124,49658,1,0
184,124,49944,1,8
256,248,50230,1,0
256,248,50515,6,0,B|265:199|316:188,1,90,4|0
256,248,51087,2,0,B|305:256|316:307,1,90,8|0
256,248,51658,2,0,B|248:296|197:307,1,90,0|0
256,248,52230,2,0,B|208:239|197:188,1,90,8|0
288,24,52801,6,0,B|288:120|288:120|328:136|344:184|336:224,1,180,4|8
256,192,53658,1,0
224,360,53944,2,0,B|224:264|224:264|184:248|168:200|176:160,1,180,0|8
256,192,54801,1,0
216,112,55087,6,0,B|256:76|296:112,1,90
336,192,55658,1,8
376,272,55944,2,0,B|336:308|296:272,1,90
256,352,56515,1,0
216,272,56801,2,0,B|176:308|136:272,1,90,8|0
140,180,57372,6,0,B|194:165|181:112,1,90,4|0
256,60,57944,1,8
332,112,58230,2,0,B|319:165|373:180,1,90
304,232,58801,1,0
256,240,58944,1,0
208,232,59087,1,8
256,156,59372,1,0
332,112,59658,6,0,B|304:72|256:56|208:72|180:112,2,180,4|8|0
356,152,60944,1,0
372,196,61087,1,0
348,284,61372,2,0,B|328:332|276:320,1,90,8|0
192,284,61944,1,4
92,116,66515,5,4
256,192,67087,1,2
420,116,67658,5,0
468,40,67944,1,0
380,36,68230,1,2
420,116,68515,1,0
464,192,68801,1,4
392,244,69087,1,0
316,192,69372,1,2
188,324,69944,5,0
104,160,70515,1,2
104,248,70801,1,0
20,324,71087,2,0,B|64:352|104:360|144:352|188:324,1,180,4|2
316,196,72230,5,4
444,320,72801,1,2
360,348,73087,1,0
292,292,73372,1,0
376,260,73658,1,0
440,196,73944,1,2
256,176,74515,6,0,B|236:148|280:120|256:92,2,90,0|0|2
140,316,75658,1,4
28,176,76230,1,2
200,120,76801,5,0
256,192,77087,1,0
312,120,77372,1,2
256,192,77658,1,0
340,252,77944,6,0,B|292:280|256:288|220:280|172:252,2,180,4|0|0
256,72,79658,1,0
324,308,80230,6,0,B|372:308|372:308|372:260,1,90,4|0
372,120,80801,2,0,B|372:72|372:72|324:72,1,90,2|0
182,72,81372,2,0,B|140:72|140:72|140:120,1,90,0|0
140,266,81944,2,0,B|140:308|140:308|188:308,1,90,2|0
64,236,82515,6,0,B|52:192|64:148,1,90,4|0
212,80,83087,2,0,B|256:68|300:80,1,90,2|0
448,148,83658,2,0,B|461:193|449:237,1,90
300,304,84230,2,0,B|256:316|212:304,1,90,2|0
288,160,84801,6,0,B|320:128|320:128|320:80,1,90,4|0
224,160,85372,2,0,B|192:128|192:128|144:128,1,90,2|0
224,224,85944,2,0,B|192:256|192:256|192:304,1,90
288,224,86515,2,0,B|320:256|320:256|368:256,1,90,2|0
256,312,87087,5,0
376,192,87372,1,0
256,72,87658,1,0
136,192,87944,1,0
328,268,88230,5,0
328,116,88515,1,0
184,116,88801,1,0
184,268,89087,1,0
256,192,89372,5,0
376,56,89658,21,0
368,88,89801,1,2
376,120,89944,1,0
368,152,90087,1,0
376,184,90230,1,2
368,216,90372,1,0
376,248,90515,1,4
256,304,90801,5,0
248,272,90944,1,2
256,240,91087,1,0
248,208,91230,1,2
256,176,91372,1,0
248,144,91515,1,0
256,112,91658,1,4
136,56,91944,5,0
128,88,92087,1,2
136,120,92230,1,0
128,152,92372,1,0
136,184,92515,1,2
128,216,92658,1,0
136,248,92801,1,4
256,116,93087,37,0
296,132,93230,1,2
308,176,93372,1,0
280,212,93515,1,2
232,212,93658,1,0
204,176,93801,1,0
212,132,93944,1,4
348,252,94230,5,0
340,296,94372,1,2
368,332,94515,1,0
416,332,94658,1,0
444,296,94801,1,2
432,252,94944,1,0
392,236,95087,1,4
220,288,95372,37,0
176,276,95515,1,2
140,252,95658,1,0
104,224,95801,1,2
84,184,95944,1,0
72,140,96087,1,0
68,96,96230,1,4
248,72,96515,5,0
240,104,96658,1,2
248,136,96801,1,0
240,168,96944,1,0
248,200,97087,1,2
240,232,97230,1,0
248,264,97372,1,4
336,276,97658,21,0
372,252,97801,1,2
408,224,97944,1,0
428,184,98087,1,2
440,140,98230,1,0
444,96,98372,1,0
424,56,98515,6,2,B|408:40|384:32|364:40|344:56,1,90,6|0
324,96,98944,1,0
312,140,99087,1,0
288,180,99230,1,0
248,196,99372,1,0
208,172,99515,1,0
196,128,99658,2,2,B|148:104|104:128,1,90,6|0
76,152,100087,1,0
48,188,100230,5,0
32,228,100372,1,0
32,272,100515,1,0
48,316,100658,1,0
84,340,100801,2,2,B|132:364|176:340,1,90,6|0
216,328,101230,1,0
248,296,101372,5,0
288,272,101515,1,0
332,264,101658,1,0
360,300,101801,1,0
356,344,101944,2,2,B|413:348|423:269|480:273,1,135,6|0
480,232,102515,2,2,B|512:140|480:56,2,180,2|6|2
436,224,103801,5,0
400,200,103944,1,0
364,172,104087,1,0
396,140,104230,2,2,B|348:108|300:172|252:140,1,135,6|0
280,104,104801,5,0
244,80,104944,1,0
200,68,105087,1,0
156,80,105230,1,0
116,104,105372,2,2,B|84:196|116:280,1,180,6|2
196,236,106230,1,0
196,144,106515,1,0
196,236,106801,5,0
196,236,106944,1,0
196,236,107087,1,0
276,192,107372,1,0
276,284,107658,1,4
456,232,108230,6,0,B|456:280|456:280|408:280,1,90,2|0
296,144,108801,2,0,B|296:96|296:96|344:96,1,90,2|0
376,176,109372,1,2
376,176,109658,1,0
320,248,109944,6,0,B|312:272|256:216|240:248,1,90,4|2
208,280,110372,2,2,B|192:240,4,45
160,280,111087,2,0,B|152:256|96:312|80:280,1,90,4|2
40,260,111515,1,0
20,220,111658,1,2
8,176,111801,1,0
20,132,111944,1,2
40,92,112087,2,0,B|45:69|74:62,1,45,0|4
184,140,112801,6,0,B|204:184|256:184,1,90,2|0
328,140,113372,2,0,B|308:184|256:184,1,90,2|0
256,96,113944,1,2
256,96,114230,1,0
328,40,114515,6,0,B|347:23|368:99|398:80,1,90,4|2
440,88,114944,2,2,B|424:128,4,45
464,128,115658,2,0,B|440:136|496:192|464:208,1,90,4|2
452,252,116087,1,0
432,292,116230,1,2
396,320,116372,1,0
352,324,116515,1,2
308,316,116658,2,0,B|286:317|270:293,1,45,0|4
368,224,117372,6,0,B|338:141,1,90,2|0
256,200,117944,2,0,B|256:288,1,90,2|0
144,224,118515,2,0,B|175:141,1,90,2|0
344,84,119087,5,0
176,140,119372,1,0
344,212,119658,1,0
176,268,119944,1,0
344,340,120230,1,0
176,268,120515,1,0
344,212,120801,1,0
176,140,121087,1,0
344,84,121372,1,4
104,356,121944,5,0
256,32,122515,1,0
408,356,123087,1,0
256,192,123658,12,0,125372
92,236,125944,6,0,B|80:192|92:148,1,90,2|0
168,96,126515,1,2
256,72,126801,1,0
344,96,127087,1,2
419,147,127372,2,0,B|432:192|420:236,1,90,2|0
344,288,127944,1,0
256,280,128230,5,0
256,280,128515,2,0,B|223:312|178:323,1,90,0|8
180,236,129087,1,0
100,280,129372,2,0,B|87:235|99:191,1,90,4|0
181,147,129944,2,0,B|193:191|180:236,1,90,8|0
100,188,130515,5,0
92,100,130801,1,0
168,52,131087,1,8
256,32,131372,1,0
344,52,131658,1,4
420,100,131944,1,0
412,188,132230,1,8
336,236,132515,1,0
252,268,132801,6,0,B|297:264|334:237,1,90,8|0
356,148,133372,2,0,B|310:151|273:178,1,90,8|0
196,228,133944,1,4
140,300,134230,1,0
56,328,134515,2,0,B|51:282|72:240,1,90,8|0
104,156,135087,5,0
104,156,135372,1,0
168,92,135658,1,8
168,92,135944,1,0
256,60,136230,1,0
256,60,136372,1,0
256,60,136515,1,0
344,36,136801,1,8
388,116,137087,1,0
340,192,137372,5,0
256,224,137658,1,0
180,272,137944,1,8
224,348,138230,1,0
316,348,138515,1,4
368,280,138801,1,0
340,192,139087,1,8
200,308,139658,6,0,B|103:289|47:219,1,180,4|8
136,204,140515,1,0
92,124,140801,2,0,B|72:82|77:36,1,90,4|0
164,56,141372,2,0,B|183:97|178:143,1,90,8|0
256,192,141944,5,0
256,192,142087,1,0
256,192,142230,1,0
332,144,142515,1,8
416,108,142801,1,0
476,176,143087,1,0
476,176,143230,1,0
476,176,143372,1,0
404,232,143658,1,8
404,232,143801,1,0
404,232,143944,1,0
328,280,144230,6,0,B|300:328|256:340|212:328|184:280,1,180,4|8
256,228,145087,1,0
168,232,145372,2,0,B|121:152,1,90,4|0
172,80,145944,1,8
256,48,146229,1,0
340,80,146515,5,0
388,156,146801,2,0,B|341:235,1,90,0|8
256,212,147372,1,0
184,160,147658,2,0,B|212:112|256:100|300:112|328:160,1,180,0|8
256,352,148801,5,4
332,304,149087,2,0,B|368:277|387:235,1,90,0|8
300,220,149658,1,0
212,244,149944,2,0,B|175:217|156:175,1,90,0|0
244,168,150515,2,0,B|225:124|188:98,1,90,8|0
100,76,151087,6,0,B|40:143|39:241,1,180,0|8
104,304,151944,1,0
196,320,152229,2,0,B|284:306|349:232,1,180,4|8
424,160,153372,6,0,B|394:77,1,90,4|0
392,76,153944,1,8
304,80,154229,2,0,B|304:168,1,90,0|4
304,168,154801,1,0
212,168,155087,2,0,B|212:80,1,90,8|0
212,80,155658,5,0
124,76,155944,2,0,B|94:159,1,90,0|8
92,160,156515,1,0
108,248,156801,1,0
168,316,157087,1,0
252,348,157372,1,8
300,180,157944,6,0,B|327:218|369:236,1,90,4|0
388,148,158515,1,8
332,76,158801,2,0,B|373:57|419:62,1,90,0|0
332,76,159372,2,0,B|291:95|265:133,1,90,0|8
256,224,159944,1,0
128,192,160229,5,8
256,64,160515,1,0
384,192,160801,1,0
256,320,161087,1,8
168,104,161372,5,0
344,104,161658,1,0
344,280,161944,1,8
168,280,162229,1,0
344,280,162515,5,8
344,104,162801,1,0
168,104,163087,1,0
168,280,163372,1,8
384,192,163658,5,0
256,64,163944,1,0
128,192,164229,1,8
256,260,164515,1,0
384,192,164801,6,0,B|152:100|40:336|256:480|472:336|360:100|128:192,1,720,4|4
256,192,167229,12,2,171658
