osu file format v9

[General]
AudioFilename: Serj Tankian - Sky Is Over.mp3
AudioLeadIn: 0
PreviewTime: 125944
Countdown: 0
SampleSet: Soft
StackLeniency: 0.7
Mode: 0
LetterboxInBreaks: 1

[Editor]
Bookmarks: 61885,89313,98456,107599,125885,164760
DistanceSpacing: 1
BeatDivisor: 4
GridSize: 4

[Metadata]
Title:Sky Is Over
Artist:Serj Tankian
Creator:Sieg
Version:Easy
Source:
Tags:empty walls elect the dead metal rock system of a down soad Ylinestra44

[Difficulty]
HPDrainRate:2
CircleSize:3
OverallDifficulty:2
ApproachRate:3
SliderMultiplier:0.899999999999999
SliderTickRate:2

[Events]
//Background and Video events
0,0,"bg.jpg"
//Break Periods
2,62143,76504
//Storyboard Layer 0 (Background)
//Storyboard Layer 1 (Fail)
//Storyboard Layer 2 (Pass)
//Storyboard Layer 3 (Foreground)
//Storyboard Sound Samples
//Background Colour Transformations
3,100,163,162,255

[TimingPoints]
230,571.428571428571,4,2,0,45,1,0
16801,-100,4,2,0,40,0,0
25372,-100,4,2,0,50,0,0
25944,-100,4,2,0,60,0,0
34515,-100,4,2,0,40,0,0
34801,-100,4,2,0,65,0,0
36801,-100,4,2,0,75,0,0
41372,-100,4,1,0,70,0,0
43658,-100,4,1,0,65,0,1
48229,-100,4,1,0,60,0,1
50515,-100,4,1,0,55,0,1
52801,-100,4,1,0,50,0,1
61944,-100,4,1,0,70,0,0
77944,-100,4,1,0,50,0,0
80229,-100,4,2,0,60,0,0
80515,-100,4,2,0,70,0,0
82515,-100,4,2,0,60,0,0
82801,-100,4,2,0,70,0,0
84801,-100,4,2,0,60,0,0
85087,-100,4,2,0,70,0,0
87087,-100,4,1,0,70,0,0
89372,-100,4,1,0,70,0,0
89658,-100,4,2,0,70,0,0
90515,-100,4,1,0,70,0,0
90801,-100,4,2,0,70,0,0
91658,-100,4,1,0,70,0,0
91944,-100,4,2,0,70,0,0
92801,-100,4,1,0,70,0,0
93087,-100,4,2,0,70,0,0
93944,-100,4,1,0,70,0,0
94229,-100,4,2,0,70,0,0
95087,-100,4,1,0,70,0,0
95372,-100,4,2,0,70,0,0
96229,-100,4,1,0,70,0,0
96515,-100,4,2,0,70,0,0
97372,-100,4,1,0,70,0,0
97658,-100,4,2,0,70,0,0
98515,-100,4,1,0,55,0,0
107658,-100,4,1,0,70,0,0
107801,-100,4,2,0,60,0,0
119087,-100,4,1,0,70,0,0
121372,-100,4,1,0,80,0,0
121944,-100,4,1,0,60,0,0
125372,-100,4,2,0,50,0,0
127658,-100,4,1,0,40,0,0
128229,-100,4,1,0,40,0,1
128515,-100,4,1,0,60,0,1
144087,-100,4,1,0,60,0,0
144229,-100,4,1,0,60,0,1
160229,-100,4,1,0,70,0,1
167087,-100,4,1,0,80,0,0
167658,-100,4,2,0,60,0,0
168229,-100,4,2,0,40,0,0
168801,-100,4,2,0,20,0,0

[Colours]
Combo1 : 183,65,14
Combo2 : 93,138,168
Combo3 : 254,111,94
Combo4 : 15,82,186
SliderBorder : 0,0,0

[HitObjects]
256,192,9372,12,0,13944
356,312,15087,5,2
424,252,15658,1,0
440,164,16230,1,0
380,96,16801,6,0,B|340:60|300:96,1,89.9999999999999,2|0
212,96,17944,2,0,B|172:60|132:96,1,89.9999999999999,2|0
72,164,19087,5,2
88,252,19658,1,0
156,312,20229,1,2
256,192,20801,12,0,24229
156,196,25372,6,0,B|172:180|172:156|140:156|140:132|156:116,1,89.9999999999999,4|0
212,44,26515,1,2
256,124,27087,1,0
300,44,27658,1,2
356,116,28229,6,0,B|372:132|372:156|340:156|340:180|356:196,1,89.9999999999999,0|2
428,264,29372,6,0,B|328:328|328:264|184:264|184:200|84:264,1,360,2|2
32,188,32229,6,0,B|66:158|111:150,1,89.9999999999999,0|2
204,140,33372,1,0
296,140,33944,1,2
384,160,34515,5,4
256,280,35658,1,0
76,268,36801,1,2
176,120,37944,1,0
336,120,39087,1,2
436,268,40229,1,0
336,120,41372,21,0
256,164,41944,1,0
176,120,42515,1,0
256,76,43087,1,0
336,120,43658,6,0,B|368:152|412:164,2,89.9999999999999,4|8|0
256,76,45372,1,8
176,120,45944,2,0,B|143:152|99:164,2,89.9999999999999,0|8|0
256,164,47658,1,8
256,252,48230,5,4
256,72,49372,1,4
256,252,50515,5,4
332,208,51087,1,8
256,252,51658,1,0
180,208,52230,1,8
172,120,52801,6,0,B|220:88|256:88|292:88|340:120,1,180,4|4
416,168,54515,1,8
340,212,55087,6,0,B|292:244|256:244|220:244|172:212,1,180,4|4
100,156,56801,1,8
76,68,57372,5,4
256,68,58515,1,4
428,124,59658,6,0,B|428:180|399:208|371:237|314:237,2,180,4|0|4
212,232,77944,6,0,B|256:244|300:232,2,89.9999999999999,4|8|0
256,156,79658,1,8
256,68,80230,5,4
128,192,81372,1,2
256,320,82515,1,4
384,192,83658,1,2
256,68,84801,5,4
128,192,85944,1,2
256,320,87087,1,0
256,232,87658,1,0
336,192,88230,1,0
256,148,88801,1,0
176,192,89372,5,0
140,168,89658,2,0,B|107:135|96:91,1,89.9999999999999,2|2
100,44,90515,1,0
144,36,90801,2,0,B|188:24|232:36,1,89.9999999999999,2|2
256,76,91658,5,0
280,36,91944,2,0,B|324:24|368:36,1,89.9999999999999,2|2
412,44,92801,1,0
416,90,93087,2,0,B|404:135|372:168,1,89.9999999999999,2|2
336,192,93944,5,0
300,220,94230,2,0,B|312:264|300:308,1,89.9999999999999,2|2
256,320,95087,1,0
212,308,95372,2,0,B|200:264|212:220,1,89.9999999999999,2|2
256,204,96230,5,0
300,188,96515,2,0,B|312:144|300:100,1,89.9999999999999,2|2
256,84,97372,1,0
212,99,97658,2,0,B|200:144|212:188,1,89.9999999999999,2|2
256,204,98515,5,4
340,176,99087,1,0
380,96,99658,2,2,B|340:60|300:96,1,89.9999999999999,2|0
212,96,100801,2,2,B|172:60|132:96,1,89.9999999999999,2|0
172,176,101944,1,2
260,176,102515,6,2,B|305:172|342:145,2,89.9999999999999,2|6|2
320,244,104230,2,2,B|278:262|232:259,1,89.9999999999999
180,332,105372,2,2,B|147:299|136:255,1,89.9999999999999
172,172,106515,5,0
256,136,107087,1,0
340,172,107658,1,4
428,188,108230,6,0,B|428:136|428:136|404:108,1,89.9999999999999,2|0
344,40,109372,1,2
256,64,109944,2,0,B|220:76|192:48|168:64,1,89.9999999999999,4|2
196,148,111087,2,0,B|172:164|144:136|108:148,1,89.9999999999999,4|2
132,236,112230,1,4
44,220,112801,6,0,B|44:272|44:272|68:300,1,89.9999999999999,2|0
132,236,113944,1,2
160,320,114515,2,0,B|196:308|224:336|248:320,1,89.9999999999999,4|2
220,236,115658,2,0,B|244:220|272:248|308:236,1,89.9999999999999,4|2
348,316,116801,1,4
436,308,117372,6,0,B|447:255|395:238,2,89.9999999999999,2|2|2
348,316,119087,1,0
304,236,119658,1,0
216,256,120230,1,0
152,192,120801,1,0
184,108,121372,1,4
256,192,121944,12,2,125372
364,172,125944,6,0,B|324:149|301:109,1,89.9999999999999,4|0
212,108,127087,2,0,B|188:148|149:171,1,89.9999999999999,2|0
212,236,128230,6,0,B|256:224|300:236,2,89.9999999999999,4|0|0
256,316,129944,1,0
300,236,130515,5,4
392,232,131087,2,0,B|408:216|408:192|376:192|376:168|392:152,1,89.9999999999999,8|0
304,128,132230,1,8
248,56,132801,2,0,B|232:72|208:72|208:40|184:40|168:56,1,89.9999999999999,0|8
112,128,133944,1,0
112,128,134515,1,8
188,176,135087,6,0,B|168:212|112:232|56:212|36:176,2,180,4|0|0
244,248,137944,2,0,B|276:215|320:204,1,89.9999999999999,8|0
328,292,139087,1,8
408,332,139658,6,0,B|420:288|408:244,1,89.9999999999999,4|8
328,292,140801,2,0,B|316:248|328:204,1,89.9999999999999,0|8
404,152,141944,2,0,B|384:116|328:96|272:116|252:152,2,180,0|0|4
328,200,144801,1,8
292,284,145372,2,0,B|278:308|256:314|234:308|220:284,1,89.9999999999999,0|8
184,200,146515,5,0
256,144,147087,1,8
220,60,147658,2,0,B|234:36|256:30|278:36|292:60,1,89.9999999999999,0|8
364,116,148801,5,4
372,204,149372,1,8
332,284,149944,1,0
256,332,150515,1,8
196,264,151087,6,0,B|166:297|165:346,2,89.9999999999999,0|8|0
256,192,152801,1,8
316,120,153372,6,0,B|346:87|347:38,2,89.9999999999999,4|8|0
256,52,155087,1,8
256,52,155658,1,0
180,100,156229,2,0,B|147:130|98:131,1,89.9999999999999,8|0
32,192,157372,1,8
98,253,157944,6,0,B|147:254|180:284,1,89.9999999999999,4|8
272,288,159087,2,0,B|305:258|354:257,1,89.9999999999999,0|8
340,344,160229,5,4
424,312,160801,1,8
440,224,161372,1,0
412,140,161944,1,8
340,84,162515,5,0
256,56,163087,1,8
172,84,163658,1,0
100,140,164229,1,8
160,208,164801,6,0,B|136:328|256:372|376:328|352:208,1,360,4|4
256,192,167658,12,2,171658
