osu file format v12

[General]
AudioFilename: 01 Goodbye - Gate 21 (Rock Remix fea.mp3
AudioLeadIn: 0
PreviewTime: 104
Countdown: 0
SampleSet: None
StackLeniency: 0.5
Mode: 0
LetterboxInBreaks: 0
WidescreenStoryboard: 1

[Editor]
Bookmarks: 19762,24562,29245,40657,49424,58131,66693,74872,83155,91522,100074,108597,117168,125739,134302,142369,150556,158623,166690,174796,182816,188888,192888
DistanceSpacing: 0.1
BeatDivisor: 4
GridSize: 4

[Metadata]
Title:Goodbye - Gate 21
TitleUnicode:Goodbye – Gate 21
Artist:Serj Tankian
ArtistUnicode:Serj Tankian
Creator:Sieg
Version:Medium
Source:
Tags:Tom Morello rock system of a down soad imperfect remixes
BeatmapID:288457
BeatmapSetID:107827

[Difficulty]
HPDrainRate:5
CircleSize:4
OverallDifficulty:4
ApproachRate:6
SliderMultiplier:1.4
SliderTickRate:1

[Events]
//Background and Video events
0,0,"bg.jpg",0,0
//Break Periods
2,125913,133254
//Storyboard Layer 0 (Background)
//Storyboard Layer 1 (Fail)
//Storyboard Layer 2 (Pass)
//Storyboard Layer 3 (Foreground)
//Storyboard Sound Samples
//Background Colour Transformations
3,100,163,162,255

[TimingPoints]
19754,600,4,3,2,30,1,0
20054,-100,4,3,1,60,0,0
23954,-100,4,3,4,70,0,0
24254,-100,4,3,1,60,0,0
24554,594.059405940594,4,3,1,60,1,0
26930,576.923076923077,4,3,1,40,1,0
27506,-100,4,3,2,10,0,0
28083,-100,4,3,2,15,0,0
28660,-100,4,3,2,20,0,0
29237,-100,4,3,2,30,0,0
29814,-100,4,3,1,60,0,0
30680,-100,4,3,1,30,0,0
30968,-100,4,3,1,60,0,0
31545,582.52427184466,4,3,1,60,1,0
33292,-100,4,3,4,70,0,0
33875,588.235294117647,4,3,1,60,1,0
36227,552.995391705069,4,3,1,60,1,0
38438,-100,4,3,1,70,0,0
39268,-100,4,3,1,75,0,0
39544,-100,4,3,1,80,0,0
40374,-100,4,3,3,80,0,0
40650,547.945205479452,4,3,1,80,1,0
44485,-100,4,3,4,80,0,0
44759,-100,4,3,1,80,0,0
47773,-100,4,3,4,80,0,0
48047,-100,4,3,1,80,0,0
48869,-100,4,3,4,80,0,0
49143,-100,4,3,1,80,0,0
49417,545.454545454546,4,3,1,80,1,0
53235,-100,4,3,4,80,0,0
53371,-100,4,3,1,80,0,0
57598,-100,4,3,4,80,0,0
57735,-100,4,3,1,80,0,0
58144,538.116591928251,4,3,2,80,1,0
58413,-100,4,3,3,80,0,0
59758,-100,4,3,4,80,0,0
59892,-100,4,3,3,80,0,0
60296,-100,4,3,2,40,0,0
60834,-100,4,3,2,60,0,0
61103,-100,4,3,3,80,0,0
61238,-100,4,3,3,80,0,0
61910,-100,4,3,4,80,0,0
62179,-100,4,3,3,80,0,0
62448,-100,4,3,2,60,0,0
62717,-100,4,3,3,80,0,0
64063,-100,4,3,4,80,0,0
64332,-100,4,3,3,80,0,0
64601,519.480519480519,4,3,2,60,1,0
64730,-100,4,3,3,80,0,0
65120,-100,4,3,2,60,0,0
65250,-100,4,3,3,80,0,0
66159,-100,4,3,2,60,0,0
66289,-100,4,3,3,80,0,0
66678,-100,4,3,2,80,0,0
66938,-100,4,3,3,80,0,0
68237,-100,4,3,2,40,0,0
68497,-100,4,3,2,50,0,0
68756,512.820512820513,4,3,2,60,1,0
68884,-100,4,3,3,80,0,0
69012,-100,4,3,1,30,0,0
69268,-100,4,3,3,80,0,0
70294,-100,4,3,4,80,0,0
70422,-100,4,3,3,80,0,0
70807,-100,4,3,2,60,0,0
70935,-100,4,3,3,80,0,0
72345,-100,4,3,4,80,0,0
72473,-100,4,3,3,80,0,0
72602,-100,4,3,2,30,0,0
72731,-100,4,3,2,40,0,0
72858,506.329113924051,4,3,2,60,1,0
73111,-100,4,3,2,80,0,0
73364,-100,4,3,3,80,0,0
73870,-100,4,3,2,80,0,0
73997,-100,4,3,3,80,0,0
74883,517.241379310345,4,3,2,90,1,1
75012,-100,4,3,3,90,0,0
76951,-100,4,3,2,70,0,0
77081,-100,4,3,3,90,0,0
79020,-100,4,3,2,70,0,0
79150,-100,4,3,3,90,0,0
81089,-100,4,3,2,70,0,0
81219,-100,4,3,3,90,0,0
83158,-100,4,3,2,90,0,0
83288,-100,4,3,3,90,0,0
87296,526.315789473684,4,3,3,90,1,0
87559,-100,4,3,1,30,0,0
87822,-100,4,3,3,90,0,0
88085,-100,4,3,1,30,0,0
88348,-100,4,3,3,90,0,0
89401,-100,4,3,2,60,0,0
90190,-100,4,3,3,90,0,0
90717,-100,4,3,2,60,0,0
90980,-100,4,3,2,70,0,0
91243,-100,4,3,2,80,0,0
91506,534.521158129176,4,3,2,90,1,1
91639,-100,4,3,3,100,0,1
95782,535.714285714286,4,3,3,100,1,1
97924,-100,4,3,2,80,0,1
98192,-100,4,3,3,100,0,1
99532,-100,4,3,2,70,0,1
99665,-100,4,3,3,80,0,1
100067,-100,4,3,2,80,0,1
100201,-100,4,3,3,100,0,1
101942,-100,4,3,1,30,0,1
102210,-100,4,3,3,100,0,1
105424,-100,4,3,2,60,0,1
105960,-100,4,3,2,70,0,1
106496,533.333333333333,4,3,2,90,1,1
106762,-100,4,3,3,100,0,1
108629,-100,4,3,2,90,0,1
108762,-100,4,3,3,100,0,0
109429,-100,4,3,1,30,0,0
109696,-100,4,3,3,100,0,0
110496,-100,4,3,1,30,0,0
110762,-100,4,3,3,100,0,0
111029,-100,4,3,1,30,0,0
111296,-100,4,3,3,100,0,0
111562,-100,4,3,1,30,0,0
111829,-100,4,3,3,100,0,0
112629,-100,4,3,1,30,0,0
112896,-100,4,3,3,100,0,0
113162,-100,4,3,1,30,0,0
113429,-100,4,3,3,100,0,0
113696,-100,4,3,1,30,0,0
113962,-100,4,3,3,100,0,0
116629,-100,4,3,2,70,0,0
116762,-100,4,3,3,100,0,0
117162,538.116591928251,4,3,3,90,1,0
117296,-100,4,3,3,100,0,0
117431,-100,4,3,1,30,0,0
117700,-100,4,3,3,100,0,0
117969,-100,4,3,1,30,0,0
118238,-100,4,3,3,100,0,0
119045,-100,4,3,1,30,0,0
119314,-100,4,3,3,100,0,0
121466,530.973451327434,4,3,3,100,1,0
124120,-100,4,3,3,80,0,0
124651,-100,4,3,2,60,0,0
125182,-100,4,3,2,50,0,0
125713,550.45871559633,4,3,2,40,1,0
127914,545.454545454546,4,3,2,40,1,0
130095,530.973451327434,4,3,2,40,1,0
132218,521.739130434783,4,3,1,90,1,0
134304,505.263157894737,4,3,2,80,1,0
134430,-100,4,3,3,100,0,0
136325,-100,4,3,2,80,0,0
136451,-100,4,3,3,100,0,0
138346,-100,4,3,2,80,0,0
138472,-100,4,3,3,100,0,0
141882,-100,4,3,2,80,0,0
142388,-100,4,3,2,80,0,0
142514,-100,4,3,3,100,0,0
144409,509.554140127389,4,3,3,100,1,0
146447,-100,4,3,2,70,0,0
146574,-100,4,3,3,100,0,0
148485,-100,4,3,2,70,0,0
148612,-100,4,3,3,100,0,0
150523,-100,4,3,2,70,0,0
150651,-100,4,3,3,90,0,0
154600,500,4,3,3,90,1,0
156600,506.329113924051,4,3,2,60,1,0
157359,-100,4,3,3,90,0,0
157865,-100,4,3,2,60,0,0
158118,-100,4,3,2,70,0,0
158372,-100,4,3,2,80,0,0
158625,504.201680672269,4,3,2,90,1,1
158751,-100,4,3,3,100,0,0
162658,502.092050209205,4,3,3,100,1,0
162909,-100,4,3,3,30,0,0
163160,-100,4,3,3,100,0,0
164666,504.201680672269,4,3,2,80,1,0
164792,-100,4,3,3,100,0,0
165926,-100,4,3,2,60,0,0
166178,-100,4,3,2,70,0,0
166430,-100,4,3,2,80,0,0
166682,508.474576271186,4,3,2,90,1,0
166809,-100,4,3,3,100,0,0
172020,-100,4,3,2,70,0,0
172529,-100,4,3,3,100,0,0
172783,506.329113924051,4,3,2,60,1,0
173542,-100,4,3,2,70,0,0
173922,-100,4,3,3,90,0,0
174808,502.092050209205,4,3,2,80,1,1
174933,-100,4,3,3,100,0,1
178824,500,4,3,3,100,1,1
180824,-100,4,3,2,80,0,1
180949,-100,4,3,3,100,0,1
182324,-100,4,3,2,70,0,1
182824,505.263157894737,4,3,2,80,1,1
182950,-100,4,3,3,100,0,1
183076,-100,4,3,1,30,0,1
183329,-100,4,3,3,100,0,1
183581,-100,4,3,1,30,0,1
183834,-100,4,3,3,100,0,1
184087,-100,4,3,1,30,0,1
184339,-100,4,3,3,100,0,1
184592,-100,4,3,1,30,0,1
184845,-100,4,3,3,100,0,1
188634,-100,4,3,2,80,0,1
188887,508.474576271186,4,3,2,90,1,1
189014,-100,4,3,3,20,0,0
189395,-100,4,3,3,17,0,0
189903,-100,4,3,3,15,0,0
190412,-100,4,3,3,12,0,0
190920,-100,4,3,3,10,0,0
191429,-100,4,3,3,7,0,0
191937,-100,4,3,3,5,0,0

[Colours]
Combo1 : 255,3,0
Combo2 : 240,248,255
Combo3 : 137,207,240
Combo4 : 255,32,82
Combo5 : 46,88,148
Combo6 : 47,132,124
Combo7 : 0,128,192
SliderBorder : 0,0,0

[HitObjects]
100,67,19754,2,0,P|174:77|192:151,1,140,12|4,0:0|0:0,0:0:0:0:
315,252,20954,2,0,P|338:307|412:317,2,140,4|4|12,0:0|0:0|0:0,0:0:0:0:
449,151,22754,1,4,0:0:0:0:
449,151,23354,1,4,0:0:0:0:
285,190,23954,6,0,L|263:105,1,70,4|4,0:0|0:0,0:0:0:0:
195,167,24554,2,0,L|173:82,1,70,12|4,0:0|0:0,0:0:0:0:
141,23,25148,2,0,P|98:77|106:146,1,140,4|4,0:0|0:0,0:0:0:0:
133,223,26039,2,0,P|94:228|47:206,2,70,4|4|4,0:0|0:0|0:0,0:0:0:0:
217,239,26930,1,12,0:0:0:0:
364,320,27506,85,4,0:0:0:0:
500,221,28083,1,4,0:0:0:0:
346,153,28660,1,4,0:0:0:0:
183,194,29237,6,0,P|190:264|178:334,1,140,12|4,0:0|0:0,0:0:0:0:
13,298,30391,2,0,P|8:265|14:221,1,70,4|4,0:0|0:0,0:0:0:0:
34,147,30968,2,0,P|72:100|142:122,1,140,4|12,0:0|0:0,0:0:0:0:
183,194,31836,86,0,P|201:217|241:231,2,70,4|4|4,0:0|0:0|0:0,0:0:0:0:
141,120,32710,1,4,0:0:0:0:
283,31,33292,1,12,0:0:0:0:
424,118,33875,5,12,0:0:0:0:
424,118,34463,1,4,0:0:0:0:
286,214,35051,1,4,0:0:0:0:
345,272,35345,1,8,0:0:0:0:
428,278,35639,1,12,0:0:0:0:
479,106,36227,86,0,L|468:10,1,70,10|2,0:0|0:0,0:0:0:0:
392,66,36779,2,0,L|403:162,1,70,2|10,0:0|0:0,0:0:0:0:
381,217,37332,2,0,P|330:272|259:276,1,140,2|10,0:0|0:0,0:0:0:0:
182,264,38162,1,2,0:0:0:0:
112,213,38438,38,0,P|85:181|83:137,1,70,10|2,0:0|0:0,0:0:0:0:
106,74,38991,2,0,P|40:80|-2:144,1,140,2|2,0:0|0:0,0:0:0:0:
11,219,39821,2,0,L|22:303,1,70,8|10,0:0|0:0,0:0:0:0:
15,372,40374,1,12,0:0:0:0:
95,347,40650,6,0,B|140:359|180:337|180:337|234:343,1,140,12|6,0:0|0:0,0:0:0:0:
397,368,41745,1,4,0:0:0:0:
494,231,42293,38,0,P|496:192|478:150,1,70,6|8,0:0|0:0,0:0:0:0:
413,205,42841,2,0,P|385:145|316:126,1,140,12|6,0:0|0:0,0:0:0:0:
331,208,43663,2,0,P|266:221|232:284,1,140,8|8,0:0|0:0,0:0:0:0:
316,290,44485,1,14,0:0:0:0:
268,130,45033,38,0,P|204:165|164:221,2,140,12|6|4,0:0|0:0|0:0,0:0:0:0:
435,114,46677,2,0,L|446:33,1,70,14|4,0:0|0:0,0:0:0:0:
364,18,47225,2,0,L|353:99,2,70,12|4|14,0:0|0:0|0:0,0:0:0:0:
280,30,48047,1,4,0:0:0:0:
253,109,48321,2,0,P|243:181|258:274,1,140,4|14,0:0|0:0,0:0:0:0:
120,356,49417,6,0,P|166:312|150:234,1,140,12|6,0:0|0:0,0:0:0:0:
126,162,50235,1,8,0:0:0:0:
43,148,50507,1,4,0:0:0:0:
0,221,50780,1,8,0:0:0:0:
24,301,51053,2,0,L|42:383,1,70,14|4,0:0|0:0,0:0:0:0:
122,356,51598,38,0,P|122:287|149:216,1,140,12|6,0:0|0:0,0:0:0:0:
128,138,52417,2,0,P|55:151|0:98,1,140,8|8,0:0|0:0,0:0:0:0:
79,71,53235,1,14,0:0:0:0:
243,39,53780,38,0,P|265:117|217:174,1,140,12|6,0:0|0:0,0:0:0:0:
212,329,54871,2,0,P|228:288|255:264,1,70,4|8,0:0|0:0,0:0:0:0:
307,212,55417,1,14,0:0:0:0:
344,137,55689,1,8,0:0:0:0:
326,54,55962,6,0,P|279:61|250:49,2,70,12|4|6,0:0|0:0|0:0,0:0:0:0:
405,27,56780,1,14,0:0:0:0:
483,57,57053,2,0,L|490:138,1,70,8|8,0:0|0:0,0:0:0:0:
504,209,57598,1,14,0:0:0:0:
398,342,58144,70,0,L|371:262,1,70,12|4,0:0|0:0,0:0:0:0:
346,196,58682,1,6,0:0:0:0:
296,128,58951,2,0,P|264:187|308:270,1,140,4|12,0:0|0:0,0:0:0:0:
308,333,59758,2,0,P|293:366|255:377,1,70,14|12,0:0|0:0,0:0:0:0:
182,352,60296,1,12,0:0:0:0:
32,275,60834,6,0,B|65:239|128:257|128:257|170:218,1,140,6|12,0:0|0:0,0:0:0:0:
218,176,61641,1,8,0:0:0:0:
247,97,61910,2,0,L|260:27,1,70,14|8,0:0|0:0,0:0:0:0:
175,24,62448,6,0,P|106:22|30:33,2,140,12|6|12,0:0|0:0|0:0,0:0:0:0:
245,69,63794,1,8,0:0:0:0:
278,146,64063,2,0,L|287:229,1,70,14|8,0:0|0:0,0:0:0:0:
349,274,64601,70,0,P|418:276|494:265,2,140,12|6|6,0:0|0:0|0:0,0:0:0:0:
287,331,65899,1,8,0:0:0:0:
209,299,66159,2,0,P|213:207|257:184,1,140,14|12,0:0|0:0,0:0:0:0:
401,122,67198,5,6,0:0:0:0:
468,71,67458,2,0,P|415:39|342:64,1,140,4|8,0:0|0:0,0:0:0:0:
261,72,68237,1,14,0:0:0:0:
176,72,68497,1,12,0:0:0:0:
92,55,68756,6,0,P|42:46|1:27,1,70,12|4,0:0|0:0,0:0:0:0:
12,122,69268,2,0,P|22:217|10:342,1,210,12|8,0:0|0:0,0:0:0:0:
90,361,70294,2,0,P|98:299|123:217,1,140,14|12,0:0|0:0,0:0:0:0:
275,160,71320,70,0,P|282:99|262:13,2,140,6|4|14,0:0|0:0|0:0,0:0:0:0:
235,234,72602,2,0,P|230:273|214:313,2,69.6,12|12|6,0:0|0:0|0:0,0:0:0:0:
317,232,73364,6,0,P|322:271|338:311,1,70,12|14,0:0|0:0,0:0:0:0:
379,368,73870,2,0,P|457:370|487:294,1,140,6|14,0:0|0:0,0:0:0:0:
506,241,74630,1,8,0:0:0:0:
442,189,74883,1,14,0:0:0:0:
410,24,75400,5,12,0:0:0:0:
352,184,75917,2,0,P|256:269|160:184,1,280,6|14,0:0|0:0,0:0:0:0:
102,25,77469,69,12,0:0:0:0:
73,190,77986,2,0,P|151:192|197:148,1,140,6|4,0:0|0:0,0:0:0:0:
352,96,79020,2,0,P|428:109|454:178,1,140,14|12,0:0|0:0,0:0:0:0:
483,326,80055,5,6,0:0:0:0:
402,351,80314,2,0,P|373:361|316:351,1,70,8|4,0:0|0:0,0:0:0:0:
253,336,80831,1,8,0:0:0:0:
169,336,81089,1,14,0:0:0:0:
92,371,81348,6,0,P|106:280|213:263,1,210,14|6,0:0|0:0,0:0:0:0:
293,259,82383,2,0,P|345:226|332:144,1,140,2|2,0:0|0:0,0:0:0:0:
261,128,83158,2,0,P|204:156|126:137,1,140,14|12,0:0|0:0,0:0:0:0:
12,67,84193,69,6,0:0:0:0:
79,24,84451,2,0,P|119:21|218:51,1,140,8|4,0:0|0:0,0:0:0:0:
298,48,85227,2,0,P|363:24|433:24,2,140,14|14|14,0:0|0:0|0:0,0:0:0:0:
223,194,86779,1,4,0:0:0:0:
63,239,87296,6,0,P|41:264|40:312,1,70,14|4,0:0|0:0,0:0:0:0:
88,365,87822,2,0,P|110:340|111:292,1,70,12|4,0:0|0:0,0:0:0:0:
145,227,88348,1,6,0:0:0:0:
223,194,88611,2,0,P|268:188|304:192,1,70,8|4,0:0|0:0,0:0:0:0:
458,212,89401,6,0,P|479:141|467:61,1,140,14|6,0:0|0:0,0:0:0:0:
412,16,90190,1,10,0:0:0:0:
329,32,90453,1,6,0:0:0:0:
257,75,90717,2,0,P|218:82|188:101,2,70,12|14|6,0:0|0:0|0:0,0:0:0:0:
328,116,91506,22,0,P|380:154|458:138,2,140,12|6|12,0:0|0:0|0:0,0:0:0:0:
275,50,92842,1,8,0:0:0:0:
194,25,93109,1,6,0:0:0:0:
112,45,93376,1,8,0:0:0:0:
42,92,93644,54,0,P|23:162|38:234,1,140,12|6,0:0|0:0,0:0:0:0:
59,307,94445,1,8,0:0:0:0:
120,364,94713,1,12,0:0:0:0:
203,373,94980,1,8,0:0:0:0:
284,354,95247,2,0,L|329:285,1,70,6|8,0:0|0:0,0:0:0:0:
366,224,95782,6,0,P|295:216|248:259,2,140,12|6|12,0:0|0:0|0:0,0:0:0:0:
501,323,97389,2,0,L|511:233,1,70,6|8,0:0|0:0,0:0:0:0:
490,171,97924,21,12,0:0:0:0:
406,164,98192,2,0,P|294:223|237:105,1,280,2|8,0:0|0:0,0:0:0:0:
274,37,99532,1,12,0:0:0:0:
356,22,99799,1,2,0:0:0:0:
414,81,100067,1,12,0:0:0:0:
474,237,100603,54,0,L|487:318,1,70,12|8,0:0|0:0,0:0:0:0:
402,287,101139,2,0,L|393:368,1,70,12|8,0:0|0:0,0:0:0:0:
320,317,101674,2,0,L|290:393,1,70,6|4,0:0|0:0,0:0:0:0:
221,340,102210,6,0,P|72:315|119:214,1,280,12|12,0:0|0:0,0:0:0:0:
152,291,103549,1,4,0:0:0:0:
175,210,103817,2,0,P|156:173|111:149,1,70,6|8,0:0|0:0,0:0:0:0:
49,161,104353,2,0,P|78:92|148:72,2,140,12|6|12,0:0|0:0|0:0,0:0:0:0:
93,323,105960,85,6,0:0:0:0:
175,308,106228,1,4,0:0:0:0:
247,350,106496,1,12,0:0:0:0:
330,350,106762,38,0,L|405:330,1,70,2|2,0:0|0:0,0:0:0:0:
360,256,107296,2,0,L|334:167,1,70,8|2,0:0|0:0,0:0:0:0:
423,177,107829,2,0,L|498:157,1,70,12|12,0:0|0:0,0:0:0:0:
454,83,108362,2,0,L|428:-6,1,70,12|14,0:0|0:0,0:0:0:0:
225,102,109162,86,0,P|196:129|185:159,1,70,6|4,0:0|0:0,0:0:0:0:
268,173,109696,2,0,P|306:184|337:178,1,70,12|8,0:0|0:0,0:0:0:0:
310,99,110229,2,0,P|300:60|280:35,1,70,6|4,0:0|0:0,0:0:0:0:
198,23,110762,6,0,L|126:38,1,70,12|4,0:0|0:0,0:0:0:0:
63,90,111296,2,0,L|78:162,1,70,6|4,0:0|0:0,0:0:0:0:
102,238,111829,2,0,L|174:223,1,70,12|8,0:0|0:0,0:0:0:0:
203,301,112362,2,0,L|218:373,1,70,6|4,0:0|0:0,0:0:0:0:
301,359,112896,86,0,L|373:377,1,70,12|4,0:0|0:0,0:0:0:0:
369,291,113429,2,0,L|443:289,1,70,12|4,0:0|0:0,0:0:0:0:
412,209,113962,2,0,L|483:188,1,70,12|8,0:0|0:0,0:0:0:0:
439,115,114496,1,6,0:0:0:0:
274,147,115029,6,0,P|274:68|300:10,2,140,12|6|6,0:0|0:0|0:0,0:0:0:0:
267,230,116362,1,8,0:0:0:0:
245,311,116629,2,0,P|246:348|236:383,1,70,6|2,0:0|0:0,0:0:0:0:
165,337,117162,86,0,P|128:353|92:344,1,70,14|4,0:0|0:0,0:0:0:0:
120,266,117700,2,0,P|79:261|53:235,1,70,6|4,0:0|0:0,0:0:0:0:
116,183,118238,2,0,P|83:158|73:123,1,70,12|8,0:0|0:0,0:0:0:0:
154,109,118776,2,0,P|138:72|147:35,1,70,6|4,0:0|0:0,0:0:0:0:
224,62,119314,5,12,0:0:0:0:
387,100,119852,1,6,0:0:0:0:
409,266,120390,1,12,0:0:0:0:
253,329,120928,1,6,0:0:0:0:
256,192,121466,12,12,125713,0:0:0:0:
353,220,134304,6,0,P|305:276|321:348,2,140,12|8|8,0:0|0:0|0:0,0:0:0:0:
453,85,135819,2,0,P|397:133|336:124,1,140,8|12,0:0|0:0,0:0:0:0:
172,164,136830,2,0,P|233:156|289:204,1,140,8|8,0:0|0:0,0:0:0:0:
152,302,137840,38,0,P|103:342|31:329,2,140,8|12|8,0:0|0:0|0:0,0:0:0:0:
75,152,139356,2,0,P|56:93|94:29,1,140,8|8,0:0|0:0,0:0:0:0:
239,115,140367,2,0,P|288:75|360:88,2,140,8|8|6,0:0|0:0|0:0,0:0:0:0:
195,277,141882,5,14,0:0:0:0:
195,277,142388,1,14,0:0:0:0:
355,325,142893,69,12,0:0:0:0:
500,241,143398,2,0,L|487:146,1,70,6|8,0:0|0:0,0:0:0:0:
470,89,143904,1,4,0:0:0:0:
412,28,144156,1,8,0:0:0:0:
328,19,144409,1,12,0:0:0:0:
304,185,144918,5,12,0:0:0:0:
224,333,145428,2,0,L|147:351,1,70,6|8,0:0|0:0,0:0:0:0:
72,356,145937,1,4,0:0:0:0:
4,305,146192,1,4,0:0:0:0:
45,231,146447,2,0,P|82:183|62:98,1,140,12|12,0:0|0:0,0:0:0:0:
219,30,147466,5,6,0:0:0:0:
188,108,147721,2,0,P|164:172|190:242,1,140,2|8,0:0|0:0,0:0:0:0:
229,309,148485,1,14,0:0:0:0:
309,331,148740,70,0,P|396:298|392:191,1,210,2|12,0:0|0:0,0:0:0:0:
402,111,149759,2,0,P|325:147|315:221,1,140,2|2,0:0|0:0,0:0:0:0:
270,268,150523,2,0,P|336:274|390:219,1,140,14|12,0:0|0:0,0:0:0:0:
486,90,151542,5,6,0:0:0:0:
413,132,151797,2,0,P|378:144|334:135,1,70,8|4,0:0|0:0,0:0:0:0:
261,134,152307,1,4,0:0:0:0:
178,149,152561,2,0,P|214:203|292:213,2,140,14|12|6,0:0|0:0|0:0,0:0:0:0:
40,74,154090,6,0,P|72:56|113:47,1,70,4|4,0:0|0:0,0:0:0:0:
102,133,154600,2,0,P|137:123|179:125,1,70,14|4,0:0|0:0,0:0:0:0:
252,139,155100,2,0,P|219:193|140:203,1,140,12|6,0:0|0:0,0:0:0:0:
63,209,155850,1,8,0:0:0:0:
3,267,156100,1,4,0:0:0:0:
7,349,156350,1,8,0:0:0:0:
88,362,156600,70,0,P|161:354|199:286,1,140,14|6,0:0|0:0,0:0:0:0:
205,219,157359,1,10,0:0:0:0:
221,136,157612,2,0,P|222:99|242:69,1,70,6|12,0:0|0:0,0:0:0:0:
313,31,158118,1,14,0:0:0:0:
396,22,158372,1,6,0:0:0:0:
475,49,158625,70,0,B|477:107|477:107|472:143|472:143|473:205,2,140,12|6|12,0:0|0:0|0:0,0:0:0:0:
382,346,160641,2,0,B|379:288|379:288|385:252|385:252|384:190,2,140,12|12|6,0:0|0:0|0:0,0:0:0:0:
215,366,162154,38,0,L|139:356,1,70,4|4,0:0|0:0,0:0:0:0:
139,272,162658,2,0,L|67:290,1,70,12|4,0:0|0:0,0:0:0:0:
46,208,163160,2,0,P|84:161|42:88,1,140,12|6,0:0|0:0,0:0:0:0:
3,28,163913,1,8,0:0:0:0:
86,19,164164,2,0,B|163:27,1,70,12|8,0:0|0:0,0:0:0:0:
236,46,164666,5,12,0:0:0:0:
319,33,164918,2,0,P|268:125|173:104,1,210,2|14,0:0|0:0,0:0:0:0:
109,60,165926,1,12,0:0:0:0:
27,79,166178,1,12,0:0:0:0:
10,161,166430,1,12,0:0:0:0:
72,220,166682,1,12,0:0:0:0:
180,337,167190,70,0,P|190:272|173:184,2,140,4|6|4,0:0|0:0|0:0,0:0:0:0:
291,210,168715,2,0,P|281:275|298:363,2,140,12|12|6,0:0|0:0|0:0,0:0:0:0:
436,132,170241,6,0,B|423:212,1,70,4|4,0:0|0:0,0:0:0:0:
501,236,170749,2,0,B|514:156,1,70,12|4,0:0|0:0,0:0:0:0:
512,82,171258,2,0,P|466:23|392:28,1,140,12|6,0:0|0:0,0:0:0:0:
432,100,172020,1,12,0:0:0:0:
270,53,172529,6,0,P|263:100|263:129,1,70,8|14,0:0|0:0,0:0:0:0:
262,206,173036,1,6,0:0:0:0:
249,289,173289,1,12,0:0:0:0:
197,355,173542,1,6,0:0:0:0:
113,367,173795,2,0,P|22:304|46:218,1,210,14|2,0:0|0:0,0:0:0:0:
74,141,174808,22,0,P|199:140|184:16,1,280,14|12,0:0|0:0,0:0:0:0:
137,86,176063,2,0,P|204:139|273:117,1,140,8|8,0:0|0:0,0:0:0:0:
324,86,176816,2,0,P|369:38|441:57,1,140,12|6,0:0|0:0,0:0:0:0:
492,113,177569,53,8,0:0:0:0:
495,196,177820,1,12,0:0:0:0:
466,275,178071,1,8,0:0:0:0:
399,326,178322,2,0,P|362:319|330:287,1,70,6|8,0:0|0:0,0:0:0:0:
265,255,178824,6,0,P|316:215|391:239,2,140,12|6|12,0:0|0:0|0:0,0:0:0:0:
229,331,180074,1,8,0:0:0:0:
149,357,180324,2,0,L|73:347,1,70,6|8,0:0|0:0,0:0:0:0:
9,300,180824,21,12,0:0:0:0:
57,231,181074,2,0,B|87:260|147:269|180:235|199:191|199:191|217:146|251:114|311:122|341:151,1,350,2|12,0:0|0:0,0:0:0:0:
284,215,182574,1,12,0:0:0:0:
306,298,182824,54,0,P|326:333|358:350,1,70,12|4,0:0|0:0,0:0:0:0:
385,271,183329,2,0,P|420:250|437:218,1,70,6|4,0:0|0:0,0:0:0:0:
361,186,183834,2,0,P|340:150|308:133,1,70,12|4,0:0|0:0,0:0:0:0:
283,212,184339,2,0,P|247:232|230:264,1,70,6|4,0:0|0:0,0:0:0:0:
184,325,184845,2,0,P|106:364|35:221,1,280,12|12,0:0|0:0,0:0:0:0:
113,78,186360,6,0,P|130:41|122:7,1,70,6|4,0:0|0:0,0:0:0:0:
208,20,186866,2,0,P|222:58|251:77,1,70,6|2,0:0|0:0,0:0:0:0:
328,59,187371,2,0,P|406:20|477:163,1,280,2|2,0:0|0:0,0:0:0:0:
403,112,188634,1,6,0:0:0:0:
400,116,188887,1,12,0:0:0:0:
256,192,189141,12,4,192446,0:0:0:0:
