osu file format v12

[General]
AudioFilename: 01 Goodbye - Gate 21 (Rock Remix fea.mp3
AudioLeadIn: 0
PreviewTime: 104
Countdown: 0
SampleSet: None
StackLeniency: 0.7
Mode: 0
LetterboxInBreaks: 0
WidescreenStoryboard: 1

[Editor]
Bookmarks: 19762,24562,29245,40657,49424,58131,66693,74872,83155,91522,100074,108597,117168,125739,134302,142369,150556,158623,166690,174796,182816,188888,192888
DistanceSpacing: 1
BeatDivisor: 4
GridSize: 32

[Metadata]
Title:Goodbye - Gate 21
TitleUnicode:Goodbye – Gate 21
Artist:Serj Tankian
ArtistUnicode:Serj Tankian
Creator:Sieg
Version:Advanced
Source:
Tags:Tom Morello rock system of a down soad imperfect remixes
BeatmapID:282369
BeatmapSetID:107827

[Difficulty]
HPDrainRate:6
CircleSize:4
OverallDifficulty:6
ApproachRate:8
SliderMultiplier:2
SliderTickRate:1

[Events]
//Background and Video events
0,0,"bg.jpg",0,0
//Break Periods
//Storyboard Layer 0 (Background)
//Storyboard Layer 1 (Fail)
//Storyboard Layer 2 (Pass)
//Storyboard Layer 3 (Foreground)
//Storyboard Sound Samples
//Background Colour Transformations
3,100,163,162,255

[TimingPoints]
19754,600,4,3,2,30,1,0
20054,-100,4,3,1,60,0,0
21254,-100,4,2,1,20,0,0
21554,-100,4,3,1,60,0,0
21854,-100,4,2,1,20,0,0
22154,-100,4,3,1,60,0,0
23954,-100,4,3,4,70,0,0
24254,-100,4,3,1,60,0,0
24554,594.059405940594,4,3,1,60,1,0
24999,-100,4,3,1,20,0,0
25148,-100,4,3,1,60,0,0
26930,576.923076923077,4,3,1,40,1,0
27506,-100,4,3,2,10,0,0
28083,-100,4,3,2,15,0,0
28660,-100,4,3,2,20,0,0
29237,-100,4,3,2,30,0,0
29814,-100,4,3,1,60,0,0
30680,-100,4,2,1,15,0,0
30968,-100,4,3,1,60,0,0
31545,582.52427184466,4,3,1,60,1,0
33292,-100,4,3,4,70,0,0
33875,588.235294117647,4,3,1,60,1,0
36227,552.995391705069,4,3,1,60,1,0
38438,-100,4,3,1,70,0,0
39268,-100,4,3,1,75,0,0
39544,-100,4,3,1,80,0,0
40374,-100,4,3,3,80,0,0
40650,547.945205479452,4,3,1,80,1,0
42567,-100,4,3,1,80,0,0
42704,-100,4,3,1,30,0,0
42841,-100,4,3,1,80,0,0
44485,-100,4,3,4,80,0,0
44759,-100,4,3,1,80,0,0
46814,-100,4,3,1,30,0,0
46951,-100,4,3,1,80,0,0
47088,-100,4,3,1,30,0,0
47225,-100,4,3,1,80,0,0
47773,-100,4,3,4,80,0,0
48047,-100,4,3,1,80,0,0
48869,-100,4,3,4,80,0,0
49143,-100,4,3,1,80,0,0
49280,-100,4,3,1,30,0,0
49417,545.454545454546,4,3,1,80,1,0
51189,-100,4,3,1,30,0,0
51326,-100,4,3,1,80,0,0
51462,-100,4,3,1,30,0,0
51598,-100,4,3,1,80,0,0
53235,-100,4,3,4,90,0,0
53371,-100,4,3,1,80,0,0
55553,-100,4,3,4,30,0,0
55689,-100,4,3,1,80,0,0
55826,-100,4,3,4,30,0,0
55962,-100,4,3,1,80,0,0
57598,-100,4,3,4,80,0,0
57735,-100,4,3,1,80,0,0
58144,538.116591928251,4,3,2,80,1,0
58278,-100,4,3,4,40,0,0
58413,-100,4,3,3,80,0,0
58547,-100,4,2,1,45,0,0
58682,-100,4,3,3,80,0,0
58816,-100,4,2,1,55,0,0
58951,-100,4,3,3,80,0,0
59085,-100,4,2,1,50,0,0
59220,-100,4,3,3,80,0,0
59354,-100,4,3,4,45,0,0
59489,-100,4,3,3,80,0,0
59623,-100,4,3,4,40,0,0
59758,-100,4,3,4,80,0,0
59892,-100,4,3,4,45,0,0
60027,-100,4,3,3,80,0,0
60161,-100,4,3,4,50,0,0
60296,-100,4,3,2,40,0,0
60834,-100,4,3,2,60,0,0
61103,-100,4,3,3,80,0,0
61910,-100,4,3,4,80,0,0
62179,-100,4,3,3,80,0,0
62448,-100,4,3,2,60,0,0
62717,-100,4,3,3,80,0,0
64063,-100,4,3,4,80,0,0
64332,-100,4,3,3,80,0,0
64601,519.480519480519,4,3,2,60,1,0
64730,-100,4,3,3,80,0,0
65120,-100,4,3,2,60,0,0
65250,-100,4,3,3,80,0,0
66159,-100,4,3,2,60,0,0
66289,-100,4,3,3,80,0,0
66678,-100,4,3,2,80,0,0
66938,-100,4,3,3,80,0,0
68237,-100,4,3,2,40,0,0
68497,-100,4,3,2,50,0,0
68756,512.820512820513,4,3,2,60,1,0
68884,-100,4,3,3,80,0,0
70294,-100,4,3,4,80,0,0
70422,-100,4,3,3,80,0,0
70807,-100,4,3,2,60,0,0
70935,-100,4,3,3,80,0,0
72345,-100,4,3,4,80,0,0
72473,-100,4,3,3,80,0,0
72602,-100,4,3,2,30,0,0
72731,-100,4,3,2,40,0,0
72858,506.329113924051,4,3,2,60,1,0
73111,-100,4,3,2,80,0,0
73364,-100,4,3,3,80,0,0
73870,-100,4,3,2,80,0,0
73997,-100,4,3,3,80,0,0
74883,517.241379310345,4,3,2,90,1,1
75012,-100,4,3,3,90,0,0
76951,-100,4,3,2,70,0,0
77081,-100,4,3,3,90,0,0
79020,-100,4,3,2,70,0,0
79150,-100,4,3,3,90,0,0
81089,-100,4,3,2,70,0,0
81219,-100,4,3,3,90,0,0
83158,-100,4,3,2,90,0,0
83288,-100,4,3,3,90,0,0
87038,-100,4,3,3,90,0,0
87296,526.315789473684,4,3,3,90,1,0
87559,-100,4,3,3,30,0,0
87822,-100,4,3,3,90,0,0
88085,-100,4,3,3,30,0,0
88348,-100,4,3,3,90,0,0
89401,-100,4,3,2,60,0,0
90190,-100,4,3,3,90,0,0
90717,-100,4,3,2,60,0,0
90980,-100,4,3,2,70,0,0
91243,-100,4,3,2,80,0,0
91506,534.521158129176,4,3,2,90,1,1
91639,-100,4,3,3,100,0,1
91773,-100,4,3,3,30,0,1
92040,-100,4,3,3,100,0,1
93109,-100,4,3,3,100,0,1
93376,-100,4,3,3,100,0,1
93510,-100,4,3,1,30,0,1
93644,-100,4,3,3,100,0,1
95381,-100,4,3,1,30,0,1
95514,-100,4,3,3,100,0,1
95648,-100,4,2,1,80,0,1
95782,535.714285714286,4,3,3,100,1,1
97255,-100,4,3,1,30,0,1
97389,-100,4,3,3,100,0,1
97924,-100,4,3,2,80,0,1
98192,-100,4,3,3,100,0,1
99532,-100,4,3,2,70,0,1
99665,-100,4,3,3,80,0,1
100067,-100,4,3,2,80,0,1
100201,-100,4,3,3,100,0,1
101942,-100,4,3,3,60,0,1
102210,-100,4,3,3,100,0,1
103683,-100,4,2,1,30,0,1
103817,-100,4,3,3,100,0,1
105424,-100,4,3,2,60,0,1
105960,-100,4,3,2,70,0,1
106496,533.333333333333,4,3,2,90,1,1
106762,-100,4,3,3,100,0,1
108629,-100,4,3,2,90,0,1
108762,-100,4,3,3,100,0,0
109429,-100,4,3,1,30,0,0
109696,-100,4,3,3,100,0,0
110496,-100,4,3,1,30,0,0
110762,-100,4,3,3,100,0,0
111029,-100,4,3,1,30,0,0
111296,-100,4,3,3,100,0,0
111562,-100,4,3,1,30,0,0
111829,-100,4,3,3,100,0,0
112629,-100,4,3,1,30,0,0
112896,-100,4,3,3,100,0,0
113162,-100,4,3,1,30,0,0
113429,-100,4,3,3,100,0,0
113696,-100,4,3,1,30,0,0
113962,-100,4,3,3,100,0,0
114762,-100,4,3,1,30,0,0
115029,-100,4,3,3,100,0,0
116629,-100,4,3,2,70,0,0
116762,-100,4,3,3,100,0,0
117162,538.116591928251,4,3,2,90,1,0
117296,-100,4,3,3,100,0,0
117431,-100,4,3,1,30,0,0
117700,-100,4,3,3,100,0,0
117969,-100,4,3,1,30,0,0
118238,-100,4,3,3,100,0,0
118776,-100,4,3,3,100,0,0
119045,-100,4,3,1,30,0,0
119314,-100,4,3,3,100,0,0
119583,-100,4,3,1,30,0,0
119852,-100,4,3,3,100,0,0
120121,-100,4,3,1,30,0,0
120390,-100,4,3,3,100,0,0
121197,-100,4,3,1,30,0,0
121466,530.973451327434,4,3,3,100,1,0
121731,-100,4,3,1,30,0,0
121996,-100,4,3,3,100,0,0
122262,-100,4,3,1,30,0,0
122527,-100,4,3,3,100,0,0
123324,-100,4,3,1,30,0,0
123589,-100,4,3,3,100,0,0
124120,-100,4,3,3,80,0,0
124651,-100,4,3,2,60,0,0
125182,-100,4,3,2,50,0,0
125713,550.45871559633,4,3,2,40,1,0
127914,545.454545454546,4,3,2,80,1,0
130095,530.973451327434,4,3,2,80,1,0
132218,521.739130434783,4,3,2,80,1,0
134304,505.263157894737,4,3,2,80,1,0
134430,-100,4,3,1,20,0,0
134556,-100,4,3,3,100,0,0
134682,-100,4,3,1,20,0,0
134809,-100,4,3,3,100,0,0
134935,-100,4,3,1,20,0,0
135061,-100,4,3,3,100,0,0
135188,-100,4,3,1,20,0,0
135314,-100,4,3,3,100,0,0
136325,-100,4,3,2,80,0,0
136451,-100,4,3,3,100,0,0
137967,-100,4,3,1,20,0,0
138093,-100,4,3,3,100,0,0
138219,-100,4,3,1,20,0,0
138346,-100,4,3,2,80,0,0
138472,-100,4,3,1,20,0,0
138598,-100,4,3,3,100,0,0
138725,-100,4,3,1,20,0,0
138851,-100,4,3,3,100,0,0
141882,-100,4,3,2,80,0,0
142514,-100,4,3,3,100,0,0
144409,509.554140127389,4,3,3,100,1,0
146447,-100,4,3,2,70,0,0
146574,-100,4,3,3,100,0,0
148485,-100,4,3,2,70,0,0
148612,-100,4,3,3,100,0,0
150523,-100,4,3,2,70,0,0
150651,-100,4,3,3,90,0,0
154345,-100,4,3,3,90,0,0
154600,500,4,3,3,90,1,0
154850,-100,4,3,1,30,0,0
155100,-100,4,3,3,90,0,0
155350,-100,4,3,1,30,0,0
155600,-100,4,3,3,90,0,0
156600,506.329113924051,4,3,2,60,1,0
157359,-100,4,3,3,90,0,0
157865,-100,4,3,2,60,0,0
158118,-100,4,3,2,70,0,0
158372,-100,4,3,2,80,0,0
158625,504.201680672269,4,3,2,90,1,1
158751,-100,4,3,3,100,0,0
162280,-100,4,3,1,30,0,0
162406,-100,4,3,3,100,0,0
162532,-100,4,3,1,30,0,0
162658,502.092050209205,4,3,3,100,1,0
162909,-100,4,3,1,30,0,0
163160,-100,4,3,3,100,0,0
164038,-100,4,3,3,40,0,0
164164,-100,4,3,3,100,0,0
164666,504.201680672269,4,3,2,80,1,0
164792,-100,4,3,3,100,0,0
165926,-100,4,3,2,60,0,0
166178,-100,4,3,2,70,0,0
166430,-100,4,3,2,80,0,0
166682,508.474576271186,4,3,2,90,1,0
166809,-100,4,3,3,100,0,0
172020,-100,4,3,2,80,0,0
172529,-100,4,3,3,100,0,0
172783,506.329113924051,4,3,2,60,1,0
173542,-100,4,3,2,70,0,0
173922,-100,4,3,3,90,0,0
174808,502.092050209205,4,3,2,80,1,1
174933,-100,4,3,3,100,0,1
175059,-100,4,3,1,30,0,1
175310,-100,4,3,3,100,0,1
176314,-100,4,3,3,100,0,1
176565,-100,4,3,3,100,0,1
176690,-100,4,3,1,40,0,1
176816,-100,4,3,3,100,0,1
178448,-100,4,3,1,30,0,1
178573,-100,4,3,3,100,0,1
178699,-100,4,2,1,80,0,1
178824,500,4,3,3,100,1,1
180199,-100,4,3,3,40,0,1
180324,-100,4,3,3,100,0,1
180824,-100,4,3,2,80,0,1
180949,-100,4,3,3,100,0,1
182324,-100,4,3,2,70,0,1
182824,505.263157894737,4,3,2,80,1,1
182950,-100,4,3,3,100,0,1
184845,-100,4,3,3,100,0,1
186234,-100,4,3,1,30,0,1
186360,-100,4,3,3,100,0,1
188634,-100,4,3,2,80,0,1
188887,508.474576271186,4,3,2,90,1,1
189014,-100,4,3,3,20,0,0
189395,-100,4,3,3,17,0,0
189903,-100,4,3,3,15,0,0
190412,-100,4,3,3,12,0,0
190920,-100,4,3,3,10,0,0
191429,-100,4,3,3,7,0,0
191937,-100,4,3,3,5,0,0

[Colours]
Combo1 : 255,3,0
Combo2 : 240,248,255
Combo3 : 137,207,240
Combo4 : 255,32,82
Combo5 : 46,88,148
Combo6 : 47,132,124
Combo7 : 0,128,192
SliderBorder : 0,0,0

[HitObjects]
52,256,19754,2,0,P|109:322|205:290,1,200,12|4,0:0|0:0,0:0:0:0:
240,101,20954,2,0,P|271:56|326:36,1,100,4|0,0:0|0:0,0:0:0:0:
345,147,21554,2,0,P|386:111|444:106,1,100,4|0,0:0|0:0,0:0:0:0:
435,217,22154,1,12,0:0:0:0:
312,352,22754,1,4,0:0:0:0:
200,352,23354,1,4,0:0:0:0:
77,217,23954,5,4,0:0:0:0:
15,138,24254,2,0,L|25:35,1,100,4|12,0:0|0:0,0:0:0:0:
146,43,24851,2,0,L|140:98,1,50,4|4,0:0|0:0,0:0:0:0:
141,142,25148,2,0,P|185:184|304:137,1,200,4|4,0:0|0:0,0:0:0:0:
375,177,26039,2,0,P|351:220|297:255,2,100,4|4|4,0:0|0:0|0:0,0:0:0:0:
396,50,26930,1,12,0:0:0:0:
206,44,27506,85,4,0:0:0:0:
186,63,28083,1,4,0:0:0:0:
175,94,28660,1,4,0:0:0:0:
56,312,29237,6,0,P|152:280|120:184,1,200,12|4,0:0|0:0,0:0:0:0:
223,164,30391,2,0,P|204:210|224:256,1,100,4|0,0:0|0:0,0:0:0:0:
255,363,30968,2,0,P|255:267|351:235,1,200,4|12,0:0|0:0,0:0:0:0:
409,356,31836,2,0,P|385:324|329:319,2,100,4|4|4,0:0|0:0|0:0,0:0:0:0:
480,272,32710,1,4,0:0:0:0:
424,180,33001,1,8,0:0:0:0:
485,88,33292,1,12,0:0:0:0:
209,55,33875,85,12,0:0:0:0:
209,55,34463,1,4,0:0:0:0:
171,237,35051,1,4,0:0:0:0:
139,341,35345,1,8,0:0:0:0:
65,261,35639,1,12,0:0:0:0:
58,87,36227,37,10,0:0:0:0:
154,60,36503,1,2,0:0:0:0:
253,53,36779,1,2,0:0:0:0:
350,74,37056,1,10,0:0:0:0:
454,297,37332,1,2,0:0:0:0:
358,324,37609,1,2,0:0:0:0:
259,331,37885,1,10,0:0:0:0:
162,310,38162,1,2,0:0:0:0:
90,81,38438,5,10,0:0:0:0:
185,269,38715,1,2,0:0:0:0:
256,35,38991,1,2,0:0:0:0:
256,251,39268,1,10,0:0:0:0:
422,81,39544,1,2,0:0:0:0:
327,269,39821,1,8,0:0:0:0:
327,269,39959,1,8,0:0:0:0:
327,269,40097,1,10,0:0:0:0:
256,129,40374,1,12,0:0:0:0:
429,267,40650,38,0,B|471:207|415:150|415:150|423:74,1,200,12|6,0:0|0:0,0:0:0:0:
332,37,41471,1,8,0:0:0:0:
285,125,41745,1,4,0:0:0:0:
198,75,42019,1,8,0:0:0:0:
131,149,42293,37,6,0:0:0:0:
30,167,42567,2,0,P|27:142|38:108,1,50,8|4,0:0|0:0,0:0:0:0:
132,70,42841,2,0,P|209:121|219:230,1,200,12|6,0:0|0:0,0:0:0:0:
69,272,43663,2,0,P|22:246|3:189,1,100,8|4,0:0|0:0,0:0:0:0:
5,105,44211,1,8,0:0:0:0:
63,24,44485,1,14,0:0:0:0:
158,64,44759,5,12,0:0:0:0:
179,91,44896,1,4,0:0:0:0:
205,114,45033,2,0,P|296:137|393:71,1,200,12|6,0:0|0:0,0:0:0:0:
464,26,45855,1,8,0:0:0:0:
468,125,46129,1,4,0:0:0:0:
415,210,46403,1,8,0:0:0:0:
363,295,46677,37,14,0:0:0:0:
457,338,46951,2,0,L|450:275,1,50,4|4,0:0|0:0,0:0:0:0:
415,210,47225,2,0,P|447:164|511:163,2,100,12|4|14,0:0|0:0|0:0,0:0:0:0:
363,295,48047,1,4,0:0:0:0:
298,373,48321,1,4,0:0:0:0:
264,383,48458,1,8,0:0:0:0:
230,372,48595,1,8,0:0:0:0:
130,278,48869,1,14,0:0:0:0:
20,210,49143,2,0,L|8:148,1,50,4|4,0:0|0:0,0:0:0:0:
7,119,49417,38,0,P|103:119|103:23,1,200,12|6,0:0|0:0,0:0:0:0:
210,37,50235,1,8,0:0:0:0:
236,133,50507,1,4,0:0:0:0:
306,203,50780,1,8,0:0:0:0:
230,269,51053,6,0,L|274:300,1,50,14|4,0:0|0:0,0:0:0:0:
368,303,51326,2,0,L|341:344,1,50,4|4,0:0|0:0,0:0:0:0:
444,352,51598,2,0,P|444:256|355:210,1,200,12|6,0:0|0:0,0:0:0:0:
262,191,52417,1,8,0:0:0:0:
166,162,52689,1,4,0:0:0:0:
195,28,52962,1,8,0:0:0:0:
294,23,53235,1,14,0:0:0:0:
483,107,53780,38,0,P|489:212|471:306,1,200,12|6,0:0|0:0,0:0:0:0:
348,248,54871,2,0,P|336:303|313:345,1,100,4|8,0:0|0:0,0:0:0:0:
97,196,55417,38,0,L|59:136,1,50,14|4,0:0|0:0,0:0:0:0:
144,121,55689,2,0,L|129:60,1,50,8|4,0:0|0:0,0:0:0:0:
217,48,55962,2,0,P|261:61|272:127,1,100,12|4,0:0|0:0,0:0:0:0:
278,143,56371,1,2,0:0:0:0:
265,175,56507,1,6,0:0:0:0:
197,248,56780,1,14,0:0:0:0:
106,291,57053,1,8,0:0:0:0:
119,323,57189,1,8,0:0:0:0:
148,341,57326,1,8,0:0:0:0:
245,339,57598,1,14,0:0:0:0:
300,20,58144,85,12,0:0:0:0:
423,79,58413,1,4,0:0:0:0:
325,125,58682,1,6,0:0:0:0:
391,242,58951,1,4,0:0:0:0:
285,226,59220,1,4,0:0:0:0:
271,359,59489,1,12,0:0:0:0:
194,281,59758,1,14,0:0:0:0:
106,381,60027,1,12,0:0:0:0:
53,244,60296,1,12,0:0:0:0:
256,192,60834,5,6,0:0:0:0:
347,269,61103,1,4,0:0:0:0:
376,287,61238,1,0,0:0:0:0:
409,297,61372,2,0,P|473:285|490:244,1,100,12|8,0:0|0:0,0:0:0:0:
499,150,61910,1,14,0:0:0:0:
407,92,62179,1,8,0:0:0:0:
375,186,62448,6,0,P|315:137|310:111,1,100,12|12,0:0|0:0,0:0:0:0:
304,35,62987,2,0,P|289:67|230:73,1,100,6|4,0:0|0:0,0:0:0:0:
197,62,63390,1,8,0:0:0:0:
165,46,63525,1,12,0:0:0:0:
129,48,63659,1,2,0:0:0:0:
98,64,63794,1,8,0:0:0:0:
11,132,64063,2,0,L|24:247,1,100,14|8,0:0|0:0,0:0:0:0:
84,335,64601,70,0,P|114:267|187:263,1,150,12|8,0:0|0:0,0:0:0:0:
211,280,65120,2,0,P|265:321|353:300,1,150,6|2,0:0|0:0,0:0:0:0:
371,289,65639,1,6,0:0:0:0:
292,223,65899,1,8,0:0:0:0:
384,185,66159,1,14,0:0:0:0:
368,153,66289,1,8,0:0:0:0:
340,130,66419,1,4,0:0:0:0:
306,119,66549,1,2,0:0:0:0:
270,120,66678,5,12,0:0:0:0:
171,233,66938,1,8,0:0:0:0:
70,132,67198,1,6,0:0:0:0:
162,23,67458,2,0,P|197:27|215:45,1,50,4|8,0:0|0:0,0:0:0:0:
231,61,67717,1,4,0:0:0:0:
248,92,67847,1,2,0:0:0:0:
248,128,67977,1,8,0:0:0:0:
312,235,68237,2,0,P|330:183|389:166,1,100,14|12,0:0|0:0,0:0:0:0:
507,278,68756,6,0,P|485:330|441:348,1,100,12|4,0:0|0:0,0:0:0:0:
312,235,69268,2,0,P|330:183|389:166,1,100,12|4,0:0|0:0,0:0:0:0:
404,160,69653,1,8,0:0:0:0:
437,169,69781,1,4,0:0:0:0:
511,220,70038,1,8,0:0:0:0:
481,304,70294,1,14,0:0:0:0:
455,328,70422,2,0,P|408:347|345:339,1,100,8|2,0:0|0:0,0:0:0:0:
326,335,70807,70,0,P|257:306|156:318,1,150,12|8,0:0|0:0,0:0:0:0:
149,319,71320,2,0,P|77:337|36:333,1,100,6|4,0:0|0:0,0:0:0:0:
18,326,71704,1,2,0:0:0:0:
5,293,71832,1,4,0:0:0:0:
5,258,71961,1,2,0:0:0:0:
19,225,72089,1,8,0:0:0:0:
100,133,72345,1,14,0:0:0:0:
23,40,72602,1,12,0:0:0:0:
55,27,72730,1,12,0:0:0:0:
89,31,72858,5,12,0:0:0:0:
200,73,73111,1,6,0:0:0:0:
317,55,73364,1,12,0:0:0:0:
334,85,73490,1,8,0:0:0:0:
338,119,73617,1,14,0:0:0:0:
339,265,73870,5,6,0:0:0:0:
315,291,73997,1,8,0:0:0:0:
285,308,74123,1,8,0:0:0:0:
251,316,74250,1,8,0:0:0:0:
217,312,74376,1,14,0:0:0:0:
185,298,74503,1,8,0:0:0:0:
159,275,74630,1,8,0:0:0:0:
141,245,74756,1,8,0:0:0:0:
134,211,74883,1,14,0:0:0:0:
256,61,75400,69,12,0:0:0:0:
413,39,75917,1,6,0:0:0:0:
480,112,76176,1,8,0:0:0:0:
427,197,76434,1,4,0:0:0:0:
398,292,76693,1,8,0:0:0:0:
463,370,76951,1,14,0:0:0:0:
256,324,77469,5,12,0:0:0:0:
49,370,77986,1,6,0:0:0:0:
114,292,78245,1,8,0:0:0:0:
84,197,78503,1,4,0:0:0:0:
31,110,78762,2,0,L|28:55,1,50,4|4,0:0|0:0,0:0:0:0:
40,27,79020,2,0,P|95:79|240:49,1,200,14|12,0:0|0:0,0:0:0:0:
407,27,80055,5,6,0:0:0:0:
289,127,80314,2,0,P|245:151|227:214,1,100,8|4,0:0|0:0,0:0:0:0:
307,331,80831,1,8,0:0:0:0:
307,331,81089,1,14,0:0:0:0:
463,300,81348,69,14,0:0:0:0:
448,268,81477,1,14,0:0:0:0:
440,234,81607,1,6,0:0:0:0:
438,199,81736,1,8,0:0:0:0:
443,164,81865,1,8,0:0:0:0:
454,131,81995,1,8,0:0:0:0:
471,101,82124,1,6,0:0:0:0:
386,35,82383,5,2,0:0:0:0:
361,60,82512,1,2,0:0:0:0:
342,89,82641,1,6,0:0:0:0:
328,121,82770,1,2,0:0:0:0:
321,155,82900,1,2,0:0:0:0:
320,190,83029,1,2,0:0:0:0:
327,225,83158,2,0,P|248:263|140:237,1,200,14|12,0:0|0:0,0:0:0:0:
18,57,84193,5,6,0:0:0:0:
135,42,84451,2,0,P|185:47|221:84,1,100,8|4,0:0|0:0,0:0:0:0:
141,141,84969,2,0,L|166:214,1,50,4|4,0:0|0:0,0:0:0:0:
150,223,85227,2,0,P|74:252|5:151,2,200,14|12|6,0:0|0:0|0:0,0:0:0:0:
217,152,86520,1,8,0:0:0:0:
301,35,86779,70,0,P|350:39|388:71,1,100,4|4,0:0|0:0,0:0:0:0:
376,236,87296,2,0,P|406:201|408:135,1,100,14|4,0:0|0:0,0:0:0:0:
295,72,87822,2,0,P|265:107|263:173,1,100,12|4,0:0|0:0,0:0:0:0:
268,296,88348,5,6,0:0:0:0:
268,296,88611,1,8,0:0:0:0:
433,318,88874,1,4,0:0:0:0:
433,318,89138,1,8,0:0:0:0:
484,67,89401,5,14,0:0:0:0:
415,138,89664,1,2,0:0:0:0:
322,171,89927,1,6,0:0:0:0:
223,160,90190,1,10,0:0:0:0:
34,42,90453,1,6,0:0:0:0:
80,129,90717,1,12,0:0:0:0:
87,228,90980,1,14,0:0:0:0:
51,321,91243,1,6,0:0:0:0:
189,339,91506,22,0,P|236:308|316:338,1,100,12|4,0:0|0:0,0:0:0:0:
376,292,92040,2,0,P|350:232|368:160,1,100,6|8,0:0|0:0,0:0:0:0:
351,82,92575,1,12,0:0:0:0:
351,198,92842,53,8,0:0:0:0:
247,130,93109,1,6,0:0:0:0:
351,198,93376,2,0,P|355:226|351:258,1,50,8|4,0:0|0:0,0:0:0:0:
444,335,93644,2,0,P|464:240|444:140,1,200,12|6,0:0|0:0,0:0:0:0:
330,48,94445,5,8,0:0:0:0:
376,169,94713,1,12,0:0:0:0:
416,38,94980,1,8,0:0:0:0:
259,75,95247,22,0,P|241:107|246:134,1,50,6|4,0:0|0:0,0:0:0:0:
305,168,95514,2,0,P|320:138|322:106,1,50,8|0,0:0|0:0,0:0:0:0:
192,43,95782,2,0,P|161:117|234:198,2,200,12|6|12,0:0|0:0|0:0,0:0:0:0:
245,112,97121,2,0,P|277:123|297:141,1,50,8|4,0:0|0:0,0:0:0:0:
302,165,97389,2,0,P|304:225|251:276,1,100,6|8,0:0|0:0,0:0:0:0:
173,295,97924,53,12,0:0:0:0:
62,257,98192,1,2,0:0:0:0:
51,223,98326,1,2,0:0:0:0:
47,189,98460,1,6,0:0:0:0:
51,154,98594,1,2,0:0:0:0:
62,121,98728,1,8,0:0:0:0:
80,91,98862,1,8,0:0:0:0:
103,65,98996,1,12,0:0:0:0:
132,45,99130,1,10,0:0:0:0:
164,31,99264,1,8,0:0:0:0:
198,24,99398,1,8,0:0:0:0:
233,25,99532,1,12,0:0:0:0:
267,33,99665,1,2,0:0:0:0:
299,47,99799,1,2,0:0:0:0:
327,69,99933,1,2,0:0:0:0:
349,95,100067,1,12,0:0:0:0:
414,232,100603,6,0,P|413:296|383:342,1,100,12|8,0:0|0:0,0:0:0:0:
192,201,101139,2,0,P|257:175|305:187,1,100,12|8,0:0|0:0,0:0:0:0:
146,351,101674,2,0,P|100:355|49:339,1,100,6|4,0:0|0:0,0:0:0:0:
192,201,102210,21,12,0:0:0:0:
272,69,102478,1,8,0:0:0:0:
323,258,102746,1,6,0:0:0:0:
373,73,103014,1,8,0:0:0:0:
406,195,103282,1,12,0:0:0:0:
192,201,103549,54,0,L|179:149,1,50,4|4,0:0|0:0,0:0:0:0:
169,118,103817,2,0,P|210:78|254:85,1,100,6|8,0:0|0:0,0:0:0:0:
360,196,104353,2,0,P|435:230|500:185,1,150,12|4,0:0|0:0,0:0:0:0:
503,168,104889,2,0,P|485:112|491:61,1,100,6|8,0:0|0:0,0:0:0:0:
358,31,105424,2,0,P|299:45|241:29,1,100,12|8,0:0|0:0,0:0:0:0:
129,17,105960,5,6,0:0:0:0:
18,75,106228,1,4,0:0:0:0:
195,62,106496,1,12,0:0:0:0:
44,187,106762,21,2,0:0:0:0:
26,221,107029,1,2,0:0:0:0:
176,277,107296,1,8,0:0:0:0:
172,313,107562,1,2,0:0:0:0:
336,277,107829,1,12,0:0:0:0:
340,311,108096,1,12,0:0:0:0:
468,186,108362,1,12,0:0:0:0:
486,220,108629,1,14,0:0:0:0:
164,222,109162,86,0,P|111:215|72:184,1,100,6|4,0:0|0:0,0:0:0:0:
323,69,109696,2,0,P|376:76|415:107,1,100,12|8,0:0|0:0,0:0:0:0:
259,232,110229,2,0,P|206:239|160:220,1,100,8|4,0:0|0:0,0:0:0:0:
58,69,110762,6,0,P|96:35|157:38,1,100,12|4,0:0|0:0,0:0:0:0:
186,178,111296,2,0,P|136:143|126:106,1,100,6|4,0:0|0:0,0:0:0:0:
296,43,111829,2,0,P|346:78|356:115,1,100,12|8,0:0|0:0,0:0:0:0:
398,269,112362,2,0,P|401:220|433:183,1,100,6|4,0:0|0:0,0:0:0:0:
346,370,112896,86,0,P|278:352|250:314,1,100,12|4,0:0|0:0,0:0:0:0:
142,256,113429,2,0,P|202:219|218:175,1,100,12|4,0:0|0:0,0:0:0:0:
121,63,113962,2,0,P|60:99|44:143,1,100,12|8,0:0|0:0,0:0:0:0:
58,331,114496,2,0,P|95:271|90:224,1,100,6|4,0:0|0:0,0:0:0:0:
208,175,115029,6,0,P|219:200|278:238,1,100,12|2,0:0|0:0,0:0:0:0:
310,252,115429,1,2,0:0:0:0:
342,241,115562,1,6,0:0:0:0:
377,243,115696,1,6,0:0:0:0:
411,250,115829,1,8,0:0:0:0:
445,260,115962,1,8,0:0:0:0:
478,272,116096,1,6,0:0:0:0:
472,237,116229,1,2,0:0:0:0:
455,206,116362,1,8,0:0:0:0:
443,173,116496,1,8,0:0:0:0:
438,138,116629,1,6,0:0:0:0:
444,104,116762,1,2,0:0:0:0:
461,74,116896,1,2,0:0:0:0:
486,50,117029,1,2,0:0:0:0:
476,15,117162,86,0,P|429:3|375:18,1,100,14|4,0:0|0:0,0:0:0:0:
239,197,117700,2,0,P|292:190|331:159,1,100,6|4,0:0|0:0,0:0:0:0:
195,41,118238,2,0,P|143:56|110:92,1,100,12|8,0:0|0:0,0:0:0:0:
93,234,118776,2,0,P|100:287|81:333,1,100,6|4,0:0|0:0,0:0:0:0:
28,112,119314,6,0,P|30:61|76:20,1,100,12|4,0:0|0:0,0:0:0:0:
257,125,119852,2,0,P|226:145|165:140,1,100,6|4,0:0|0:0,0:0:0:0:
375,50,120390,2,0,P|435:57|461:85,1,100,12|8,0:0|0:0,0:0:0:0:
404,195,120928,2,0,P|374:229|374:294,1,100,6|4,0:0|0:0,0:0:0:0:
270,357,121466,86,0,P|252:289|214:261,1,100,12|4,0:0|0:0,0:0:0:0:
104,368,121996,2,0,P|173:354|203:319,1,100,12|4,0:0|0:0,0:0:0:0:
90,174,122527,2,0,P|23:197|0:237,1,100,12|8,0:0|0:0,0:0:0:0:
228,255,123058,2,0,P|264:194|258:148,1,100,6|4,0:0|0:0,0:0:0:0:
256,45,123589,5,12,0:0:0:0:
162,80,123855,1,2,0:0:0:0:
112,166,124120,1,2,0:0:0:0:
129,265,124386,1,8,0:0:0:0:
206,329,124651,1,6,0:0:0:0:
306,329,124917,1,8,0:0:0:0:
382,265,125182,1,12,0:0:0:0:
399,166,125448,1,12,0:0:0:0:
349,80,125713,1,12,0:0:0:0:
109,87,127914,53,14,0:0:0:0:
271,334,130095,5,14,0:0:0:0:
435,55,132218,85,14,0:0:0:0:
81,159,134304,54,0,L|129:169,1,50,12|4,0:0|0:0,0:0:0:0:
227,92,134556,2,0,L|179:103,1,50,8|4,0:0|0:0,0:0:0:0:
265,176,134809,2,0,L|313:186,1,50,8|4,0:0|0:0,0:0:0:0:
412,103,135061,2,0,L|362:110,1,50,8|4,0:0|0:0,0:0:0:0:
406,186,135314,2,0,P|449:211|453:264,1,100,8|8,0:0|0:0,0:0:0:0:
401,348,135819,37,8,0:0:0:0:
296,334,136072,2,0,P|241:330|197:363,2,100,8|12|8,0:0|0:0|0:0,0:0:0:0:
345,234,136830,2,0,P|400:238|444:205,2,100,8|8|8,0:0|0:0|0:0,0:0:0:0:
241,185,137588,1,8,0:0:0:0:
264,83,137840,54,0,L|262:3,1,50,8|4,0:0|0:0,0:0:0:0:
185,91,138093,2,0,L|169:12,1,50,8|4,0:0|0:0,0:0:0:0:
106,110,138346,2,0,L|76:35,1,50,12|4,0:0|0:0,0:0:0:0:
34,148,138598,2,0,L|-7:79,1,50,8|4,0:0|0:0,0:0:0:0:
99,200,138851,2,0,P|114:255|92:301,1,100,8|8,0:0|0:0,0:0:0:0:
20,361,139356,1,8,0:0:0:0:
20,361,139609,1,8,0:0:0:0:
170,350,139861,38,0,P|221:326|270:341,1,100,8|8,0:0|0:0,0:0:0:0:
411,326,140367,2,0,P|446:244|421:193,1,150,8|8,0:0|0:0,0:0:0:0:
403,164,140872,2,0,B|362:115|381:44,1,100,8|2,0:0|0:0,0:0:0:0:
256,60,141377,5,6,0:0:0:0:
104,121,141630,1,10,0:0:0:0:
152,303,141882,1,14,0:0:0:0:
360,303,142135,1,14,0:0:0:0:
408,121,142388,1,14,0:0:0:0:
452,336,142893,69,12,0:0:0:0:
435,210,143398,1,6,0:0:0:0:
403,186,143651,1,8,0:0:0:0:
359,187,143904,1,4,0:0:0:0:
324,208,144156,1,8,0:0:0:0:
316,248,144409,1,12,0:0:0:0:
73,316,144918,5,12,0:0:0:0:
197,297,145428,1,6,0:0:0:0:
222,265,145682,1,8,0:0:0:0:
221,221,145937,1,4,0:0:0:0:
197,184,146192,1,4,0:0:0:0:
157,172,146447,2,0,P|76:132|120:33,1,200,12|12,0:0|0:0,0:0:0:0:
271,89,147466,5,6,0:0:0:0:
351,146,147721,2,0,P|390:116|452:127,1,100,2|4,0:0|0:0,0:0:0:0:
496,198,148230,1,8,0:0:0:0:
496,198,148485,1,14,0:0:0:0:
455,313,148740,69,2,0:0:0:0:
425,294,148867,1,2,0:0:0:0:
402,269,148994,1,6,0:0:0:0:
385,238,149122,1,2,0:0:0:0:
377,204,149249,1,2,0:0:0:0:
378,169,149377,1,2,0:0:0:0:
388,135,149504,1,12,0:0:0:0:
419,41,149759,5,2,0:0:0:0:
387,26,149886,1,2,0:0:0:0:
353,19,150014,1,12,0:0:0:0:
318,20,150141,1,8,0:0:0:0:
284,29,150268,1,2,0:0:0:0:
253,46,150396,1,2,0:0:0:0:
227,69,150523,2,0,P|147:95|60:26,1,200,14|12,0:0|0:0,0:0:0:0:
13,134,151542,5,6,0:0:0:0:
111,119,151797,2,0,P|161:124|196:161,1,100,8|4,0:0|0:0,0:0:0:0:
227,252,152307,2,0,L|209:298,1,50,4|4,0:0|0:0,0:0:0:0:
190,328,152561,2,0,P|114:357|45:271,2,200,14|12|6,0:0|0:0|0:0,0:0:0:0:
236,230,153835,1,8,0:0:0:0:
314,57,154090,70,0,P|356:75|396:122,1,100,4|4,0:0|0:0,0:0:0:0:
314,238,154600,2,0,P|305:193|320:132,1,100,14|4,0:0|0:0,0:0:0:0:
418,49,155100,2,0,P|427:94|412:155,1,100,12|4,0:0|0:0,0:0:0:0:
421,259,155600,5,6,0:0:0:0:
421,259,155850,1,8,0:0:0:0:
492,356,156100,1,4,0:0:0:0:
492,356,156350,1,8,0:0:0:0:
372,347,156600,5,14,0:0:0:0:
301,278,156853,1,2,0:0:0:0:
268,185,157106,1,6,0:0:0:0:
279,86,157359,1,10,0:0:0:0:
118,105,157612,1,6,0:0:0:0:
164,192,157865,1,12,0:0:0:0:
166,291,158118,1,14,0:0:0:0:
114,377,158372,1,6,0:0:0:0:
27,298,158625,70,0,B|31:218|31:218|23:167|23:167|25:81,2,200,12|6|12,0:0|0:0|0:0,0:0:0:0:
145,332,159885,2,0,B|218:356|271:337|271:336,1,100,8|4,0:0|0:0,0:0:0:0:
366,328,160389,1,4,0:0:0:0:
485,298,160641,2,0,B|480:218|480:218|489:167|489:167|487:81,2,200,12|12|6,0:0|0:0|0:0,0:0:0:0:
366,328,161902,1,8,0:0:0:0:
287,268,162154,6,0,L|284:202,1,50,4|4,0:0|0:0,0:0:0:0:
362,231,162406,2,0,L|360:170,1,50,4|4,0:0|0:0,0:0:0:0:
437,204,162658,2,0,L|437:99,1,100,12|4,0:0|0:0,0:0:0:0:
339,25,163160,6,0,P|298:90|187:37,1,200,12|6,0:0|0:0,0:0:0:0:
93,44,163913,2,0,P|63:33|41:31,1,50,8|4,0:0|0:0,0:0:0:0:
16,50,164164,2,0,B|17:86|2:118|2:118|6:159,1,100,12|8,0:0|0:0,0:0:0:0:
19,246,164666,1,12,0:0:0:0:
17,347,164918,69,2,0:0:0:0:
51,342,165044,1,2,0:0:0:0:
82,325,165170,1,6,0:0:0:0:
105,300,165296,1,2,0:0:0:0:
118,267,165422,1,8,0:0:0:0:
120,233,165548,1,8,0:0:0:0:
109,200,165674,1,14,0:0:0:0:
88,101,165926,5,12,0:0:0:0:
160,31,166178,1,12,0:0:0:0:
259,19,166430,1,12,0:0:0:0:
347,63,166682,1,12,0:0:0:0:
483,296,167190,6,0,P|456:334|406:348,1,100,4|4,0:0|0:0,0:0:0:0:
254,249,167698,2,0,P|298:260|345:239,1,100,6|8,0:0|0:0,0:0:0:0:
481,149,168207,2,0,P|434:152|392:122,1,100,4|4,0:0|0:0,0:0:0:0:
255,20,168715,2,0,P|210:110|113:109,2,200,12|12|6,0:0|0:0|0:0,0:0:0:0:
161,27,169987,69,8,0:0:0:0:
56,28,170241,2,0,P|18:75|26:137,1,100,4|4,0:0|0:0,0:0:0:0:
40,211,170749,2,0,P|66:257|53:334,1,100,12|4,0:0|0:0,0:0:0:0:
164,331,171258,2,0,P|273:341|326:255,1,200,12|6,0:0|0:0,0:0:0:0:
228,258,172020,1,12,0:0:0:0:
186,62,172529,5,8,0:0:0:0:
186,62,172656,1,8,0:0:0:0:
186,62,172783,1,14,0:0:0:0:
280,28,173036,1,6,0:0:0:0:
380,28,173289,1,12,0:0:0:0:
464,80,173542,1,6,0:0:0:0:
381,137,173795,5,14,0:0:0:0:
351,155,173922,1,8,0:0:0:0:
330,182,174048,1,8,0:0:0:0:
321,216,174175,1,8,0:0:0:0:
324,251,174301,1,2,0:0:0:0:
340,281,174428,1,2,0:0:0:0:
367,304,174555,1,2,0:0:0:0:
399,316,174681,1,2,0:0:0:0:
434,314,174808,22,0,P|488:286|498:248,1,100,14|4,0:0|0:0,0:0:0:0:
380,135,175310,2,0,P|335:173|322:220,1,100,6|8,0:0|0:0,0:0:0:0:
255,295,175812,1,12,0:0:0:0:
133,344,176063,54,0,P|82:329|56:284,1,100,8|6,0:0|0:0,0:0:0:0:
135,215,176565,2,0,P|137:245|127:284,1,50,8|4,0:0|0:0,0:0:0:0:
53,185,176816,2,0,P|134:135|215:185,1,200,12|6,0:0|0:0,0:0:0:0:
283,310,177569,5,8,0:0:0:0:
154,290,177820,1,8,0:0:0:0:
234,189,178071,1,12,0:0:0:0:
430,197,178322,22,0,P|430:216|415:244,1,50,6|4,0:0|0:0,0:0:0:0:
355,194,178573,2,0,P|357:174|372:148,1,50,8|0,0:0|0:0,0:0:0:0:
485,146,178824,2,0,P|501:233|437:322,2,200,12|6|12,0:0|0:0|0:0,0:0:0:0:
392,108,180074,2,0,L|401:40,1,50,8|4,0:0|0:0,0:0:0:0:
379,29,180324,2,0,P|327:44|276:26,1,100,6|8,0:0|0:0,0:0:0:0:
184,20,180824,53,12,0:0:0:0:
87,46,181074,1,2,0:0:0:0:
54,59,181199,1,2,0:0:0:0:
30,83,181324,1,6,0:0:0:0:
16,115,181449,1,2,0:0:0:0:
15,150,181574,1,8,0:0:0:0:
28,182,181699,1,8,0:0:0:0:
52,207,181824,1,6,0:0:0:0:
84,221,181949,1,8,0:0:0:0:
119,222,182074,1,8,0:0:0:0:
151,210,182199,1,8,0:0:0:0:
177,186,182324,1,12,0:0:0:0:
195,88,182574,1,12,0:0:0:0:
98,31,182824,6,0,P|42:39|2:71,1,100,12|0,0:0|0:0,0:0:0:0:
120,222,183329,2,0,P|112:166|80:126,1,100,6|0,0:0|0:0,0:0:0:0:
12,253,183834,2,0,P|20:309|52:349,1,100,12|0,0:0|0:0,0:0:0:0:
249,277,184339,2,0,P|241:221|209:181,1,100,6|0,0:0|0:0,0:0:0:0:
155,108,184845,21,12,0:0:0:0:
220,32,185097,1,8,0:0:0:0:
320,23,185350,1,6,0:0:0:0:
405,76,185602,1,8,0:0:0:0:
429,173,185855,1,12,0:0:0:0:
422,274,186108,54,0,L|410:338,1,50,4|4,0:0|0:0,0:0:0:0:
381,340,186360,2,0,P|330:316|283:327,1,100,6|4,0:0|0:0,0:0:0:0:
157,359,186866,2,0,P|189:314|187:264,1,100,6|2,0:0|0:0,0:0:0:0:
179,123,187371,5,2,0:0:0:0:
333,260,187624,1,2,0:0:0:0:
157,164,187876,1,2,0:0:0:0:
354,221,188129,1,2,0:0:0:0:
154,209,188381,1,2,0:0:0:0:
358,174,188634,1,6,0:0:0:0:
170,252,188887,1,12,0:0:0:0:
256,192,189014,12,4,192446,0:0:0:0:
