osu file format v13

[General]
AudioFilename: Sergey Eybog - Everlasting Summer.mp3
AudioLeadIn: 0
PreviewTime: 28397
Countdown: 0
SampleSet: Soft
StackLeniency: 0.7
Mode: 3
LetterboxInBreaks: 0
SpecialStyle: 0
WidescreenStoryboard: 0

[Editor]
DistanceSpacing: 0.8
BeatDivisor: 4
GridSize: 32
TimelineZoom: 1

[Metadata]
Title:Everlasting Summer
TitleUnicode:Everlasting Summer
Artist:Sergey Eybog
ArtistUnicode:Sergey Eybog
Creator:[Shana Lesus]
Version:Normal
Source:Everlasting Summer
Tags:eroge visual novel iichan kiviman game russian
BeatmapID:497629
BeatmapSetID:140099

[Difficulty]
HPDrainRate:7
CircleSize:7
OverallDifficulty:7
ApproachRate:5
SliderMultiplier:1.4
SliderTickRate:1

[Events]
//Background and Video events
Video,0,"opening.avi"
0,0,"Everlasting Summer.jpg",0,0
//Break Periods
//Storyboard Layer 0 (Background)
//Storyboard Layer 1 (Fail)
//Storyboard Layer 2 (Pass)
//Storyboard Layer 3 (Foreground)
//Storyboard Sound Samples
//Background Colour Transformations
3,100,163,162,255

[TimingPoints]
969,428.571428571429,4,2,0,30,1,0
28397,-100,4,2,0,30,0,1
55826,-100,4,2,0,30,0,0

[HitObjects]
36,192,326,5,0,0:0:0:0:
182,192,540,1,0,0:0:0:0:
329,192,754,1,0,0:0:0:0:
109,192,969,1,8,0:0:0:0:
256,192,1183,1,0,0:0:0:0:
402,192,1397,1,0,0:0:0:0:
36,192,1611,128,0,2683:0:0:0:0:
329,192,1611,1,0,0:0:0:0:
475,192,2683,128,2,3540:0:0:0:0:
182,192,2683,1,0,0:0:0:0:
329,192,3754,1,0,0:0:0:0:
402,192,3969,1,0,0:0:0:0:
475,192,4183,1,0,0:0:0:0:
256,192,4397,1,10,0:0:0:0:
109,192,4611,1,0,0:0:0:0:
182,192,4826,1,0,0:0:0:0:
256,192,5040,1,0,0:0:0:0:
475,192,5040,128,0,6111:0:0:0:0:
36,192,6111,128,2,6969:0:0:0:0:
182,192,6111,1,0,0:0:0:0:
402,192,7183,1,0,0:0:0:0:
36,192,7397,1,0,0:0:0:0:
109,192,7611,1,0,0:0:0:0:
329,192,7826,1,8,0:0:0:0:
475,192,8040,1,0,0:0:0:0:
182,192,8254,1,0,0:0:0:0:
109,192,8469,1,0,0:0:0:0:
329,192,8469,128,0,9540:0:0:0:0:
182,192,9540,128,2,10397:0:0:0:0:
402,192,10611,1,8,0:0:0:0:
256,192,10826,1,0,0:0:0:0:
475,192,11040,1,0,0:0:0:0:
182,192,11254,1,2,0:0:0:0:
36,192,11254,1,0,0:0:0:0:
402,192,11897,128,0,12969:0:0:0:0:
36,192,11897,1,0,0:0:0:0:
182,192,11897,1,0,0:0:0:0:
256,192,12969,128,2,13826:0:0:0:0:
329,192,12969,1,8,0:0:0:0:
329,192,14040,1,0,0:0:0:0:
256,192,14254,1,0,0:0:0:0:
402,192,14469,1,0,0:0:0:0:
182,192,14683,1,8,0:0:0:0:
475,192,14897,1,0,0:0:0:0:
402,192,15111,1,0,0:0:0:0:
329,192,15326,1,0,0:0:0:0:
182,192,15326,128,0,16397:0:0:0:0:
402,192,16397,1,2,0:0:0:0:
475,192,16397,128,0,17040:0:0:0:0:
36,192,17040,1,0,0:0:0:0:
182,192,17040,1,0,0:0:0:0:
36,192,17469,1,0,0:0:0:0:
182,192,17683,1,0,0:0:0:0:
329,192,17897,1,0,0:0:0:0:
475,192,18111,1,8,0:0:0:0:
329,192,18326,1,0,0:0:0:0:
182,192,18540,1,0,0:0:0:0:
36,192,18754,1,0,0:0:0:0:
475,192,18754,128,0,19826:0:0:0:0:
182,192,19826,1,0,0:0:0:0:
109,192,19826,128,0,20469:0:0:0:0:
475,192,20469,1,0,0:0:0:0:
256,192,20469,1,0,0:0:0:0:
109,192,20897,1,0,0:0:0:0:
329,192,21111,1,8,0:0:0:0:
256,192,21326,1,0,0:0:0:0:
475,192,21540,1,0,0:0:0:0:
109,192,21754,1,0,0:0:0:0:
182,192,21969,1,0,0:0:0:0:
256,192,22183,128,0,23254:0:0:0:0:
402,192,22183,1,0,0:0:0:0:
36,192,23254,1,2,0:0:0:0:
109,192,23254,128,0,23897:0:0:0:0:
329,192,23897,1,8,0:0:0:0:
36,192,24326,1,0,0:0:0:0:
256,192,24540,1,0,0:0:0:0:
109,192,24754,1,0,0:0:0:0:
402,192,24969,128,0,25611:0:0:0:0:
329,192,24969,1,2,0:0:0:0:
109,192,25611,1,8,0:0:0:0:
36,192,25611,1,0,0:0:0:0:
109,192,26683,1,0,0:0:0:0:
402,192,26897,1,0,0:0:0:0:
109,192,27326,1,2,0:0:0:0:
402,192,27433,1,0,0:0:0:0:
109,192,27540,1,0,0:0:0:0:
402,192,27647,1,0,0:0:0:0:
256,192,27754,1,0,0:0:0:0:
109,192,27969,1,2,0:0:0:0:
256,192,28076,1,0,0:0:0:0:
402,192,28183,1,0,0:0:0:0:
36,192,28397,1,0,0:0:0:0:
329,192,28611,1,0,0:0:0:0:
402,192,29040,1,8,0:0:0:0:
256,192,29254,1,0,0:0:0:0:
475,192,29254,1,0,0:0:0:0:
182,192,29683,1,0,0:0:0:0:
109,192,30111,1,0,0:0:0:0:
329,192,30326,1,8,0:0:0:0:
182,192,30540,1,0,0:0:0:0:
475,192,30540,1,0,0:0:0:0:
256,192,30969,1,4,0:0:0:0:
109,192,30969,1,0,0:0:0:0:
402,192,31397,1,4,0:0:0:0:
475,192,31397,1,0,0:0:0:0:
256,192,31826,1,4,0:0:0:0:
109,192,31826,1,0,0:0:0:0:
182,192,32254,1,0,0:0:0:0:
475,192,32469,1,8,0:0:0:0:
329,192,32683,1,0,0:0:0:0:
36,192,32683,1,0,0:0:0:0:
182,192,33111,1,0,0:0:0:0:
256,192,33326,1,0,0:0:0:0:
329,192,33754,1,8,0:0:0:0:
182,192,33969,1,0,0:0:0:0:
36,192,33969,1,0,0:0:0:0:
256,192,34397,1,4,0:0:0:0:
402,192,34397,1,0,0:0:0:0:
182,192,34826,1,0,0:0:0:0:
402,192,34826,1,0,0:0:0:0:
36,192,35254,1,0,0:0:0:0:
182,192,35254,1,0,0:0:0:0:
256,192,35897,1,8,0:0:0:0:
402,192,36111,1,0,0:0:0:0:
109,192,36111,1,0,0:0:0:0:
182,192,36540,1,0,0:0:0:0:
402,192,37183,1,8,0:0:0:0:
256,192,37397,1,0,0:0:0:0:
109,192,37397,1,0,0:0:0:0:
36,192,37826,1,0,0:0:0:0:
329,192,37826,1,0,0:0:0:0:
182,192,38254,1,0,0:0:0:0:
475,192,38254,1,0,0:0:0:0:
402,192,38683,1,4,0:0:0:0:
256,192,38683,128,4,39326:0:0:0:0:
109,192,39111,1,0,0:0:0:0:
329,192,39326,1,0,0:0:0:0:
402,192,39326,128,0,39969:0:0:0:0:
182,192,39754,1,0,0:0:0:0:
109,192,39969,1,4,0:0:0:0:
36,192,39969,128,0,40611:0:0:0:0:
256,192,40397,1,0,0:0:0:0:
329,192,40611,1,0,0:0:0:0:
475,192,40611,128,0,41254:0:0:0:0:
109,192,41040,1,0,0:0:0:0:
182,192,41254,1,4,0:0:0:0:
256,192,41683,1,0,0:0:0:0:
182,192,42111,1,8,0:0:0:0:
329,192,42111,1,0,0:0:0:0:
256,192,42540,1,0,0:0:0:0:
36,192,42754,1,0,0:0:0:0:
329,192,42969,1,0,0:0:0:0:
475,192,42969,1,0,0:0:0:0:
256,192,43397,1,8,0:0:0:0:
402,192,43611,1,0,0:0:0:0:
475,192,44040,1,0,0:0:0:0:
36,192,44254,1,0,0:0:0:0:
182,192,44254,1,0,0:0:0:0:
402,192,44683,1,4,0:0:0:0:
329,192,44683,1,0,0:0:0:0:
402,192,45111,1,4,0:0:0:0:
329,192,45111,1,0,0:0:0:0:
182,192,45540,1,8,0:0:0:0:
36,192,45540,1,0,0:0:0:0:
109,192,46183,1,0,0:0:0:0:
182,192,46397,1,0,0:0:0:0:
329,192,46397,1,0,0:0:0:0:
402,192,46826,1,8,0:0:0:0:
109,192,47469,1,0,0:0:0:0:
329,192,47683,1,0,0:0:0:0:
475,192,47683,1,0,0:0:0:0:
109,192,48111,1,4,0:0:0:0:
36,192,48111,1,0,0:0:0:0:
402,192,48540,1,4,0:0:0:0:
475,192,48540,1,0,0:0:0:0:
182,192,48969,1,8,0:0:0:0:
329,192,48969,1,0,0:0:0:0:
109,192,49611,1,0,0:0:0:0:
256,192,49826,1,0,0:0:0:0:
475,192,49826,1,0,0:0:0:0:
402,192,50254,1,8,0:0:0:0:
182,192,50683,1,0,0:0:0:0:
36,192,50897,1,0,0:0:0:0:
329,192,51111,1,0,0:0:0:0:
475,192,51111,1,0,0:0:0:0:
256,192,51540,1,4,0:0:0:0:
36,192,51540,1,0,0:0:0:0:
329,192,51969,1,4,0:0:0:0:
402,192,51969,1,0,0:0:0:0:
402,192,52397,1,4,0:0:0:0:
182,192,52826,1,0,0:0:0:0:
402,192,53040,1,0,0:0:0:0:
402,192,53469,1,0,0:0:0:0:
182,192,53683,1,4,0:0:0:0:
36,192,54111,1,0,0:0:0:0:
329,192,54326,1,4,0:0:0:0:
182,192,54754,1,0,0:0:0:0:
475,192,54969,1,2,0:0:0:0:
256,192,55183,1,2,0:0:0:0:
402,192,55397,1,2,0:0:0:0:
36,192,55611,1,2,0:0:0:0:
182,192,55826,1,2,0:0:0:0:
329,192,56040,1,2,0:0:0:0:
475,192,56254,1,2,0:0:0:0:
256,192,56469,1,0,0:0:0:0:
182,192,56897,1,0,0:0:0:0:
256,192,57111,1,2,0:0:0:0:
329,192,57326,1,0,0:0:0:0:
402,192,57754,1,0,0:0:0:0:
329,192,57969,1,8,0:0:0:0:
256,192,58183,1,0,0:0:0:0:
475,192,58611,1,0,0:0:0:0:
256,192,58826,1,2,0:0:0:0:
109,192,59040,1,2,0:0:0:0:
36,192,59254,1,2,0:0:0:0:
182,192,59469,1,2,0:0:0:0:
329,192,59683,1,2,0:0:0:0:
475,192,59897,1,2,0:0:0:0:
402,192,60326,1,0,0:0:0:0:
329,192,60540,1,8,0:0:0:0:
256,192,60754,1,0,0:0:0:0:
182,192,61183,1,0,0:0:0:0:
109,192,61397,1,0,0:0:0:0:
36,192,61611,1,0,0:0:0:0:
109,192,62040,1,0,0:0:0:0:
256,192,62254,1,2,0:0:0:0:
402,192,62469,1,2,0:0:0:0:
475,192,62683,1,2,0:0:0:0:
182,192,62897,1,2,0:0:0:0:
109,192,63111,1,2,0:0:0:0:
36,192,63326,1,2,0:0:0:0:
475,192,63754,1,0,0:0:0:0:
256,192,63969,1,0,0:0:0:0:
36,192,64183,1,0,0:0:0:0:
36,192,64611,1,0,0:0:0:0:
256,192,64826,1,0,0:0:0:0:
475,192,65040,1,0,0:0:0:0:
402,192,65469,1,0,0:0:0:0:
256,192,65683,1,0,0:0:0:0:
182,192,65897,1,0,0:0:0:0:
36,192,66111,1,8,0:0:0:0:
475,192,66111,1,0,0:0:0:0:
402,192,66754,1,0,0:0:0:0:
109,192,66754,1,0,0:0:0:0:
182,192,67183,1,0,0:0:0:0:
402,192,67397,1,0,0:0:0:0:
36,192,67611,1,0,0:0:0:0:
475,192,68040,1,8,0:0:0:0:
36,192,68254,1,0,0:0:0:0:
329,192,68469,1,0,0:0:0:0:
256,192,68897,1,0,0:0:0:0:
402,192,69111,1,8,0:0:0:0:
182,192,69326,1,0,0:0:0:0:
475,192,69540,1,0,0:0:0:0:
329,192,69754,1,0,0:0:0:0:
182,192,69969,1,0,0:0:0:0:
36,192,70183,1,8,0:0:0:0:
475,192,70183,1,0,0:0:0:0:
109,192,70611,1,0,0:0:0:0:
182,192,70826,1,0,0:0:0:0:
256,192,71040,1,0,0:0:0:0:
182,192,71469,1,0,0:0:0:0:
36,192,71683,1,8,0:0:0:0:
329,192,71897,1,0,0:0:0:0:
475,192,71897,1,0,0:0:0:0:
402,192,72326,1,0,0:0:0:0:
182,192,72540,1,0,0:0:0:0:
475,192,72754,1,0,0:0:0:0:
256,192,72969,1,0,0:0:0:0:
109,192,73183,1,0,0:0:0:0:
36,192,73397,1,0,0:0:0:0:
182,192,73611,1,8,0:0:0:0:
402,192,73611,1,0,0:0:0:0:
256,192,74040,1,0,0:0:0:0:
182,192,74254,1,0,0:0:0:0:
402,192,74469,1,0,0:0:0:0:
109,192,74897,1,0,0:0:0:0:
256,192,75111,1,0,0:0:0:0:
329,192,75326,1,8,0:0:0:0:
36,192,75326,1,0,0:0:0:0:
256,192,75754,1,0,0:0:0:0:
329,192,75969,1,0,0:0:0:0:
402,192,76183,1,0,0:0:0:0:
475,192,76397,1,0,0:0:0:0:
256,192,76611,1,0,0:0:0:0:
329,192,76826,1,0,0:0:0:0:
182,192,77040,1,8,0:0:0:0:
36,192,77040,1,0,0:0:0:0:
329,192,77469,1,0,0:0:0:0:
256,192,77683,1,0,0:0:0:0:
109,192,77897,1,0,0:0:0:0:
182,192,78111,1,0,0:0:0:0:
475,192,78326,1,0,0:0:0:0:
36,192,78540,1,0,0:0:0:0:
402,192,78754,1,8,0:0:0:0:
109,192,78754,1,0,0:0:0:0:
256,192,79183,1,2,0:0:0:0:
36,192,79397,1,2,0:0:0:0:
402,192,79611,1,2,0:0:0:0:
182,192,79826,1,2,0:0:0:0:
109,192,80040,1,0,0:0:0:0:
256,192,80254,1,0,0:0:0:0:
36,192,80469,1,8,0:0:0:0:
329,192,80469,1,0,0:0:0:0:
475,192,80897,1,0,0:0:0:0:
329,192,81111,1,0,0:0:0:0:
182,192,81326,1,0,0:0:0:0:
256,192,81540,128,4,84540:0:0:0:0:
475,192,81540,1,0,0:0:0:0:
36,192,81540,1,0,0:0:0:0:
