osu file format v14

[General]
AudioFilename: Always Ready.mp3
AudioLeadIn: 0
PreviewTime: 26420
Countdown: 0
SampleSet: Soft
StackLeniency: 0.7
Mode: 0
LetterboxInBreaks: 0
WidescreenStoryboard: 0

[Editor]
DistanceSpacing: 1
BeatDivisor: 2
GridSize: 8
TimelineZoom: 1

[Metadata]
Title:Always Ready
TitleUnicode:Always Ready
Artist:Sergey Eybog
ArtistUnicode:Sergey Eybog
Creator:KosMos_pv
Version:Normal
Source:Everlasting Summer
Tags:Сергей Ейбог Бесконечное лето Everlasting summer eroge visual novel russian Silent Owl
BeatmapID:716966
BeatmapSetID:320995

[Difficulty]
HPDrainRate:4
CircleSize:3
OverallDifficulty:4
ApproachRate:5
SliderMultiplier:1
SliderTickRate:1

[Events]
//Background and Video events
0,0,"d2_lineup.jpg",0,0
//Break Periods
//Storyboard Layer 0 (Background)
//Storyboard Layer 1 (Fail)
//Storyboard Layer 2 (Pass)
//Storyboard Layer 3 (Foreground)
//Storyboard Sound Samples

[TimingPoints]
1020,400,4,2,0,30,1,0
2620,-100,4,2,0,35,0,0
4220,-100,4,2,0,40,0,0
5820,-100,4,2,0,45,0,0
7420,-100,4,2,0,50,0,0
9020,-100,4,2,0,55,0,0
10620,-100,4,2,0,60,0,0
12220,-100,4,2,0,65,0,0
13820,-100,4,2,0,70,0,0
26620,-100,4,2,0,70,0,1
42620,-100,4,2,0,70,0,0
68220,-100,4,2,0,70,0,1
81020,-100,4,2,0,70,0,0

[Colours]
Combo1 : 255,0,0
Combo2 : 0,128,255
Combo3 : 174,219,255
Combo4 : 255,115,5

[HitObjects]
64,192,1020,6,0,P|136:128|184:192,1,200
216,288,2220,2,0,P|264:304|312:288,1,100,0|2,0:0|0:0,0:0:0:0:
336,192,3020,5,0,0:0:0:0:
392,104,3420,1,0,0:0:0:0:
480,64,3820,1,0,0:0:0:0:
496,160,4220,6,0,P|472:248|376:280,1,200
280,280,5420,2,0,P|264:224|280:176,1,100,0|2,0:0|0:0,0:0:0:0:
368,224,6220,5,0,0:0:0:0:
392,128,6620,2,0,L|432:88,2,50,0|2|0,0:0|0:0|0:0,0:0:0:0:
312,64,7420,6,0,P|216:72|144:152,1,200
64,192,8620,2,0,P|48:248|64:288,1,100,0|2,0:0|0:0,0:0:0:0:
160,312,9420,5,0,0:0:0:0:
248,264,9820,1,0,0:0:0:0:
336,312,10220,1,0,0:0:0:0:
328,216,10620,6,0,P|240:168|160:224,1,200
80,264,11820,2,0,P|64:200|80:160,1,100,0|2,0:0|0:0,0:0:0:0:
144,96,12620,5,0,0:0:0:0:
232,48,13020,2,2,L|240:104,2,50
328,64,13820,6,0,P|416:88|464:184,1,200
504,272,15020,2,0,P|456:280|392:264,1,100,0|2,0:0|0:0,0:0:0:0:
312,304,15820,5,0,0:0:0:0:
216,280,16220,1,0,0:0:0:0:
120,304,16620,1,0,0:0:0:0:
128,208,17020,6,0,P|216:168|312:224,1,200
336,120,18220,2,0,P|288:88|240:80,1,100,0|2,0:0|0:0,0:0:0:0:
160,128,19020,5,0,0:0:0:0:
120,216,19420,2,0,L|64:216,2,50,0|2|0,0:0|0:0|0:0,0:0:0:0:
160,304,20220,6,0,P|264:296|344:248,1,200
440,224,21420,2,0,P|416:176|368:144,1,100,0|2,0:0|0:0,0:0:0:0:
288,104,22220,5,0,0:0:0:0:
192,64,22620,1,0,0:0:0:0:
96,64,23020,1,0,0:0:0:0:
88,160,23420,6,0,P|112:256|192:320,1,200
288,320,24620,2,0,P|344:312|384:272,1,100,0|2,0:0|0:0,0:0:0:0:
288,224,25420,1,0,0:0:0:0:
192,224,25820,2,2,L|184:280,2,50
288,200,26620,5,0,0:0:0:0:
384,168,27020,1,0,0:0:0:0:
304,112,27420,1,0,0:0:0:0:
384,56,27820,1,8,0:0:0:0:
288,24,28220,1,0,0:0:0:0:
192,56,28620,2,0,P|96:72|56:160,1,200,0|8,0:0|0:0,0:0:0:0:
64,256,29820,5,0,0:0:0:0:
152,296,30220,2,0,P|208:304|256:280,1,100,0|8,0:0|0:0,0:0:0:0:
192,200,31020,1,0,0:0:0:0:
152,104,31420,2,0,P|246:85|352:104,1,200
448,120,32620,1,8,0:0:0:0:
472,216,33020,5,0,0:0:0:0:
416,296,33420,1,0,0:0:0:0:
320,320,33820,1,0,0:0:0:0:
224,296,34220,1,8,0:0:0:0:
144,240,34620,1,0,0:0:0:0:
56,192,35020,2,0,P|144:144|232:192,1,200,0|8,0:0|0:0,0:0:0:0:
312,240,36220,5,0,0:0:0:0:
400,192,36620,2,0,P|392:136|368:88,1,100
272,88,37420,2,0,L|248:136,2,50
176,56,38220,2,8,P|128:56|88:88,1,100
88,288,39420,5,0,0:0:0:0:
184,312,39820,2,0,P|240:312|280:288,1,100
368,256,40620,2,0,L|392:200,2,50
288,192,41420,2,8,P|240:168|192:168,1,100
96,184,42220,1,0,0:0:0:0:
136,272,42620,6,0,P|181:271|208:224,1,100
303,227,43420,2,0,P|328:269|376:272,1,100
256,192,44220,12,0,45820,0:0:0:0:
360,72,47420,6,0,P|256:56|160:72,1,200
128,272,49020,6,0,P|184:272|200:232,1,100
304,240,49820,2,0,P|320:272|384:272,1,100
256,192,50620,12,0,52220,0:0:0:0:
152,72,53820,6,0,P|256:56|352:72,1,200
256,192,55420,12,0,58620,0:0:0:0:
152,184,59820,6,0,P|176:128|216:96,1,100
256,192,60620,1,0,0:0:0:0:
360,196,61020,2,2,P|346:243|312:280,1,100
200,280,61820,6,0,P|136:272|96:256,1,100
48,176,62620,1,0,0:0:0:0:
104,96,63020,2,2,P|160:72|200:72,1,100
296,80,63820,5,0,0:0:0:0:
392,104,64220,1,0,0:0:0:0:
488,128,64620,2,2,P|472:184|440:216,1,100
400,304,65420,5,0,0:0:0:0:
304,320,65820,1,0,0:0:0:0:
208,304,66220,2,2,P|152:296|120:264,1,100
152,168,67020,2,2,P|208:176|240:208,1,100
296,288,67820,1,8,0:0:0:0:
392,272,68220,6,0,P|440:272|472:232,1,100
480,136,69020,1,0,0:0:0:0:
464,40,69420,2,2,P|416:40|384:80,1,100
344,168,70220,5,0,0:0:0:0:
280,240,70620,1,0,0:0:0:0:
192,288,71020,2,2,P|176:240|192:192,1,100
272,136,71820,5,0,0:0:0:0:
192,80,72220,1,0,0:0:0:0:
104,32,72620,2,2,P|88:80|104:128,1,100
152,216,73420,5,0,0:0:0:0:
208,296,73820,2,0,B|256:312|256:312|272:264|272:264|320:280|320:280|336:232,1,200,0|8,0:0|0:0,0:0:0:0:
384,152,75020,5,0,0:0:0:0:
328,72,75420,1,0,0:0:0:0:
240,24,75820,2,2,P|224:72|240:120,1,100
328,168,76620,5,0,0:0:0:0:
408,224,77020,1,0,0:0:0:0:
464,312,77420,2,2,P|416:328|352:312,1,100
272,280,78220,5,0,0:0:0:0:
176,240,78620,1,0,0:0:0:0:
80,224,79020,2,2,P|80:168|112:136,1,100
208,136,79820,2,0,P|208:80|176:48,1,100
80,48,80620,1,8,0:0:0:0:
32,136,81020,5,0,0:0:0:0:
88,216,81420,1,0,0:0:0:0:
144,136,81820,1,0,0:0:0:0:
200,216,82220,1,0,0:0:0:0:
392,272,83020,6,0,P|408:216|392:160,1,100
304,216,83820,1,0,0:0:0:0:
111,271,84620,6,0,P|96:224|103:175,1,100
200,216,85421,1,0,0:0:0:0:
392,271,86220,6,0,P|406:224|400:175,1,100
304,216,87020,1,0,0:0:0:0:
256,128,87420,5,0,0:0:0:0:
184,192,87820,1,0,0:0:0:0:
256,256,88220,1,0,0:0:0:0:
328,192,88620,1,0,0:0:0:0:
136,144,89420,6,0,P|128:192|136:248,1,100
224,192,90220,1,0,0:0:0:0:
416,144,91020,6,0,P|424:192|416:248,1,100
328,192,91820,1,0,0:0:0:0:
256,120,92220,5,0,0:0:0:0:
184,192,92620,1,0,0:0:0:0:
256,264,93020,1,0,0:0:0:0:
