osu file format v14

[General]
AudioFilename: Always Ready.mp3
AudioLeadIn: 0
PreviewTime: 26420
Countdown: 0
SampleSet: Soft
StackLeniency: 0.7
Mode: 0
LetterboxInBreaks: 0
WidescreenStoryboard: 0

[Editor]
DistanceSpacing: 1.1
BeatDivisor: 2
GridSize: 8
TimelineZoom: 1

[Metadata]
Title:Always Ready
TitleUnicode:Always Ready
Artist:Sergey Eybog
ArtistUnicode:Sergey Eybog
Creator:KosMos_pv
Version:Hard
Source:Everlasting Summer
Tags:Сергей Ейбог Бесконечное лето Everlasting summer eroge visual novel russian Silent Owl
BeatmapID:714177
BeatmapSetID:320995

[Difficulty]
HPDrainRate:5
CircleSize:4
OverallDifficulty:5
ApproachRate:7
SliderMultiplier:1.4
SliderTickRate:1

[Events]
//Background and Video events
0,0,"d2_lineup.jpg",0,0
//Break Periods
//Storyboard Layer 0 (Background)
//Storyboard Layer 1 (Fail)
//Storyboard Layer 2 (Pass)
//Storyboard Layer 3 (Foreground)
//Storyboard Sound Samples

[TimingPoints]
1020,400,4,2,0,30,1,0
2620,-100,4,2,0,35,0,0
4220,-100,4,2,0,40,0,0
5820,-100,4,2,0,45,0,0
7420,-100,4,2,0,50,0,0
9020,-100,4,2,0,55,0,0
10620,-100,4,2,0,60,0,0
12220,-100,4,2,0,65,0,0
13820,-100,4,2,0,70,0,0
26620,-100,4,2,0,70,0,1
42620,-100,4,2,0,70,0,0
68220,-100,4,2,0,70,0,1
81020,-100,4,2,0,70,0,0

[Colours]
Combo1 : 255,0,0
Combo2 : 0,128,255
Combo3 : 174,219,255
Combo4 : 255,115,5

[HitObjects]
176,192,1020,5,0,0:0:0:0:
256,112,1320,1,0,0:0:0:0:
336,192,1620,1,0,0:0:0:0:
416,112,1920,1,0,0:0:0:0:
496,192,2220,2,0,P|472:256|408:280,1,140,0|2,0:0|0:0,0:0:0:0:
296,280,2920,5,0,0:0:0:0:
184,264,3220,1,0,0:0:0:0:
96,192,3520,1,0,0:0:0:0:
112,80,3820,2,0,P|184:80|200:136,1,140,0|2,0:0|0:0,0:0:0:0:
312,136,4520,5,0,0:0:0:0:
392,56,4820,1,0,0:0:0:0:
472,136,5120,1,0,0:0:0:0:
472,248,5420,2,0,P|416:288|344:288,1,140,0|2,0:0|0:0,0:0:0:0:
232,288,6120,5,0,0:0:0:0:
120,288,6420,1,0,0:0:0:0:
64,232,6620,1,2,0:0:0:0:
120,176,6820,1,0,0:0:0:0:
64,120,7020,1,2,0:0:0:0:
256,32,7420,5,0,0:0:0:0:
344,112,7720,1,0,0:0:0:0:
432,192,8020,1,0,0:0:0:0:
512,280,8320,1,0,0:0:0:0:
400,280,8620,1,0,0:0:0:0:
344,336,8820,1,0,0:0:0:0:
288,280,9020,1,2,0:0:0:0:
224,184,9320,5,0,0:0:0:0:
160,280,9620,1,0,0:0:0:0:
48,304,9920,1,0,0:0:0:0:
48,192,10220,1,0,0:0:0:0:
104,136,10420,1,0,0:0:0:0:
160,192,10620,1,2,0:0:0:0:
232,280,10920,5,0,0:0:0:0:
344,272,11220,1,0,0:0:0:0:
456,240,11520,1,0,0:0:0:0:
456,128,11820,1,0,0:0:0:0:
408,64,12020,1,0,0:0:0:0:
360,128,12220,1,2,0:0:0:0:
280,216,12520,5,0,0:0:0:0:
200,304,12820,1,2,0:0:0:0:
120,304,13020,2,2,P|80:296|56:272,2,70
328,304,13820,5,0,0:0:0:0:
416,232,14120,1,0,0:0:0:0:
488,144,14420,1,0,0:0:0:0:
416,56,14720,1,0,0:0:0:0:
304,56,15020,2,0,P|224:64|176:96,1,140,0|2,0:0|0:0,0:0:0:0:
96,176,15720,5,0,0:0:0:0:
168,264,16020,1,0,0:0:0:0:
272,312,16320,1,0,0:0:0:0:
376,256,16620,1,0,0:0:0:0:
424,192,16820,1,0,0:0:0:0:
448,120,17020,1,2,0:0:0:0:
440,8,17320,5,0,0:0:0:0:
328,32,17620,1,0,0:0:0:0:
240,104,17920,1,0,0:0:0:0:
248,216,18220,2,0,P|304:256|352:216,1,140,0|2,0:0|0:0,0:0:0:0:
352,104,18920,5,0,0:0:0:0:
272,16,19220,1,0,0:0:0:0:
200,48,19420,1,2,0:0:0:0:
136,96,19620,1,0,0:0:0:0:
80,152,19820,1,2,0:0:0:0:
80,360,20220,5,0,0:0:0:0:
192,344,20520,1,0,0:0:0:0:
304,312,20820,1,0,0:0:0:0:
384,232,21120,1,0,0:0:0:0:
448,136,21420,1,0,0:0:0:0:
504,80,21620,1,0,0:0:0:0:
448,24,21820,1,2,0:0:0:0:
336,24,22120,5,0,0:0:0:0:
232,64,22420,1,0,0:0:0:0:
136,128,22720,1,0,0:0:0:0:
40,192,23020,2,0,P|72:256|136:264,1,140,0|2,0:0|0:0,0:0:0:0:
248,264,23720,5,0,0:0:0:0:
360,240,24020,1,0,0:0:0:0:
456,176,24320,1,0,0:0:0:0:
456,64,24620,1,0,0:0:0:0:
384,40,24820,1,0,0:0:0:0:
312,16,25020,1,2,0:0:0:0:
200,16,25320,5,0,0:0:0:0:
96,64,25620,1,2,0:0:0:0:
56,128,25820,2,2,P|58:169|80:184,2,70
200,16,26620,5,0,0:0:0:0:
304,136,27020,1,0,0:0:0:0:
408,248,27420,1,0,0:0:0:0:
512,136,27820,1,8,0:0:0:0:
408,24,28220,1,0,0:0:0:0:
256,24,28620,2,0,P|223:24|192:56,2,70
408,24,29420,1,8,0:0:0:0:
512,136,29820,5,0,0:0:0:0:
408,248,30220,1,0,0:0:0:0:
336,232,30420,1,0,0:0:0:0:
264,216,30620,1,8,0:0:0:0:
208,72,31020,1,0,0:0:0:0:
128,72,31220,2,0,P|96:72|64:96,1,70
8,240,31820,1,0,0:0:0:0:
72,288,32020,1,0,0:0:0:0:
144,312,32220,1,0,0:0:0:0:
296,304,32620,1,8,0:0:0:0:
400,192,33020,5,0,0:0:0:0:
296,80,33420,1,0,0:0:0:0:
184,192,33820,1,0,0:0:0:0:
296,304,34220,1,8,0:0:0:0:
400,192,34620,1,0,0:0:0:0:
296,80,35020,2,0,P|264:88|232:112,2,70
448,80,35820,1,8,0:0:0:0:
496,224,36220,5,0,0:0:0:0:
384,336,36620,1,0,0:0:0:0:
304,328,36820,1,0,0:0:0:0:
224,320,37020,1,0,0:0:0:0:
136,192,37420,2,0,L|136:112,2,70
224,320,38220,1,8,0:0:0:0:
304,320,38420,2,8,P|344:311|368:288,1,70
72,192,39420,5,0,0:0:0:0:
176,80,39820,1,0,0:0:0:0:
256,160,40120,2,0,L|256:195,1,35
256,352,40620,1,0,0:0:0:0:
184,328,40820,1,0,0:0:0:0:
112,304,41020,1,0,0:0:0:0:
8,192,41420,1,8,0:0:0:0:
48,128,41620,2,8,P|80:112|120:112,1,70
192,104,42020,1,0,0:0:0:0:
256,144,42220,1,0,0:0:0:0:
256,296,42620,5,0,0:0:0:0:
368,192,43020,1,0,0:0:0:0:
256,88,43420,1,0,0:0:0:0:
144,192,43820,1,0,0:0:0:0:
256,192,44220,12,0,45820,0:0:0:0:
312,232,47420,5,0,0:0:0:0:
192,136,47820,1,0,0:0:0:0:
80,32,48220,1,0,0:0:0:0:
256,288,49020,5,0,0:0:0:0:
376,192,49420,1,0,0:0:0:0:
256,88,49820,1,0,0:0:0:0:
144,192,50220,1,0,0:0:0:0:
256,192,50620,12,0,52220,0:0:0:0:
200,240,53820,5,0,0:0:0:0:
304,128,54220,1,0,0:0:0:0:
408,16,54620,1,0,0:0:0:0:
256,192,55420,12,0,58620,0:0:0:0:
248,40,59820,5,0,0:0:0:0:
320,72,60020,1,0,0:0:0:0:
400,72,60220,2,0,P|392:128|320:152,1,140
240,152,60820,1,0,0:0:0:0:
168,128,61020,1,2,0:0:0:0:
104,80,61220,1,2,0:0:0:0:
168,32,61420,1,2,0:0:0:0:
376,32,61820,5,0,0:0:0:0:
368,144,62120,1,0,0:0:0:0:
312,248,62420,1,0,0:0:0:0:
200,248,62720,1,0,0:0:0:0:
136,152,63020,2,2,P|120:136|120:88,2,70
200,56,63720,5,0,0:0:0:0:
312,56,64020,1,0,0:0:0:0:
256,152,64320,1,0,0:0:0:0:
184,240,64620,1,2,0:0:0:0:
112,216,64820,1,2,0:0:0:0:
64,152,65020,1,2,0:0:0:0:
120,48,65320,5,0,0:0:0:0:
232,24,65620,1,0,0:0:0:0:
344,48,65920,1,0,0:0:0:0:
456,80,66220,2,2,P|464:120|456:160,1,70
440,224,66620,1,0,0:0:0:0:
328,224,66920,1,0,0:0:0:0:
216,224,67220,2,2,P|176:192|176:176,1,70
176,24,67820,1,8,0:0:0:0:
384,24,68220,5,0,0:0:0:0:
456,112,68520,1,0,0:0:0:0:
456,224,68820,1,0,0:0:0:0:
384,312,69120,1,0,0:0:0:0:
272,312,69420,1,2,0:0:0:0:
224,256,69620,1,2,0:0:0:0:
184,192,69820,1,2,0:0:0:0:
216,80,70120,5,0,0:0:0:0:
104,112,70420,1,0,0:0:0:0:
32,200,70720,1,0,0:0:0:0:
104,288,71020,2,2,P|144:264|152:240,2,70
216,312,71720,5,0,0:0:0:0:
328,280,72020,1,0,0:0:0:0:
400,192,72320,1,0,0:0:0:0:
328,104,72620,2,2,P|312:72|280:72,1,70
216,112,73020,5,2,0:0:0:0:
176,216,73320,1,0,0:0:0:0:
216,328,73620,2,0,P|264:328|280:312,2,70
136,328,74220,2,0,P|88:328|72:312,1,70
48,240,74620,5,8,0:0:0:0:
72,128,74920,1,0,0:0:0:0:
152,48,75220,1,0,0:0:0:0:
264,40,75520,1,0,0:0:0:0:
280,152,75820,2,2,P|264:184|232:200,2,70
352,240,76520,5,0,0:0:0:0:
424,152,76820,1,0,0:0:0:0:
352,64,77120,1,0,0:0:0:0:
240,64,77420,1,2,0:0:0:0:
168,88,77620,1,2,0:0:0:0:
112,136,77820,5,2,0:0:0:0:
112,248,78120,1,0,0:0:0:0:
208,304,78420,1,0,0:0:0:0:
304,248,78720,1,0,0:0:0:0:
416,248,79020,2,2,P|440:216|440:184,1,70
416,112,79420,5,2,0:0:0:0:
304,88,79720,1,0,0:0:0:0:
192,56,80020,2,0,P|152:56|120:72,1,70
40,192,80620,1,8,0:0:0:0:
152,296,81020,5,0,0:0:0:0:
264,192,81420,1,0,0:0:0:0:
376,296,81820,1,0,0:0:0:0:
488,192,82220,1,0,0:0:0:0:
376,88,82620,6,0,P|312:56|232:56,2,140
264,192,83820,1,0,0:0:0:0:
152,296,84220,6,0,P|80:296|16:264,2,140
40,192,85420,1,0,0:0:0:0:
152,80,85820,6,0,P|80:80|16:112,2,140
264,192,87020,1,0,0:0:0:0:
152,296,87420,5,0,0:0:0:0:
40,192,87820,1,0,0:0:0:0:
152,80,88220,1,0,0:0:0:0:
264,192,88620,1,0,0:0:0:0:
152,296,89020,6,0,P|224:296|288:264,2,140
40,192,90220,1,0,0:0:0:0:
152,80,90620,6,0,P|224:80|288:112,2,140
264,192,91820,1,0,0:0:0:0:
360,72,92220,5,0,0:0:0:0:
464,192,92620,1,0,0:0:0:0:
360,312,93020,1,0,0:0:0:0:
