osu file format v13

[General]
AudioFilename: Sergey Chekryzhov - Intro.mp3
AudioLeadIn: 2000
PreviewTime: 57
Countdown: 0
SampleSet: None
StackLeniency: 0.7
Mode: 0
LetterboxInBreaks: 0
WidescreenStoryboard: 0

[Editor]
DistanceSpacing: 1.2
BeatDivisor: 4
GridSize: 4
TimelineZoom: 2.1

[Metadata]
Title:Intro
TitleUnicode:Intro
Artist:Sergey Chekryzhov
ArtistUnicode:Сергей Чекрыжов
Creator:Aka
Version:Hard
Source:Время
Tags:-bakari- russian news первый канал новости channel one
BeatmapID:432913
BeatmapSetID:130791

[Difficulty]
HPDrainRate:6
CircleSize:4
OverallDifficulty:7
ApproachRate:8
SliderMultiplier:1.6
SliderTickRate:1

[Events]
//Background and Video events
0,0,"nyan.jpg",0,0
//Break Periods
//Storyboard Layer 0 (Background)
//Storyboard Layer 1 (Fail)
//Storyboard Layer 2 (Pass)
//Storyboard Layer 3 (Foreground)
//Storyboard Sound Samples
//Background Colour Transformations
3,100,163,162,255

[TimingPoints]
17,334.448160535117,3,3,1,45,1,0
350,375,3,3,1,45,1,0
722,349.752258816671,3,3,1,45,1,0
61578,-100,3,3,1,45,0,1
61666,-100,3,3,1,45,0,0

[Colours]
Combo1 : 211,56,61
Combo2 : 242,214,49
Combo3 : 98,201,240
Combo4 : 177,220,50

[HitObjects]
86,102,17,6,0,L|182:90,1,80,2|0,2:0|2:0,0:0:0:0:
292,72,351,1,4,0:1:0:0:
292,72,722,6,0,P|276:132|280:176,1,80,4|0,0:0|0:0,0:0:0:0:
288,236,1071,1,0,0:0:0:0:
204,204,1246,2,0,P|151:195|103:199,1,80,8|0,0:0|2:0,0:0:0:0:
36,212,1596,1,0,2:0:0:0:
75,289,1771,2,0,P|89:331|87:385,1,80,8|8,0:0|0:0,0:0:0:0:
240,268,2295,1,8,0:0:0:0:
312,220,2470,2,0,P|348:203|388:200,1,80,0|0,0:0|0:0,0:0:0:0:
448,264,2820,2,0,P|440:304|443:342,1,80,8|8,0:0|0:0,0:0:0:0:
480,172,3345,5,8,0:0:0:0:
452,88,3520,2,0,P|434:50|408:24,1,80,0|0,0:0|0:0,0:0:0:0:
364,136,3869,2,0,P|344:170|307:195,1,80,8|0,0:0|0:0,0:0:0:0:
160,173,4220,1,12,0:0:0:0:
113,247,4395,2,0,P|98:283|99:323,2,80,0|4|0,0:0|2:0|0:0,0:0:0:0:
235,219,4919,6,0,P|247:175|239:127,1,80,4|0,0:0|0:0,0:0:0:0:
235,219,5443,1,0,0:0:0:0:
145,251,5618,2,0,B|105:255|69:227,1,80,8|0,0:0|0:0,0:0:0:0:
14,159,5968,1,8,0:0:0:0:
98,139,6143,2,0,P|170:106|212:33,1,160,8|0,0:0|0:0,0:0:0:0:
194,151,6667,2,0,P|178:207|182:239,1,80,8|0,0:0|0:0,0:0:0:0:
198,315,7017,1,8,0:0:0:0:
198,315,7192,1,0,0:0:0:0:
313,182,7542,5,0,0:0:0:0:
272,103,7717,2,0,P|237:71|193:58,1,80,8|0,0:0|0:0,0:0:0:0:
343,59,8067,2,0,P|382:59|420:48,1,80,8|0,0:0|0:0,0:0:0:0:
408,152,8416,2,0,P|396:189|399:229,1,80,12|0,0:0|0:0,0:0:0:0:
498,283,8766,2,0,P|498:243|484:206,1,80,12|0,0:0|0:0,0:0:0:0:
395,329,9116,5,12,0:0:0:0:
316,368,9290,2,0,P|251:374|160:317,1,160,8|0,0:0|0:0,0:0:0:0:
149,244,9815,2,0,P|171:210|177:168,1,80,8|0,0:0|0:0,0:0:0:0:
185,83,10165,1,8,0:0:0:0:
185,83,10340,1,8,0:0:0:0:
312,208,10690,1,8,0:0:0:0:
376,268,10864,2,0,P|412:292|451:300,1,80,8|0,0:0|0:0,0:0:0:0:
300,316,11214,2,0,P|260:320|216:340,1,80,8|8,0:0|0:0,0:0:0:0:
344,200,11739,5,8,0:0:0:0:
384,124,11914,1,8,0:0:0:0:
380,36,12088,1,0,0:0:0:0:
304,76,12263,2,0,P|240:88|208:80,1,80,8|0,0:0|0:0,0:0:0:0:
94,109,12613,2,0,P|130:125|158:154,1,80,12|0,0:0|0:0,0:0:0:0:
118,281,12963,2,0,P|90:253|74:216,1,80,12|0,0:0|0:0,0:0:0:0:
215,243,13313,6,0,P|208:343|153:382,1,160,12|0,0:0|0:0,0:0:0:0:
70,364,13837,1,8,0:0:0:0:
9,290,14012,2,0,P|12:250|36:210,1,80,8|0,0:0|0:0,0:0:0:0:
98,145,14362,1,12,0:0:0:0:
194,139,14537,2,8,P|270:107|306:35,1,160,8|8,0:0|0:0,0:0:0:0:
394,75,15061,2,0,P|420:109|431:144,1,80,8|0,0:0|0:0,0:0:0:0:
405,237,15411,1,12,0:0:0:0:
314,206,15586,2,0,P|230:226|181:284,1,160,8|8,0:0|0:0,0:0:0:0:
170,375,16111,5,8,0:0:0:0:
265,360,16286,1,8,0:0:0:0:
325,285,16461,2,0,P|324:237|257:140,1,160,12|12,0:0|0:0,0:0:0:0:
169,144,16985,1,0,0:0:0:0:
79,178,17160,1,12,0:0:0:0:
0,132,17335,1,8,0:0:0:0:
102,82,17510,6,4,P|155:118|168:218,1,160,12|0,0:0|0:0,0:0:0:0:
98,270,18034,1,0,0:0:0:0:
13,210,18209,2,0,P|1:176|1:132,1,80,8|0,0:0|0:0,0:0:0:0:
99,271,18559,2,0,P|179:295|261:251,2,160,12|8|8,0:0|0:0|0:0,0:0:0:0:
77,162,19433,1,8,0:0:0:0:
170,191,19608,1,12,0:0:0:0:
258,153,19783,2,0,P|302:105|313:0,1,160,8|8,0:0|0:0,0:0:0:0:
330,139,20308,2,0,P|331:180|358:226,1,80,4|0,0:0|0:0,0:0:0:0:
411,301,20657,5,12,0:0:0:0:
228,278,21007,1,12,0:0:0:0:
407,159,21357,1,4,2:0:0:0:
342,87,21532,1,8,0:0:0:0:
252,55,21707,6,0,P|175:48|86:102,1,160,12|0,0:0|0:0,0:0:0:0:
49,163,22231,1,0,0:0:0:0:
43,259,22406,2,0,P|57:300|86:328,1,80,8|0,0:0|0:0,0:0:0:0:
140,248,22756,2,0,P|167:219|204:203,1,80,12|0,0:0|0:0,0:0:0:0:
367,212,23106,5,8,0:0:0:0:
211,128,23456,1,8,0:0:0:0:
351,297,23805,2,0,P|453:222|398:129,1,240,12|0,0:0|0:0,0:0:0:0:
317,142,24505,2,0,P|291:174|280:222,1,80,8|0,0:0|0:0,0:0:0:0:
263,305,24854,2,0,P|211:208|104:240,1,240,12|0,0:0|0:0,0:0:0:0:
82,325,25554,2,0,P|47:373|18:387,1,80,8|0,0:0|0:0,0:0:0:0:
82,324,25904,2,0,P|180:291|155:169,1,240,8|0,0:0|0:0,0:0:0:0:
40,224,26603,2,0,P|75:242|115:243,1,80,8|8,0:0|0:0,0:0:0:0:
274,190,26953,5,12,0:0:0:0:
346,141,27128,1,0,0:0:0:0:
265,104,27303,1,0,0:0:0:0:
274,190,27478,1,0,0:0:0:0:
406,87,27653,5,12,0:0:0:0:
259,24,27828,1,0,0:0:0:0:
274,190,28002,2,0,P|343:227|425:178,1,160,12|4,0:0|0:0,0:0:0:0:
199,100,28703,6,0,P|173:130|162:180,1,80,8|0,0:0|0:0,0:0:0:0:
189,251,29051,1,12,0:0:0:0:
261,301,29226,1,0,0:0:0:0:
266,212,29401,1,0,0:0:0:0:
189,251,29576,1,0,0:0:0:0:
332,338,29751,5,12,0:0:0:0:
338,177,29926,1,0,0:0:0:0:
189,251,30101,2,0,P|178:335|236:383,1,160,12|12,0:0|0:0,0:0:0:0:
411,168,30800,2,0,P|393:127|350:103,1,80,8|0,0:0|0:0,0:0:0:0:
266,149,31150,6,0,P|190:174|108:137,1,160,4|0,0:0|0:0,0:0:0:0:
43,98,31675,1,8,0:0:0:0:
28,184,31849,2,0,P|25:228|40:275,1,80,8|0,0:0|0:0,0:0:0:0:
118,147,32199,2,0,P|133:103|121:54,1,80,8|0,0:0|2:0,0:0:0:0:
133,253,32724,5,8,0:0:0:0:
186,322,32899,2,0,P|221:349|260:356,1,80,8|0,0:0|0:0,0:0:0:0:
285,272,33248,2,0,P|294:233|319:202,1,80,8|0,0:0|0:0,0:0:0:0:
467,58,33773,5,8,0:0:0:0:
467,58,33948,2,0,P|428:80|376:88,1,80,0|0,0:0|0:0,0:0:0:0:
304,96,34298,1,8,0:0:0:0:
230,144,34473,2,0,P|194:191|186:225,2,80,0|4|0,0:0|0:0|0:0,0:0:0:0:
301,213,34997,2,0,P|324:244|369:265,1,80,4|0,2:0|0:0,0:0:0:0:
233,300,35347,2,8,P|195:313|161:340,1,80,12|0,0:0|0:0,0:0:0:0:
168,188,35872,5,8,0:0:0:0:
116,116,36046,2,0,P|88:84|48:66,1,80,8|0,0:0|0:0,0:0:0:0:
31,161,36396,1,8,0:0:0:0:
106,223,36571,2,0,P|180:182|195:100,1,160,8|8,0:0|0:0,0:0:0:0:
296,113,37096,2,0,P|320:169|320:197,1,80,8|0,0:0|0:0,0:0:0:0:
309,275,37445,1,8,0:0:0:0:
309,275,37620,1,0,0:0:0:0:
404,132,37970,5,8,0:0:0:0:
404,132,38145,2,0,P|439:113|478:108,1,80,8|0,0:0|0:0,0:0:0:0:
448,200,38495,2,0,P|429:235|424:274,1,80,8|0,0:0|0:0,0:0:0:0:
330,303,38844,2,0,P|291:291|252:293,1,80,4|0,0:0|0:0,0:0:0:0:
147,307,39194,2,0,P|87:271|67:167,1,160,8|12,0:0|0:0,0:0:0:0:
107,90,39719,1,8,0:0:0:0:
248,219,40069,5,8,0:0:0:0:
326,163,40244,2,0,P|347:124|343:66,1,80,8|0,0:0|0:0,0:0:0:0:
435,46,40593,1,12,0:0:0:0:
435,46,40768,2,0,P|473:116|467:211,1,160,8|0,0:0|0:0,0:0:0:0:
405,263,41293,2,0,P|351:251|304:262,1,80,8|0,0:0|0:0,0:0:0:0:
228,294,41643,1,12,0:0:0:0:
323,338,41817,2,0,P|354:271|330:168,1,160,8|0,0:0|2:0,0:0:0:0:
293,104,42342,1,8,0:0:0:0:
207,60,42517,1,8,0:0:0:0:
115,84,42692,5,12,0:0:0:0:
263,206,43042,1,12,0:0:0:0:
81,263,43391,1,4,0:2:0:0:
81,263,43566,1,8,0:0:0:0:
81,263,43741,6,0,P|33:200|50:109,1,160,12|0,0:0|0:0,0:0:0:0:
118,65,44266,1,8,0:0:0:0:
208,98,44441,2,0,P|265:108|297:100,1,80,8|0,0:0|0:0,0:0:0:0:
235,203,44790,2,0,P|205:252|201:285,1,80,4|0,0:0|0:0,0:0:0:0:
433,288,45315,5,8,0:0:0:0:
433,288,45490,2,0,P|422:249|397:217,1,80,8|0,0:0|0:0,0:0:0:0:
314,170,45839,1,4,0:0:0:0:
224,206,46014,2,0,P|136:181|108:122,1,160,0|8,0:0|0:0,0:0:0:0:
102,22,46539,1,8,0:0:0:0:
102,22,46714,1,8,0:0:0:0:
31,74,46889,2,0,P|19:113|22:158,1,80,12|0,0:0|0:0,0:0:0:0:
46,248,47239,1,12,0:0:0:0:
202,124,47589,1,12,0:0:0:0:
276,300,47938,6,4,P|316:288|356:176,1,160,12|0,0:0|0:0,0:0:0:0:
339,100,48463,1,8,0:0:0:0:
422,128,48638,2,0,P|461:135|507:128,2,80,0|8|12,0:0|0:0|0:0,0:0:0:0:
335,85,49162,1,0,0:0:0:0:
239,81,49337,2,0,P|176:113|144:210,1,160,4|12,0:0|0:0,0:0:0:0:
149,289,49862,1,8,0:0:0:0:
199,371,50037,2,0,P|232:340|240:277,1,80,12|0,0:0|0:0,0:0:0:0:
271,120,50561,5,8,0:0:0:0:
283,207,50736,1,8,0:0:0:0:
353,154,50911,1,0,0:0:0:0:
271,120,51086,2,0,P|219:125|178:167,1,80,12|8,0:0|0:0,0:0:0:0:
261,224,51436,2,0,P|229:264|229:322,1,80,4|0,2:0|0:0,0:0:0:0:
335,303,51785,2,0,P|340:354|367:394,1,80,12|8,0:0|0:0,0:0:0:0:
434,325,52135,2,4,P|337:261|214:300,1,240,12|8,0:0|0:0,0:2:0:0:
129,347,52835,2,0,P|80:354|40:343,2,80,8|8|12,0:0|0:0|0:0,0:0:0:0:
182,163,53534,5,8,0:0:0:0:
26,268,53884,1,8,0:0:0:0:
71,87,54234,2,4,P|159:43|298:94,1,240,12|8,0:0|0:0,0:2:0:0:
380,123,54933,2,0,P|383:76|361:31,1,80,8|0,0:0|0:0,0:0:0:0:
288,84,55283,2,4,P|232:160|252:304,1,240,12|0,0:0|2:0,0:2:0:0:
314,367,55983,1,8,0:0:0:0:
314,367,56157,1,0,0:0:0:0:
325,263,56332,6,4,P|241:202|164:306,1,240,12|8,0:0|0:0,0:0:0:0:
85,349,57032,2,0,P|73:305|77:261,1,80,8|0,0:0|0:0,0:0:0:0:
103,187,57381,5,12,0:0:0:0:
159,119,57556,1,0,0:0:0:0:
187,203,57731,1,0,0:0:0:0:
103,187,57906,1,8,0:0:0:0:
218,64,58081,5,12,0:0:0:0:
266,217,58256,1,0,0:0:0:0:
103,187,58431,2,0,P|71:114|107:44,1,160,12|12,0:0|0:0,0:0:0:0:
280,22,59130,6,0,L|368:18,1,80,12|0,0:0|0:0,0:0:0:0:
420,82,59480,1,12,0:0:0:0:
399,167,59654,1,0,0:0:0:0:
337,104,59829,1,0,0:0:0:0:
420,82,60004,1,0,0:0:0:0:
370,242,60179,5,12,0:0:0:0:
260,126,60354,1,0,0:0:0:0:
420,82,60529,2,0,P|480:136|473:215,1,160,12|12,0:0|0:0,0:0:0:0:
261,339,61228,1,12,0:0:0:0:
155,80,61578,5,6,1:0:0:0:
257,159,61752,1,4,0:0:0:0:
359,80,61928,1,4,0:0:0:0:
