osu file format v9

[General]
AudioFilename: Serebro -.mp3
AudioLeadIn: 0
PreviewTime: 172457
Countdown: 0
SampleSet: Soft
StackLeniency: 0.7
Mode: 0
LetterboxInBreaks: 1

[Editor]
Bookmarks: 144427
DistanceSpacing: 2
BeatDivisor: 4
GridSize: 8

[Metadata]
Title:Breath
Artist:Serebro
Creator:Louis Cyphre
Version:Normal
Source:
Tags:russian

[Difficulty]
HPDrainRate:4
CircleSize:4
OverallDifficulty:4
ApproachRate:5
SliderMultiplier:1.2
SliderTickRate:1

[Events]
//Background and Video events
0,0,"fantasy.png"
//Break Periods
2,60414,67486
2,162061,169133
//Storyboard Layer 0 (Background)
//Storyboard Layer 1 (Fail)
//Storyboard Layer 2 (Pass)
//Storyboard Layer 3 (Foreground)
//Storyboard Sound Samples
//Background Colour Transformations
3,100,163,162,255

[TimingPoints]
15039,352.941176470588,4,2,1,45,1,0
28369,-100,4,2,2,45,0,0
28546,-100,4,2,1,45,0,0
29781,-100,4,2,2,45,0,0
29957,-100,4,2,1,45,0,0
32604,-100,4,2,2,45,0,0
32781,-100,4,2,1,45,0,0
34016,-100,4,2,2,45,0,0
34193,-100,4,2,1,45,0,0
52369,-100,4,2,2,45,0,0
52545,-100,4,2,1,45,0,0
71509,-100,4,2,1,60,0,1
76369,-100,4,2,2,60,0,1
76545,-100,4,2,1,60,0,1
91898,-100,4,2,2,60,0,1
92075,-100,4,2,1,60,0,1
93391,-100,4,2,1,50,0,0
94097,-100,4,2,1,60,0,1
114487,-100,4,2,2,60,0,1
114663,-100,4,2,1,60,0,1
116686,-100,4,2,1,50,0,0
118722,-100,4,2,2,50,0,0
118898,-100,4,2,1,50,0,0
138487,-100,4,2,2,50,0,0
138663,-100,4,2,1,50,0,0
146957,-100,4,2,2,50,0,0
147134,-100,4,2,1,50,0,0
152604,-100,4,2,2,50,0,0
152781,-100,4,2,1,50,0,0
156840,-100,4,2,2,50,0,0
157016,-100,4,2,1,50,0,0
173156,-100,4,2,1,60,0,1
182251,-100,4,2,2,60,0,1
182428,-100,4,2,1,60,0,1
190722,-100,4,2,2,60,0,1
190898,-100,4,2,1,60,0,1
193545,-100,4,2,2,60,0,1
193722,-100,4,2,1,60,0,1
195038,-100,4,2,1,60,0,0
195744,-100,4,2,1,60,0,1
213310,-100,4,2,2,60,0,1
213487,-100,4,2,1,60,0,1
216134,-100,4,2,2,60,0,1
216310,-100,4,2,1,60,0,1
218333,-100,4,2,1,25,0,0

[Colours]
Combo1 : 108,255,255
Combo2 : 64,128,128
Combo3 : 166,166,255
Combo4 : 64,64,255

[HitObjects]
344,240,15039,2,0,B|328:304|256:336|184:304|168:240,1,240,4|8
256,192,16097,1,0
344,144,16450,2,0,B|328:80|256:48|184:80|168:144,1,240,0|8
72,120,17509,1,0
48,216,17862,6,0,B|31:266|42:357|132:368|183:351,1,240,0|8
256,288,18921,1,0
329,352,19274,2,0,B|379:368|469:357|480:266|464:216,1,240,0|8
392,160,20333,1,0
352,72,20686,1,2
160,72,21391,1,8
120,160,21744,5,0
48,216,22097,2,0,B|31:266|42:357|132:368|182:351,1,240,0|8
280,352,23156,2,0,B|400:352,1,120
448,272,23862,2,0,B|328:272,1,120,0|8
280,192,24568,1,0
328,112,24921,6,0,B|184:112|240:56|88:56,2,240,0|8|2
424,112,26686,1,0
472,192,27039,1,8
424,272,27391,6,0,B|400:352|256:352|256:200|256:200|256:352|112:352|88:272,2,540
376,192,30921,1,0
472,192,31274,1,8
424,112,31627,6,0,B|400:32|256:32|256:184|256:184|256:32|112:32|88:112,2,540
336,280,35509,1,8
256,336,35862,1,0
176,280,36215,2,0,B|120:272|72:192|120:112|176:104,1,240,0|8
256,48,37274,1,0
336,104,37627,6,0,B|336:248|416:168|416:328,1,240,2|8
328,288,38686,1,0
256,352,39039,2,0,B|104:352|112:200,1,240,0|8
200,160,40097,1,0
256,80,40450,2,0,B|408:80|400:232,1,240,0|8
344,304,41509,1,0
256,256,41862,5,0
72,192,42568,1,8
256,128,43274,1,0
336,72,43627,1,0
416,128,43980,1,8
336,304,44686,1,0
256,360,45038,1,0
176,304,45391,6,0,B|104:288|104:208|176:160|256:208|256:208|336:256|400:208|400:128|328:112,1,480,8|8
256,48,47156,1,0
184,112,47509,1,2
40,240,48215,1,8
80,328,48568,1,0
176,312,48921,6,0,B|176:248|256:200|336:248|336:312,1,240,2|8
432,304,49980,2,0,B|408:200|360:160|360:160|400:120|400:64|360:24|288:24,1,360,0|8
256,112,51391,1,0
214,24,51744,2,0,B|152:24|112:64|112:120|152:160|152:160|104:200|80:304,1,360
168,336,53156,6,0,B|192:288|232:280|256:256|256:256|280:280|320:288|344:336,1,240,0|8
424,280,54215,1,0
456,192,54568,1,0
424,104,54921,1,0
328,104,55274,6,0,B|328:224|328:224|328:240|328:296|256:368|184:296|184:240|184:224|184:224|184:104,1,480,8|8
88,104,57038,1,0
48,192,57391,2,0,B|24:256|24:256|24:360|136:360,1,240,0|8
120,264,58450,1,0
208,296,58803,6,0,B|208:184|304:200|304:80,2,240,0|8|2
256,192,68686,12,4,71509
456,192,72215,5,8
368,144,72568,2,0,B|256:144|256:224|144:224,1,240,2|2
56,192,73627,1,8
147,144,73980,6,0,B|256:143|256:223|368:223,1,240
456,192,75038,1,8
440,96,75391,1,2
256,56,76097,2,0,B|160:56|176:216|352:168|336:328|256:328,1,360,2|0
184,264,77509,5,0
112,328,77862,1,8
96,136,78568,1,0
256,32,79274,1,8
416,136,79980,1,0
400,328,80686,1,8
328,264,81038,1,2
256,200,81391,1,0
184,264,81744,1,2
112,328,82097,6,0,B|38:254|106:186|21:101,1,240,8|2
104,56,83156,1,0
160,136,83509,1,8
256,160,83862,1,2
352,136,84215,1,0
408,56,84568,1,2
480,112,84921,6,0,B|402:189|470:257|396:330,1,240,8|0
344,248,85980,1,0
256,296,86333,1,8
168,248,86686,2,0,B|120:160|216:96|168:16,1,240,2|2
96,80,87744,1,8
72,272,88450,5,0
256,336,89156,1,8
440,272,89862,1,0
440,80,90568,6,0,B|443:32|259:24|347:144|347:344|259:360|259:360|171:344|171:144|259:24|75:32|75:80,1,840,8|0
40,168,93391,2,0,B|40:256|40:256|128:256|144:352,1,240,2|4
48,344,94450,5,0
48,344,94803,1,8
143,347,95156,2,0,B|256:268|368:348,1,240,2|2
448,288,96215,1,8
448,192,96568,6,0,B|448:104|312:104|312:8,1,240
256,88,97627,1,8
200,8,97980,2,0,B|200:104|64:104|64:192,1,240,2|2
160,192,99038,2,0,B|256:264,1,120,8|0
352,288,99744,5,0
392,200,100097,1,0
352,112,100450,1,8
256,136,100803,1,2
160,112,101156,1,0
120,200,101509,1,0
160,288,101862,5,8
352,288,102568,1,0
256,272,102921,1,0
256,176,103274,1,8
328,120,103627,2,0,B|336:48|256:8|176:48|184:120,1,240,2|2
256,176,104686,1,8
328,240,105038,6,0,B|336:312|256:352|176:312|184:240,1,240
120,168,106097,1,8
152,80,106450,2,0,B|232:80|256:128|256:128|280:80|360:80,1,240,2|2
448,104,107509,6,0,B|424:176|440:224|440:224|440:312|352:312,1,240,8|0
304,248,108568,1,0
208,248,108921,1,8
136,312,109274,2,0,B|73:312|72:225|72:225|88:177|64:105,1,240,2|2
160,80,110333,1,8
352,80,111038,5,0
424,144,111391,1,0
352,208,111744,1,8
352,304,112097,2,0,B|336:357|256:365|256:365|176:357|160:301,1,240,2|2
72,280,113156,5,8
40,192,113509,1,0
72,104,113862,1,0
160,80,114215,2,0,B|175:26|255:18|255:18|335:26|351:82,2,240,0|2|2
208,168,115980,1,8
304,168,116333,1,0
344,256,116686,6,0,B|328:320|256:352|184:320|168:256,1,240,4|8
72,256,117744,2,0,B|72:136,1,120
168,136,118450,6,0,B|184:71|256:39|328:71|344:135,1,240,2|2
384,224,119509,1,0
344,312,119862,1,0
256,344,120215,1,8
72,296,120921,6,0,B|72:192|176:192|176:80,1,240,2|8
256,40,121980,1,0
336,87,122333,2,0,B|336:192|440:192|440:296,1,240,2|8
344,280,123391,2,0,B|338:285|338:285|288:320|236:285|236:285|230:280,1,120
256,192,124097,5,2
278,100,124450,2,0,B|275:98|275:98|224:64|173:98|173:98|168:104,1,120,8|2
72,96,125156,1,0
72,288,125862,1,8
256,336,126568,5,0
344,304,126921,1,0
368,208,127274,2,0,B|224:232|176:104,1,240,8|0
80,128,128333,1,0
48,216,128686,1,8
200,328,129391,6,0,B|256:240|360:328|424:224,1,240,0|8
410,143,130450,2,0,B|357:55|253:143|197:55,1,240
120,112,131509,1,8
88,304,132215,6,0,B|152:312|192:256,1,120
256,328,132921,1,8
320,256,133274,2,0,B|359:311|423:303,1,120
480,120,134333,2,0,B|450:75|450:75|390:50|303:61|275:96,1,240,8|0
256,192,135391,1,0
232,288,135744,2,0,B|201:333|201:333|142:358|54:347|26:311,1,240,8|0
32,120,137156,5,8
56,216,137509,2,0,B|176:216|176:216|160:176|160:120|200:72|256:56|312:72|352:120|352:176|336:216|336:216|456:216,1,600,0|2
448,120,139627,1,0
384,48,139980,1,8
256,184,140686,5,0
128,48,141391,1,8
64,120,141744,1,2
64,216,142097,1,0
256,256,142803,1,8
440,192,143509,6,0,B|440:136|440:136|368:64|264:96,1,240,2|8
256,192,144568,1,0
240,288,144921,2,0,B|142:318|70:246|70:246|70:190,1,240,2|8
48,96,145980,2,0,B|88:48|168:48,1,120
136,143,146686,2,0,B|136:239|256:311|376:239|376:143,1,360
352,52,148097,2,0,B|418:51|458:99,1,120,0|8
296,200,149156,1,0
480,264,149862,6,0,B|360:264|384:352|256:352,1,240,8|2
256,256,150921,1,0
248,160,151274,2,0,B|127:159|151:247|31:247,1,240,8|0
32,152,152333,2,0,B|151:151|127:63|247:64,1,240,2|2
344,64,153391,2,0,B|416:48|408:80|480:64,2,120,0|0|8
466,212,154803,6,0,B|449:266|466:316|466:316|371:348|332:288,1,240,2|8
256,248,155862,1,0
256,344,156215,1,0
171,299,156568,2,0,B|141:348|46:316|46:316|63:266|46:212,1,240
144,192,157627,2,0,B|254:115|368:192,1,240,0|8
192,272,159038,1,0
256,344,159391,1,0
320,272,159744,1,8
368,88,160450,6,0,B|336:56|288:56|256:88|224:120|176:120|144:88,2,240,2|8|2
256,192,170333,12,4,173156
256,192,173862,5,8
352,192,174215,2,0,B|384:168|400:120|384:64|328:48|280:64|256:96,1,240,2|2
256,192,175274,1,8
160,192,175627,2,0,B|128:216|112:264|128:320|184:336|232:320|256:288,1,240
352,288,176686,1,8
432,232,177038,6,0,B|472:216|472:160|432:128|392:96|392:40|432:24,1,240,2|2
336,32,178097,1,8
256,88,178450,1,0
176,32,178803,5,0
120,216,179509,1,8
256,352,180215,1,0
392,216,180921,1,8
464,40,181627,2,0,B|464:104|464:104|408:96|360:160|360:160|360:128|296:120|288:144|288:144|296:168|264:192|256:216|256:216|248:192|216:168|224:144|224:144|216:120|152:128|152:160|152:160|104:96|48:104|48:104|48:40,1,720,0|8
256,40,184450,5,0
376,192,185156,1,8
368,288,185509,2,0,B|280:288|256:256|256:256|232:288|144:288,1,240,2|2
200,208,186568,2,0,B|184:176|192:144|216:120|256:112|296:120|320:144|328:176|312:208,1,240,8|2
432,56,187980,5,8
336,32,188333,1,2
256,80,188686,1,0
176,32,189038,1,2
80,56,189391,1,8
48,248,190097,6,0,B|48:360|144:360|232:360|208:328|208:272|208:272|240:248|256:208|256:208|272:248|304:272|304:272|304:328|280:360|368:360|464:360|464:248,2,720,0|8|0
48,152,194686,1,0
136,112,195038,6,0,B|376:112,2,240,2|4|8
176,200,196803,2,0,B|192:280|256:296|320:280|336:200,1,240,2|2
384,120,197862,1,8
320,48,198215,1,0
256,120,198568,5,2
80,192,199274,1,8
120,280,199627,2,0,B|256:280|200:360|344:360,1,240,2|2
384,272,200686,1,8
424,184,201038,1,0
384,96,201391,5,0
256,240,202097,1,8
176,192,202450,1,2
176,96,202803,1,0
80,264,203509,5,8
256,336,204215,1,0
432,264,204921,1,8
376,184,205274,2,0,B|136:184,1,240,2|2
137,87,206333,6,0,B|377:87,1,240,8|0
448,152,207391,1,0
448,248,207744,1,8
376,312,208097,2,0,B|136:312,1,240,2|2
64,248,209156,5,8
64,152,209509,1,0
152,192,209862,2,0,B|192:240|256:264|320:240|360:192,1,240,0|8
360,96,210921,2,0,B|319:47|255:23|191:47|151:95,1,240,2|2
72,152,211980,1,8
48,342,212686,6,0,B|56:312|88:280|176:336|208:304|208:304|168:264|168:200|192:160|256:144|320:160|344:200|344:264|304:304|304:304|336:336|424:280|456:312|464:344,2,720,0|8|0
256,192,217097,12,2,218333
