osu file format v13

[General]
AudioFilename: track.mp3
AudioLeadIn: 0
PreviewTime: 61172
Countdown: 0
SampleSet: Normal
StackLeniency: 0.7
Mode: 0
LetterboxInBreaks: 0
EpilepsyWarning: 1
WidescreenStoryboard: 1

[Editor]
DistanceSpacing: 1
BeatDivisor: 4
GridSize: 4
TimelineZoom: 1.8

[Metadata]
Title:We Can Do It
TitleUnicode:We Can Do It
Artist:September
ArtistUnicode:September
Creator:Kazuya
Version:Medium
Source:
Tags:dance remix Petra Linnea Paula Marklund Kazuya-sama
BeatmapID:452589
BeatmapSetID:186897

[Difficulty]
HPDrainRate:4
CircleSize:3
OverallDifficulty:3
ApproachRate:5
SliderMultiplier:1.1
SliderTickRate:1

[Events]
//Background and Video events
0,0,"bg.jpg",0,0
//Break Periods
2,152800,159019
//Storyboard Layer 0 (Background)
//Storyboard Layer 1 (Fail)
//Storyboard Layer 2 (Pass)
//Storyboard Layer 3 (Foreground)
//Storyboard Sound Samples
//Background Colour Transformations
3,100,0,0,0

[TimingPoints]
220,476.190476190476,4,1,0,40,1,0
15458,-100,4,1,1,40,0,0
30696,-100,4,1,2,40,0,0
45934,-100,4,2,0,40,0,0
60219,-100,4,3,1,40,0,0
61172,-100,4,1,1,50,0,1
75458,-100,4,3,1,50,0,1
76410,-100,4,1,1,40,0,0
91648,-100,4,1,2,40,0,0
106886,-100,4,2,0,40,0,0
121172,-100,4,3,1,40,0,0
122124,-100,4,1,1,50,0,1
136410,-100,4,3,1,50,0,1
137362,-100,4,1,1,40,0,0
152600,-100,4,2,0,40,0,0
160219,-100,4,2,0,40,0,0
174505,-100,4,3,1,40,0,0
175458,-100,4,1,1,50,0,1
189743,-100,4,3,1,50,0,1
190696,-100,4,1,1,50,0,1
205934,-100,4,2,1,40,0,0
206886,-100,4,2,0,5,0,0

[Colours]
Combo1 : 151,115,90
Combo2 : 221,142,89
Combo3 : 235,217,54
Combo4 : 183,66,69
SliderBorder : 255,255,255

[HitObjects]
162,301,15458,6,0,P|130:313|106:313,1,55,4|0,0:0|0:0,0:0:0:0:
60,288,15934,2,0,P|60:224|36:176,1,110,8|0,0:0|0:0,0:0:0:0:
92,84,16886,1,8,0:0:0:0:
182,149,17362,2,0,L|294:153,1,110,0|8,0:0|0:0,0:0:0:0:
338,53,18315,2,0,L|447:56,1,110,0|8,0:0|0:0,0:0:0:0:
491,158,19267,6,0,L|487:222,1,55
467,264,19743,2,0,P|418:289|343:276,1,110,8|0,0:0|0:0,0:0:0:0:
256,256,20696,1,8,0:0:0:0:
147,285,21172,2,0,P|93:288|45:264,1,110,0|8,0:0|0:0,0:0:0:0:
40,152,22124,6,0,B|52:96|52:96|36:36,2,110,0|8|0,0:0|0:0|0:0,0:0:0:0:
132,211,23553,1,8,0:0:0:0:
204,128,24029,1,0,0:0:0:0:
264,220,24505,1,8,0:0:0:0:
336,136,24981,6,0,P|387:123|441:137,1,110,0|8,0:0|0:0,0:0:0:0:
500,230,25934,2,0,P|498:283|471:331,1,110,0|8,0:0|0:0,0:0:0:0:
376,300,26886,2,0,P|344:288|316:292,1,55,0|0,0:0|0:0,0:0:0:0:
273,312,27362,2,0,B|220:332|220:332|160:316,1,110,8|0,0:0|0:0,0:0:0:0:
65,279,28315,1,8,0:0:0:0:
141,200,28791,2,0,P|165:144|161:92,2,110,0|8|0,0:0|0:0|0:0,0:0:0:0:
64,279,30219,1,8,0:0:0:0:
17,179,30696,6,0,P|15:124|38:75,1,110,0|8,0:0|0:0,0:0:0:0:
144,40,31648,2,0,L|264:44,1,110,0|8,0:0|0:0,0:0:0:0:
297,146,32600,2,0,L|187:143,1,110,0|8,0:0|0:0,0:0:0:0:
90,196,33553,1,0,0:0:0:0:
179,260,34029,2,0,P|204:277|231:280,1,55,8|0,0:0|0:0,0:0:0:0:
278,257,34505,6,0,P|336:239|388:242,1,110,0|8,0:0|0:0,0:0:0:0:
476,180,35458,2,0,B|484:124|484:124|472:68,1,110,0|8,0:0|0:0,0:0:0:0:
372,24,36410,2,0,P|312:16|256:28,1,110,0|8,0:0|0:0,0:0:0:0:
184,100,37362,1,0,0:0:0:0:
276,160,37839,2,0,P|283:187|280:216,1,55,8|0,0:0|0:0,0:0:0:0:
242,252,38315,6,0,P|187:264|113:251,2,110,0|8|0,0:0|0:0|0:0,0:0:0:0:
335,310,39743,1,8,0:0:0:0:
412,232,40219,2,0,B|428:176|428:176|420:116,1,110,0|8,0:0|0:0,0:0:0:0:
332,60,41172,1,0,0:0:0:0:
256,140,41648,2,0,P|224:152|200:152,1,55,8|0,0:0|0:0,0:0:0:0:
153,130,42124,6,0,P|120:104|48:112,2,110,0|8|0,0:0|0:0|0:0,0:0:0:0:
206,226,43553,1,8,0:0:0:0:
288,300,44029,2,0,L|280:356,2,55,0|0|8,0:0|0:0|0:0,0:0:0:0:
380,240,44981,1,0,0:0:0:0:
452,156,45458,2,0,P|463:129|464:96,1,55,8|0,0:0|0:0,0:0:0:0:
432,59,45934,6,0,P|376:40|304:51,1,110,4|0,0:0|0:0,0:0:0:0:
256,128,46886,2,0,L|260:216,2,82.5,2|2|2,0:0|0:0|0:0,0:0:0:0:
252,72,47839,5,0,0:0:0:0:
148,36,48315,1,2,0:0:0:0:
72,116,48791,1,2,0:0:0:0:
72,116,49029,6,0,P|52:200|76:272,1,165
169,331,50219,2,0,P|196:342|225:343,1,55,2|0,0:0|0:0,0:0:0:0:
276,338,50696,2,0,L|392:330,1,110,0|2,0:0|0:0,0:0:0:0:
450,245,51648,2,0,L|340:237,1,110,0|2,0:0|0:0,0:0:0:0:
260,163,52600,1,0,0:0:0:0:
163,110,53077,6,0,P|126:110|99:122,1,55,0|0,0:0|0:0,0:0:0:0:
70,155,53553,2,0,P|80:208|64:260,1,110,2|0,0:0|0:0,0:0:0:0:
157,316,54505,2,0,L|257:328,2,82.5,2|2|2,0:0|0:0|0:0,0:0:0:0:
112,284,55458,5,0,0:0:0:0:
175,194,55934,1,2,0:0:0:0:
112,104,56410,1,2,0:0:0:0:
112,104,56648,2,0,P|192:80|260:120,1,165
332,200,57839,6,0,P|368:216|392:216,1,55,2|0,0:0|0:0,0:0:0:0:
432,188,58315,2,0,L|460:76,2,110,0|2|0,0:0|0:0|0:0,0:0:0:0:
400,292,59743,1,2,0:0:0:0:
300,244,60219,2,8,P|272:245|247:255,1,55
228,308,60696,2,8,P|192:320|176:320,1,55
128,292,61172,6,0,P|96:244|96:192,2,110,4|8|0,0:0|0:0|0:0,0:0:0:0:
204,212,62600,2,0,L|220:152,2,55,8|0|0,0:0|0:0|0:0,0:0:0:0:
264,304,63553,2,0,L|248:364,2,55,8|0|0,0:0|0:0|0:0,0:0:0:0:
340,224,64505,1,8,0:0:0:0:
424,152,64981,6,0,P|452:96|448:48,2,110,2|8|2,2:0|0:0|2:0,0:0:0:0:
320,112,66410,1,8,0:0:0:0:
240,188,66886,2,0,P|208:200|184:200,1,55,2|0,2:0|0:0,0:0:0:0:
140,172,67362,2,0,L|128:56,2,110,8|2|8,0:0|2:0|0:0,0:0:0:0:
200,264,68791,6,0,P|248:292|300:288,2,110,0|8|0,0:0|0:0|0:0,0:0:0:0:
140,172,70219,2,0,L|132:108,2,55,8|0|0,0:0|0:0|0:0,0:0:0:0:
68,256,71172,2,0,L|60:320,2,55,8|0|0,0:0|0:0|0:0,0:0:0:0:
8,164,72124,1,8,0:0:0:0:
84,84,72600,6,0,P|156:64|192:76,1,110,2|8,2:0|0:0,0:0:0:0:
244,168,73553,2,0,P|316:188|352:176,1,110,2|8,2:0|0:0,0:0:0:0:
432,108,74505,6,0,L|428:52,2,55,2|0|8,2:0|0:0|0:0,0:0:0:0:
492,200,75458,1,8,0:0:0:0:
431,291,75934,1,8,1:0:0:0:
323,270,76410,6,0,P|259:250|207:258,1,110,4|8,0:0|0:0,0:0:0:0:
121,308,77362,1,0,0:0:0:0:
36,236,77839,1,8,0:0:0:0:
112,156,78315,6,0,P|84:104|92:56,2,110,2|8|2,2:0|0:0|2:0,0:0:0:0:
204,216,79743,1,8,0:0:0:0:
280,136,80219,6,0,P|312:124|340:124,1,55
383,145,80696,2,0,P|400:200|391:261,1,110,8|0,0:0|0:0,0:0:0:0:
324,336,81648,1,8,0:0:0:0:
228,284,82124,6,0,P|196:271|168:272,1,55,0|0,0:0|0:0,0:0:0:0:
124,292,82600,2,0,P|72:312|12:300,1,110,8|0,0:0|0:0,0:0:0:0:
12,192,83553,2,0,L|16:124,1,55,8|0,0:0|0:0,0:0:0:0:
40,88,84029,6,0,P|101:68|160:76,1,110,4|8,0:0|0:0,0:0:0:0:
236,136,84981,1,0,0:0:0:0:
320,64,85458,1,8,0:0:0:0:
380,156,85934,6,0,P|440:168|492:156,2,110,2|8|2,2:0|0:0|2:0,0:0:0:0:
320,64,87362,1,8,0:0:0:0:
248,148,87839,6,0,P|216:156|192:152,1,55
148,124,88315,2,0,P|68:108|32:124,1,110,8|0,0:0|0:0,0:0:0:0:
20,224,89267,1,8,0:0:0:0:
96,304,89743,6,0,P|168:328|208:320,1,110,0|8,0:0|0:0,0:0:0:0:
256,228,90696,1,0,0:0:0:0:
348,288,91172,2,0,P|384:298|408:292,1,55,8|0,0:0|0:0,0:0:0:0:
444,261,91648,6,0,L|462:146,1,110,4|8,0:0|0:0,0:0:0:0:
356,184,92600,2,0,L|374:69,1,110,0|8,0:0|0:0,0:0:0:0:
276,24,93553,2,0,P|208:40|164:40,1,110,0|8,0:0|0:0,0:0:0:0:
60,20,94505,5,0,0:0:0:0:
96,124,94981,2,0,P|86:152|88:188,1,55,8|0,0:0|0:0,0:0:0:0:
111,226,95458,2,0,P|172:244|223:234,1,110,0|8,0:0|0:0,0:0:0:0:
292,156,96410,1,0,0:0:0:0:
368,236,96886,1,8,0:0:0:0:
440,153,97362,2,0,P|468:105|472:45,2,110,0|8|0,0:0|0:0|0:0,0:0:0:0:
366,71,98791,6,0,P|334:55|302:59,1,55,8|0,0:0|0:0,0:0:0:0:
260,58,99267,2,0,L|128:70,1,110,0|8,0:0|0:0,0:0:0:0:
87,158,100219,2,0,P|139:178|196:167,1,110,0|8,0:0|0:0,0:0:0:0:
292,124,101172,1,0,0:0:0:0:
352,216,101648,1,8,0:0:0:0:
260,276,102124,2,0,L|268:344,2,55,0|0|8,0:0|0:0|0:0,0:0:0:0:
184,196,103077,5,0,0:0:0:0:
104,120,103553,2,0,P|64:80|48:24,2,110,8|0|8,0:0|0:0|0:0,0:0:0:0:
184,196,104981,2,0,P|216:204|248:200,1,55
288,180,105458,2,0,P|352:160|408:164,1,110,8|0,0:0|0:0,0:0:0:0:
460,252,106410,2,0,P|461:278|452:312,1,55,8|0,0:0|0:0,0:0:0:0:
417,346,106886,6,0,L|293:358,1,110,4|0,0:0|0:0,0:0:0:0:
248,264,107839,2,0,L|272:180,2,82.5,2|2|2,0:0|0:0|0:0,0:0:0:0:
231,316,108791,5,0,0:0:0:0:
132,364,109267,1,2,0:0:0:0:
72,272,109743,1,2,0:0:0:0:
72,272,109981,6,0,P|56:192|84:108,1,165
172,52,111172,2,0,P|200:44|244:48,1,55,2|0,0:0|0:0,0:0:0:0:
280,51,111648,2,0,L|388:71,1,110,0|2,0:0|0:0,0:0:0:0:
460,155,112600,2,0,P|416:179|352:175,1,110,0|2,0:0|0:0,0:0:0:0:
254,139,113553,1,0,0:0:0:0:
168,208,114029,6,0,L|176:268,2,55,0|0|2,0:0|0:0|0:0,0:0:0:0:
88,132,114981,1,0,0:0:0:0:
172,60,115458,2,0,L|256:56,2,82.5,2|2|2,0:0|0:0|0:0,0:0:0:0:
124,88,116410,5,0,0:0:0:0:
64,180,116886,1,2,0:0:0:0:
144,256,117362,1,2,0:0:0:0:
144,256,117600,6,0,P|224:228|296:256,1,165
352,350,118791,2,0,P|383:352|420:342,1,55,2|0,0:0|0:0,0:0:0:0:
448,312,119267,2,0,P|472:264|472:196,1,110,0|2,0:0|0:0,0:0:0:0:
367,232,120219,2,0,P|363:178|329:119,1,110,0|2,0:0|0:0,0:0:0:0:
250,61,121172,2,0,P|218:57|174:69,1,55,8|8,0:0|0:0,0:0:0:0:
153,95,121648,2,0,P|121:99|77:87,1,55,8|8,0:0|0:0,0:0:0:0:
43,92,122124,6,0,P|25:140|41:199,1,110,4|8,0:0|0:0,0:0:0:0:
104,284,123077,1,0,0:0:0:0:
197,225,123553,2,0,L|189:161,2,55,8|0|0,0:0|0:0|0:0,0:0:0:0:
284,292,124505,2,0,L|292:356,2,55,8|0|0,0:0|0:0|0:0,0:0:0:0:
367,219,125458,5,8,0:0:0:0:
464,168,125934,2,0,P|484:144|484:68,2,110,2|8|2,2:0|0:0|2:0,0:0:0:0:
367,221,127362,1,8,0:0:0:0:
281,151,127839,2,0,P|257:135|225:139,1,55,2|0,2:0|0:0,0:0:0:0:
191,173,128315,2,0,P|138:188|87:172,1,110,8|0,0:0|0:0,0:0:0:0:
45,70,129267,1,8,0:0:0:0:
153,46,129743,6,0,B|209:34|209:34|261:46,1,110,0|8,0:0|0:0,0:0:0:0:
361,93,130696,1,0,0:0:0:0:
432,180,131172,2,0,L|492:172,2,55,8|0|0,0:0|0:0|0:0,0:0:0:0:
340,240,132124,2,0,L|336:300,2,55,8|0|0,0:0|0:0|0:0,0:0:0:0:
256,168,133077,1,8,0:0:0:0:
164,228,133553,6,0,P|105:241|56:228,2,110,2|8|2,2:0|0:0|2:0,0:0:0:0:
256,168,134981,1,8,0:0:0:0:
340,96,135458,6,0,L|336:40,2,55,2|0|8,2:0|0:0|0:0,0:0:0:0:
353,205,136410,1,8,0:0:0:0:
276,284,136886,1,8,1:0:0:0:
216,192,137362,6,0,P|146:170|100:184,1,110,4|8,0:0|0:0,0:0:0:0:
60,276,138315,1,0,0:0:0:0:
140,352,138791,1,8,0:0:0:0:
232,292,139267,6,0,P|304:268|344:280,1,110,2|8,2:0|0:0,0:0:0:0:
424,340,140219,1,2,2:0:0:0:
484,248,140696,1,8,0:0:0:0:
424,156,141172,6,0,P|396:144|368:144,1,55
320,163,141648,2,0,P|260:179|212:163,1,110,8|0,0:0|0:0,0:0:0:0:
152,76,142600,1,8,0:0:0:0:
76,156,143077,6,0,P|65:186|68:220,1,55,2|0,2:0|0:0,0:0:0:0:
85,260,143553,2,0,P|151:287|201:272,1,110,8|2,0:0|2:0,0:0:0:0:
256,192,144505,2,0,P|289:187|316:200,1,55,8|0,0:0|0:0,0:0:0:0:
353,227,144981,6,0,P|365:275|353:335,2,110,4|8|0,0:0|0:0|0:0,0:0:0:0:
295,133,146410,1,8,0:0:0:0:
204,72,146886,2,0,P|140:53|88:60,1,110,2|8,2:0|0:0,0:0:0:0:
36,148,147839,2,0,B|29:202|29:202|44:264,1,110,2|8,2:0|0:0,0:0:0:0:
128,324,148791,6,0,P|164:336|200:336,1,55
235,338,149267,2,0,L|351:330,1,110,8|0,0:0|0:0,0:0:0:0:
440,276,150219,1,8,0:0:0:0:
364,196,150696,2,0,P|389:148|380:88,2,110,0|8|0,0:0|0:0|0:0,0:0:0:0:
284,272,152124,2,0,L|272:332,2,55,8|0|4,0:0|0:0|0:0,0:0:0:0:
32,108,160219,6,0,P|100:80|152:88,1,110,4|0,0:0|0:0,0:0:0:0:
204,168,161172,2,0,L|184:256,2,82.5,2|2|2,0:0|0:0|0:0,0:0:0:0:
219,115,162124,5,0,0:0:0:0:
300,40,162600,1,2,0:0:0:0:
384,112,163077,1,2,0:0:0:0:
384,112,163315,6,0,P|408:184|368:264,1,165
264,292,164505,2,0,L|272:352,2,55,2|0|0,0:0|0:0|0:0,0:0:0:0:
184,216,165458,1,2,0:0:0:0:
80,252,165934,2,0,L|24:260,2,55,0|0|2,0:0|0:0|0:0,0:0:0:0:
184,216,166886,1,0,0:0:0:0:
256,132,167362,6,0,P|246:107|248:72,2,55,0|0|2,0:0|0:0|0:0,0:0:0:0:
336,208,168315,1,0,0:0:0:0:
428,268,168791,2,0,L|512:264,2,82.5,2|2|2,0:0|0:0|0:0,0:0:0:0:
387,305,169743,5,0,0:0:0:0:
292,360,170219,1,2,0:0:0:0:
232,268,170696,1,2,0:0:0:0:
232,268,170934,6,0,P|152:296|80:264,1,165
32,168,172124,2,0,P|24:144|28:108,1,55,2|0,0:0|0:0,0:0:0:0:
64,76,172600,2,0,P|132:57|172:65,1,110,0|2,0:0|0:0,0:0:0:0:
256,132,173553,1,0,0:0:0:0:
348,72,174029,1,2,0:0:0:0:
444,125,174505,2,8,P|434:150|415:170,1,55,8|8,0:0|0:0,0:0:0:0:
378,211,174981,2,8,P|359:231|349:256,1,55,8|8,0:0|0:0,0:0:0:0:
317,301,175458,6,0,P|255:298|207:273,1,110,4|8,0:0|0:0,0:0:0:0:
135,200,176410,2,0,P|115:148|119:88,2,110,0|8|0,0:0|0:0|0:0,0:0:0:0:
212,278,177839,2,0,L|189:335,2,55,8|0|0,0:0|0:0|0:0,0:0:0:0:
254,176,178791,1,8,0:0:0:0:
348,232,179267,6,0,P|434:252|464:240,2,110,2|8|2,2:0|0:0|2:0,0:0:0:0:
256,172,180696,1,8,0:0:0:0:
164,112,181172,2,0,L|172:56,2,55,2|0|8,2:0|0:0|0:0,0:0:0:0:
88,192,182124,1,2,2:0:0:0:
124,296,182600,1,8,0:0:0:0:
208,368,183077,6,0,L|320:360,1,110,0|8,0:0|0:0,0:0:0:0:
388,276,184029,2,0,L|500:284,2,110,0|8|0,0:0|0:0|0:0,0:0:0:0:
304,204,185458,2,0,P|312:180|312:148,2,55,8|0|0,0:0|0:0|0:0,0:0:0:0:
244,296,186410,1,8,0:0:0:0:
152,236,186886,6,0,P|97:227|48:192,1,110,2|8,2:0|0:0,0:0:0:0:
54,86,187839,2,0,P|99:55|153:47,1,110,2|8,2:0|0:0,0:0:0:0:
236,120,188791,6,0,L|232:180,2,55,2|0|8,2:0|0:0|0:0,0:0:0:0:
312,40,189743,1,8,0:0:0:0:
378,128,190219,2,0,P|382:154|396:178,1,55,8|8,1:0|0:0,0:0:0:0:
428,224,190696,6,0,P|432:280|408:336,1,110,4|8,0:0|0:0,0:0:0:0:
324,264,191648,2,0,P|299:314|250:350,1,110,0|8,0:0|0:0,0:0:0:0:
172,280,192600,1,0,0:0:0:0:
96,200,193077,2,0,L|63:248,2,55,8|0|0,0:0|0:0|0:0,0:0:0:0:
172,120,194029,1,8,0:0:0:0:
248,200,194505,6,0,P|248:272|232:304,2,110,2|8|2,2:0|0:0|2:0,0:0:0:0:
172,120,195934,1,8,0:0:0:0:
264,60,196410,2,0,P|244:36|208:16,2,55,2|0|8,2:0|0:0|0:0,0:0:0:0:
324,152,197362,1,2,2:0:0:0:
408,80,197839,1,8,0:0:0:0:
428,188,198315,6,0,B|440:244|440:244|432:304,1,110,0|8,0:0|0:0,0:0:0:0:
336,348,199267,2,0,B|280:360|280:360|228:348,1,110,0|8,0:0|0:0,0:0:0:0:
136,288,200219,1,0,0:0:0:0:
64,204,200696,2,0,L|4:208,2,55,8|0|0,0:0|0:0|0:0,0:0:0:0:
140,124,201648,5,8,0:0:0:0:
232,64,202124,2,0,L|348:72,1,110,2|8,2:0|0:0,0:0:0:0:
404,162,203077,2,0,P|348:182|294:169,1,110,2|8,2:0|0:0,0:0:0:0:
192,152,204029,2,0,P|163:142|132:148,1,55,2|0,2:0|0:0,0:0:0:0:
104,184,204505,2,0,L|96:300,2,110,8|0|8,0:0|0:0|0:0,0:0:0:0:
140,80,205934,6,0,P|164:64|200:56,1,55,2|2,0:0|0:0,0:0:0:0:
244,56,206410,2,0,L|336:60,1,82.5,2|0,0:0|0:0,0:0:0:0:
256,192,206886,12,0,209743,0:0:0:0:
