osu file format v12

[General]
AudioFilename: track.mp3
AudioLeadIn: 0
PreviewTime: 46365
Countdown: 0
SampleSet: Soft
StackLeniency: 0.7
Mode: 0
LetterboxInBreaks: 0
WidescreenStoryboard: 0

[Editor]
DistanceSpacing: 1.2
BeatDivisor: 4
GridSize: 4
TimelineZoom: 1.5

[Metadata]
Title:Satellites
TitleUnicode:Satellites
Artist:September
ArtistUnicode:September
Creator:Kazuya-sama
Version:Hard
Source:
Tags:swedish in orbit remix dance Petra Linnea Paula Marklund
BeatmapID:369920
BeatmapSetID:144804

[Difficulty]
HPDrainRate:5
CircleSize:4
OverallDifficulty:6
ApproachRate:7
SliderMultiplier:1.4
SliderTickRate:1

[Events]
//Background and Video events
0,0,"bg.jpg",0,0
//Break Periods
2,144240,154303
//Storyboard Layer 0 (Background)
//Storyboard Layer 1 (Fail)
//Storyboard Layer 2 (Pass)
//Storyboard Layer 3 (Foreground)
//Storyboard Sound Samples
//Background Colour Transformations
3,100,0,0,0

[TimingPoints]
2645,465.116279069767,4,1,1,50,1,0
24505,-100,4,2,1,5,0,0
24970,-100,4,1,1,50,0,0
47296,-100,4,1,2,50,0,1
58458,-100,4,1,2,50,0,0
62179,-100,4,1,2,50,0,1
76831,-100,4,2,1,50,0,0
82644,-100,4,1,1,50,0,0
83342,-100,4,2,0,50,0,0
84505,-100,4,1,1,50,0,0
99389,-100,4,1,2,50,0,1
110551,-100,4,1,2,50,0,0
114272,-100,4,1,2,50,0,1
125435,-100,4,1,2,50,0,0
129156,-100,4,2,0,50,0,0
157528,-100,4,1,1,50,0,0
158924,-100,4,1,2,50,0,1
170086,-100,4,1,2,50,0,0
173807,-100,4,1,2,50,0,1
184970,-100,4,1,2,50,0,0
188924,-100,4,1,2,45,0,0
189156,-100,4,1,2,40,0,0
189389,-100,4,1,2,35,0,0
189621,-100,4,1,2,30,0,0
189854,-100,4,1,2,25,0,0
190086,-100,4,1,2,20,0,0
190319,-100,4,1,2,10,0,0
190551,-100,4,2,0,5,0,0

[Colours]
Combo1 : 95,151,14
Combo2 : 151,39,14
Combo3 : 19,119,194
Combo4 : 194,19,190
SliderBorder : 217,199,204
SliderTrackOverride : 75,75,75

[HitObjects]
48,236,2645,6,0,P|68:302|122:349,1,140,4|0,0:0|0:0,0:0:0:0:
213,209,3575,1,8,0:0:0:0:
213,209,3807,2,0,P|281:192|327:143,1,140,0|8,0:0|0:0,0:0:0:0:
354,63,4505,2,0,P|399:101|400:183,1,140
316,324,5435,1,8,0:0:0:0:
316,324,5668,2,0,P|252:308|180:328,1,140,0|8,0:0|0:0,0:0:0:0:
116,276,6365,6,0,B|113:231|82:217|50:202|48:158,1,140
180,56,7296,1,8,0:0:0:0:
180,56,7528,2,0,L|320:64,1,140,0|8,0:0|0:0,0:0:0:0:
404,76,8226,2,0,P|428:140|392:204,1,140
236,244,9156,2,0,P|246:280|272:312,2,70,8|0|8,0:0|0:0|0:0,0:0:0:0:
168,192,9854,6,0,P|100:220|44:188,1,140
108,136,10551,2,0,L|136:64,1,70
208,32,11017,1,8,0:0:0:0:
284,72,11249,1,8,0:0:0:0:
432,152,11714,2,0,P|456:216|424:280,1,140
268,328,12644,2,0,L|184:332,1,70,0|8,0:0|0:0,0:0:0:0:
164,256,13110,2,0,L|80:260,1,70,0|8,0:0|0:0,0:0:0:0:
32,204,13575,6,0,P|32:128|72:76,1,140
196,188,14505,2,0,P|228:206|264:211,2,70,0|8|0,0:0|0:0|0:0,0:0:0:0:
360,152,15435,2,0,P|376:216|340:296,1,140
184,312,16365,1,0,0:0:0:0:
108,276,16598,1,8,0:0:0:0:
52,212,16831,1,0,0:0:0:0:
28,132,17063,1,8,0:0:0:0:
40,48,17296,6,0,P|108:28|172:48,1,140
240,96,17993,1,0,0:0:0:0:
312,52,18226,1,0,0:0:0:0:
380,100,18458,2,8,L|456:88,2,70,8|0|8,0:0|0:0|0:0,0:0:0:0:
312,148,19156,2,0,P|288:208|320:276,1,140
460,360,20086,1,0,0:0:0:0:
380,328,20319,2,0,L|308:356,1,70,8|0,0:0|0:0,0:0:0:0:
244,312,20784,2,0,L|172:340,1,70,8|0,0:0|0:0,0:0:0:0:
104,296,21249,6,0,B|59:266|67:234|75:206|34:174,1,140
176,84,22179,1,8,0:0:0:0:
256,52,22412,2,0,L|336:48,2,70,0|0|8,0:0|0:0|0:0,0:0:0:0:
176,84,23110,1,4,0:0:0:0:
256,192,23226,12,4,24505,0:0:0:0:
64,200,24970,6,0,P|127:174|189:202,1,140,0|8,0:0|0:0,0:0:0:0:
257,154,25668,1,0,0:0:0:0:
325,202,25900,2,0,P|393:174|453:202,1,140,0|8,0:0|0:0,0:0:0:0:
389,258,26598,2,0,P|394:293|385:330,1,70
313,290,27063,2,0,P|285:312|248:322,1,70,0|8,0:0|0:0,0:0:0:0:
245,238,27528,2,0,P|209:243|172:234,1,70,0|0,0:0|0:0,0:0:0:0:
209,158,27993,2,0,P|175:145|148:118,1,70,0|8,0:0|0:0,0:0:0:0:
224,76,28458,6,0,B|262:76|292:88|292:88|324:76|364:76,1,140
428,24,29156,1,8,0:0:0:0:
492,80,29389,1,0,0:0:0:0:
428,132,29621,2,0,B|408:180|428:200|448:220|428:268,1,140,0|8,0:0|0:0,0:0:0:0:
356,312,30319,2,0,B|316:312|316:312|300:304|284:316|284:316|272:304|256:312|256:312|220:312,1,140
176,240,31017,2,0,P|148:264|136:296,2,70,8|0|0,0:0|0:0|0:0,0:0:0:0:
108,192,31714,1,0,0:0:0:0:
56,128,31947,1,8,0:0:0:0:
48,44,32179,1,0,0:0:0:0:
48,44,32412,6,0,B|116:36|116:36|188:44,1,140,0|8,0:0|0:0,0:0:0:0:
256,196,33342,1,0,0:0:0:0:
304,264,33575,2,0,P|328:236|340:196,2,70,0|8|0,0:0|0:0|0:0,0:0:0:0:
220,272,34272,2,0,L|80:280,1,140,0|8,0:0|0:0,0:0:0:0:
64,112,35203,1,0,0:0:0:0:
128,60,35435,1,0,0:0:0:0:
192,116,35668,1,8,0:0:0:0:
256,64,35900,6,0,P|320:36|380:64,1,140
432,128,36598,1,8,0:0:0:0:
376,192,36831,1,0,0:0:0:0:
324,256,37063,2,0,P|294:194|320:132,1,140,0|8,0:0|0:0,0:0:0:0:
268,64,37761,2,0,L|196:80,1,70
184,160,38226,2,0,L|112:176,1,70,0|8,0:0|0:0,0:0:0:0:
56,232,38691,2,0,P|40:304|80:360,1,140
128,288,39389,1,8,0:0:0:0:
128,288,39621,6,0,P|192:320|252:292,1,140
192,232,40319,1,8,0:0:0:0:
256,180,40551,1,0,0:0:0:0:
320,236,40784,2,0,P|339:301|310:363,2,140,0|8|0,0:0|0:0|0:0,0:0:0:0:
256,180,41947,2,0,L|256:104,1,70,0|8,0:0|0:0,0:0:0:0:
180,76,42412,2,0,L|218:10,1,70
300,16,42877,2,0,L|335:76,1,70,0|8,0:0|0:0,0:0:0:0:
388,144,43342,1,0,0:0:0:0:
356,224,43575,6,0,P|376:288|344:352,1,140,8|8,0:0|0:0,0:0:0:0:
176,352,44505,2,0,P|145:290|165:225,1,140,8|8,0:0|0:0,0:0:0:0:
216,56,45435,2,0,L|216:136,1,70,12|0,0:0|0:0,0:0:0:0:
300,124,45900,2,0,L|300:44,1,70,12|0,0:0|0:0,0:0:0:0:
384,52,46365,1,0,0:0:0:0:
452,100,46598,1,0,0:0:0:0:
384,148,46831,1,0,0:0:0:0:
452,200,47063,1,0,0:0:0:0:
376,232,47296,6,0,L|320:288,1,70,4|0,0:0|0:0,0:0:0:0:
260,228,47761,2,0,L|239:304,1,70,8|0,0:0|0:0,0:0:0:0:
176,348,48226,2,0,L|157:280,1,70
136,200,48691,1,8,0:0:0:0:
136,200,48924,2,0,P|136:116|176:76,1,140,8|0,0:0|0:0,0:0:0:0:
256,92,49621,1,8,0:0:0:0:
340,76,49854,2,0,P|382:129|375:197,1,140,0|0,0:0|0:0,0:0:0:0:
316,256,50551,1,8,0:0:0:0:
256,316,50784,6,0,P|186:315|136:264,1,140,8|0,0:0|0:0,0:0:0:0:
104,192,51482,1,8,0:0:0:0:
136,112,51714,2,0,P|185:64|253:64,1,140,0|0,0:0|0:0,0:0:0:0:
328,104,52412,1,8,0:0:0:0:
408,72,52644,2,0,P|424:136|392:208,1,140,8|0,0:0|0:0,0:0:0:0:
328,248,53342,1,8,0:0:0:0:
260,296,53575,1,0,0:0:0:0:
180,316,53807,1,0,0:0:0:0:
100,296,54040,1,0,0:0:0:0:
32,248,54272,1,8,0:0:0:0:
32,248,54505,6,0,P|32:172|76:128,1,140,8|0,0:0|0:0,0:0:0:0:
156,116,55203,2,0,L|240:124,1,70,8|0,0:0|0:0,0:0:0:0:
300,80,55668,2,0,L|372:20,2,70,0|0|8,0:0|0:0|0:0,0:0:0:0:
300,164,56365,2,0,P|348:212|344:284,1,140,8|0,0:0|0:0,0:0:0:0:
268,244,57063,1,8,0:0:0:0:
192,284,57296,1,0,0:0:0:0:
120,244,57528,1,0,0:0:0:0:
80,168,57761,2,0,P|52:192|36:224,2,70,0|8|8,0:0|0:0|0:0,0:0:0:0:
156,132,58458,6,0,P|212:84|212:20,2,140,0|8|0,0:0|0:0|0:0,0:0:0:0:
80,168,59621,1,0,0:0:0:0:
32,236,59854,1,8,0:0:0:0:
84,300,60086,2,0,B|120:304|152:284|152:284|176:304|220:300,1,140,8|0,0:0|0:0,0:0:0:0:
296,268,60784,1,8,0:0:0:0:
456,224,61249,2,0,L|440:152,1,70
356,168,61714,2,0,L|340:96,1,70,8|8,0:0|0:0,0:0:0:0:
256,88,62179,6,0,P|192:60|128:92,2,140,4|8|0,0:0|0:0|0:0,0:0:0:0:
192,144,63342,1,0,0:0:0:0:
132,88,63575,1,8,0:0:0:0:
72,148,63807,2,0,P|48:212|80:276,1,140,8|0,0:0|0:0,0:0:0:0:
132,336,64505,1,8,0:0:0:0:
196,284,64738,2,0,L|276:288,1,70
336,336,65203,2,0,L|416:332,1,70,0|8,0:0|0:0,0:0:0:0:
464,272,65668,6,0,B|440:228|464:204|488:180|464:136,1,140,8|0,0:0|0:0,0:0:0:0:
408,76,66365,1,8,0:0:0:0:
348,136,66598,2,0,B|308:144|280:120|280:120|252:144|212:136,1,140
148,88,67296,1,8,0:0:0:0:
80,136,67528,2,0,P|80:172|96:208,1,70,8|0,0:0|0:0,0:0:0:0:
12,228,67993,2,0,P|30:259|61:282,1,70,0|8,0:0|0:0,0:0:0:0:
140,272,68458,2,0,L|220:276,1,70
268,336,68924,2,0,L|348:340,1,70,0|8,0:0|0:0,0:0:0:0:
420,344,69389,6,0,P|468:296|468:228,1,140,8|0,0:0|0:0,0:0:0:0:
392,264,70086,2,0,L|348:208,1,70,8|0,0:0|0:0,0:0:0:0:
288,148,70551,2,0,P|268:176|265:211,2,70,0|0|8,0:0|0:0|0:0,0:0:0:0:
296,64,71249,2,0,B|256:56|228:80|228:80|196:56|160:64,1,140,8|0,0:0|0:0,0:0:0:0:
96,112,71947,1,8,0:0:0:0:
40,176,72179,1,0,0:0:0:0:
100,236,72412,1,0,0:0:0:0:
184,248,72644,2,0,P|174:279|140:315,2,70,0|8|8,0:0|0:0|0:0,0:0:0:0:
260,284,73342,6,0,L|340:292,1,70
412,292,73807,2,0,P|456:248|456:164,1,140,8|0,0:0|0:0,0:0:0:0:
404,112,74505,1,0,0:0:0:0:
348,176,74738,1,8,0:0:0:0:
292,112,74970,2,0,P|228:136|164:112,1,140,8|0,0:0|0:0,0:0:0:0:
104,52,75668,2,0,P|80:108|116:180,1,140,8|0,0:0|0:0,0:0:0:0:
184,220,76365,2,0,P|159:248|123:260,1,70,0|8,0:0|0:0,0:0:0:0:
188,320,76831,6,0,B|236:336|256:328|256:328|272:336|332:320,1,140,8|0,0:0|0:0,0:0:0:0:
392,272,77528,1,0,0:0:0:0:
356,196,77761,1,0,0:0:0:0:
356,196,77993,2,0,P|307:144|235:148,1,140
162,166,78691,2,0,P|206:217|274:219,2,140
44,48,80086,1,0,0:0:0:0:
164,168,80551,6,0,P|114:214|46:208,1,140
88,136,81249,1,0,0:0:0:0:
156,88,81482,1,0,0:0:0:0:
232,124,81714,2,0,P|242:195|191:252,2,140,0|0|8,0:0|0:0|0:0,0:0:0:0:
64,120,83110,1,8,0:0:0:0:
64,120,83342,2,0,P|53:191|104:248,2,140,0|0|8,0:0|0:0|0:0,0:0:0:0:
132,168,84505,6,0,L|208:164,1,70,4|0,0:0|0:0,0:0:0:0:
240,240,84970,2,0,L|316:244,1,70,8|0,0:0|0:0,0:0:0:0:
392,220,85435,1,0,0:0:0:0:
392,220,85668,2,0,L|444:164,2,70,0|8|0,0:0|0:0|0:0,0:0:0:0:
328,168,86365,2,0,P|308:96|342:38,2,140,0|8|0,0:0|0:0|0:0,0:0:0:0:
392,220,87528,1,0,0:0:0:0:
328,272,87761,1,8,0:0:0:0:
244,288,87993,6,0,P|180:316|120:284,1,140
184,228,88691,1,8,0:0:0:0:
244,168,88924,1,0,0:0:0:0:
164,144,89156,2,0,P|108:96|112:20,1,140,0|8,0:0|0:0,0:0:0:0:
188,60,89854,2,0,B|234:60|254:84|272:107|319:107,1,140,0|0,0:0|0:0,0:0:0:0:
376,48,90551,1,8,0:0:0:0:
376,48,90784,2,0,P|400:112|368:172,1,140
300,224,91482,1,8,0:0:0:0:
300,224,91714,6,0,P|276:288|308:348,1,140
360,284,92412,1,8,0:0:0:0:
420,224,92644,1,0,0:0:0:0:
360,164,92877,2,0,P|296:136|236:164,1,140,0|8,0:0|0:0,0:0:0:0:
176,224,93575,2,0,P|112:252|48:224,1,140,0|0,0:0|0:0,0:0:0:0:
112,168,94272,1,8,0:0:0:0:
112,168,94505,2,0,P|104:132|112:96,1,70
188,132,94970,2,0,P|199:96|224:69,1,70,0|8,0:0|0:0,0:0:0:0:
272,136,95435,1,0,0:0:0:0:
328,72,95668,6,0,P|356:136|320:204,1,140,8|8,0:0|0:0,0:0:0:0:
184,284,96598,2,0,L|44:268,2,140,8|8|12,0:0|0:0|0:0,0:0:0:0:
336,352,97993,1,12,0:0:0:0:
460,236,98458,1,0,0:0:0:0:
400,180,98691,1,0,0:0:0:0:
468,128,98924,1,0,0:0:0:0:
400,76,99156,1,0,0:0:0:0:
328,124,99389,6,0,L|276:176,1,70
212,120,99854,2,0,L|192:191,1,70,8|0,0:0|0:0,0:0:0:0:
108,180,100319,2,0,L|127:251,1,70,0|0,0:0|0:0,0:0:0:0:
208,276,100784,1,8,0:0:0:0:
272,332,101017,2,0,P|336:360|400:332,1,140,8|0,0:0|0:0,0:0:0:0:
336,276,101714,1,8,0:0:0:0:
268,224,101947,2,0,L|200:192,1,70
228,112,102412,2,0,L|158:117,1,70,0|8,0:0|0:0,0:0:0:0:
76,136,102877,6,0,P|20:180|16:252,1,140,8|0,0:0|0:0,0:0:0:0:
96,220,103575,1,8,0:0:0:0:
96,220,103807,2,0,B|120:232|120:232|140:296|200:300,1,140,0|0,0:0|0:0,0:0:0:0:
256,240,104505,1,8,0:0:0:0:
312,304,104738,2,0,B|372:300|392:236|392:236|416:223,1,140,8|0,0:0|0:0,0:0:0:0:
480,172,105435,1,8,0:0:0:0:
416,116,105668,1,0,0:0:0:0:
364,52,105900,2,0,P|396:36|432:36,2,70,0|0|8,0:0|0:0|0:0,0:0:0:0:
308,116,106598,6,0,B|268:108|236:124|236:124|208:108|168:116,1,140,8|0,0:0|0:0,0:0:0:0:
92,144,107296,2,0,P|64:172|56:212,1,70,8|0,0:0|0:0,0:0:0:0:
140,216,107761,2,0,P|150:254|180:281,1,70
224,208,108226,1,8,0:0:0:0:
268,280,108458,2,0,B|304:300|320:280|336:296|336:296|352:280|368:300|404:280,1,140,8|0,0:0|0:0,0:0:0:0:
468,232,109156,1,8,0:0:0:0:
400,180,109389,1,0,0:0:0:0:
468,128,109621,1,0,0:0:0:0:
396,84,109854,2,0,L|320:92,1,70,0|8,0:0|0:0,0:0:0:0:
256,44,110319,1,8,0:0:0:0:
192,100,110551,6,0,P|136:152|144:220,2,140,0|8|0,0:0|0:0|0:0,0:0:0:0:
216,180,111714,1,0,0:0:0:0:
276,240,111947,1,8,0:0:0:0:
332,300,112179,2,0,P|360:237|332:176,1,140,8|0,0:0|0:0,0:0:0:0:
276,112,112877,1,8,0:0:0:0:
116,160,113342,2,0,P|92:188|80:224,1,70
164,228,113807,2,0,P|176:262|201:291,1,70,8|8,0:0|0:0,0:0:0:0:
272,328,114272,6,0,B|332:328|332:328|352:340|352:340|376:348|396:348|424:324,2,140,0|8|0,0:0|0:0|0:0,0:0:0:0:
196,288,115435,1,0,0:0:0:0:
160,212,115668,1,8,0:0:0:0:
160,212,115900,2,0,P|160:124|196:88,1,140,8|0,0:0|0:0,0:0:0:0:
256,144,116598,1,8,0:0:0:0:
320,88,116831,2,0,P|361:142|353:210,1,140
280,248,117528,1,8,0:0:0:0:
204,284,117761,6,0,P|128:288|84:240,1,140,8|0,0:0|0:0,0:0:0:0:
60,164,118458,1,8,0:0:0:0:
120,108,118691,2,0,L|264:104,1,140
332,60,119389,1,8,0:0:0:0:
400,108,119621,2,0,B|406:159|433:168|465:181|470:229,1,140,8|0,0:0|0:0,0:0:0:0:
412,284,120319,1,8,0:0:0:0:
348,232,120551,2,0,L|264:224,1,70
220,288,121017,2,0,L|136:280,1,70,0|8,0:0|0:0,0:0:0:0:
84,228,121482,6,0,P|60:160|96:92,1,140,8|0,0:0|0:0,0:0:0:0:
152,52,122179,1,8,0:0:0:0:
220,100,122412,1,0,0:0:0:0:
284,48,122644,2,0,L|368:52,1,70
424,100,123110,1,8,0:0:0:0:
424,100,123342,2,0,P|448:160|412:232,1,140,8|0,0:0|0:0,0:0:0:0:
348,180,124040,1,8,0:0:0:0:
280,228,124272,1,0,0:0:0:0:
212,180,124505,1,0,0:0:0:0:
132,204,124738,2,0,P|148:236|184:260,2,70,0|8|8,0:0|0:0|0:0,0:0:0:0:
152,124,125435,6,0,P|146:88|156:48,1,70
228,88,125900,2,0,P|296:112|356:88,1,140,8|0,0:0|0:0,0:0:0:0:
416,28,126598,1,0,0:0:0:0:
476,88,126831,1,8,0:0:0:0:
416,144,127063,1,8,0:0:0:0:
416,144,127296,2,0,P|416:212|364:264,2,140,0|8|0,0:0|0:0|0:0,0:0:0:0:
356,88,128458,1,0,0:0:0:0:
292,144,128691,2,0,P|256:148|216:140,1,70,8|8,0:0|0:0,0:0:0:0:
140,124,129156,6,0,P|141:161|159:195,1,70,6|0,0:0|0:0,0:0:0:0:
76,224,129621,2,0,P|96:256|128:276,1,70,2|0,0:0|0:0,0:0:0:0:
200,308,130086,2,0,P|179:336|150:354,2,70,2|0|2,0:0|0:0|0:0,0:0:0:0:
236,232,130784,1,0,0:0:0:0:
296,292,131017,2,0,L|368:276,1,70,2|0,0:0|0:0,0:0:0:0:
396,200,131482,2,0,L|468:184,1,70,2|0,0:0|0:0,0:0:0:0:
416,116,131947,2,0,L|347:100,1,70,2|0,0:0|0:0,0:0:0:0:
288,40,132412,1,2,0:0:0:0:
228,100,132644,6,0,P|160:124|100:100,1,140,2|2,0:0|0:0,0:0:0:0:
40,40,133342,2,0,P|16:100|48:168,2,140,2|2|2,0:0|0:0|0:0,0:0:0:0:
100,100,134505,1,2,0:0:0:0:
148,168,134738,2,0,B|181:206|174:270|174:270|202:295,1,140,2|2,0:0|0:0,0:0:0:0:
256,232,135435,1,0,0:0:0:0:
316,292,135668,2,0,B|339:271|339:271|331:207|365:169,1,140,2|2,0:0|0:0,0:0:0:0:
256,40,136598,6,0,L|180:52,1,70,2|0,0:0|0:0,0:0:0:0:
140,120,137063,2,0,L|64:132,1,70,2|0,0:0|0:0,0:0:0:0:
20,200,137528,2,0,L|89:210,1,70,2|0,0:0|0:0,0:0:0:0:
144,276,137993,2,0,L|213:286,1,70,2|0,0:0|0:0,0:0:0:0:
292,316,138458,2,0,P|272:348|244:366,2,70,2|0|2,0:0|0:0|0:0,0:0:0:0:
276,232,139156,1,0,0:0:0:0:
204,188,139389,2,0,P|172:168|153:140,2,70,2|0|2,0:0|0:0|0:0,0:0:0:0:
236,112,140086,6,0,B|272:120|304:96|304:96|336:120|368:112,1,140,2|2,0:0|0:0,0:0:0:0:
428,52,140784,2,0,P|452:112|420:180,1,140,2|2,0:0|0:0,0:0:0:0:
340,200,141482,2,0,L|268:212,1,70,2|2,0:0|0:0,0:0:0:0:
212,152,141947,2,0,P|188:212|220:280,1,140,2|2,0:0|0:0,0:0:0:0:
292,320,142644,2,0,B|328:320|364:308|364:308|392:320|432:320,1,140,2|2,0:0|0:0,0:0:0:0:
476,248,143342,1,2,0:0:0:0:
412,196,143575,1,2,0:0:0:0:
328,196,143807,1,2,0:0:0:0:
260,244,144040,1,4,0:0:0:0:
256,192,155203,12,4,157528,0:0:0:0:
348,72,157993,5,0,0:0:0:0:
412,124,158226,1,0,0:0:0:0:
348,176,158458,1,0,0:0:0:0:
412,228,158691,1,0,0:0:0:0:
348,280,158924,6,0,L|276:308,1,70,4|0,0:0|0:0,0:0:0:0:
276,220,159389,2,0,L|199:208,1,70,8|0,0:0|0:0,0:0:0:0:
144,268,159854,2,0,L|72:296,1,70,0|0,0:0|0:0,0:0:0:0:
24,228,160319,1,8,0:0:0:0:
24,228,160551,2,0,P|24:152|68:108,1,140,8|0,0:0|0:0,0:0:0:0:
124,48,161249,1,8,0:0:0:0:
192,100,161482,2,0,L|264:108,1,70
312,176,161947,2,0,L|384:184,1,70,0|8,0:0|0:0,0:0:0:0:
456,224,162412,6,0,P|456:304|412:348,1,140,8|0,0:0|0:0,0:0:0:0:
348,296,163110,1,8,0:0:0:0:
280,348,163342,2,0,B|236:328|208:348|180:368|140:344,1,140
84,288,164040,1,8,0:0:0:0:
40,216,164272,2,0,P|40:140|84:96,1,140,8|0,0:0|0:0,0:0:0:0:
116,176,164970,1,8,0:0:0:0:
188,216,165203,2,0,L|240:164,1,70
320,164,165668,2,0,L|372:112,1,70,0|8,0:0|0:0,0:0:0:0:
320,48,166133,6,0,P|256:28|188:48,1,140,8|0,0:0|0:0,0:0:0:0:
108,80,166831,2,0,P|124:112|156:136,1,70,8|0,0:0|0:0,0:0:0:0:
96,200,167296,2,0,P|125:219|165:224,1,70
224,172,167761,1,8,0:0:0:0:
284,228,167993,2,0,P|280:316|328:356,1,140,8|0,0:0|0:0,0:0:0:0:
352,276,168691,1,8,0:0:0:0:
420,228,168924,1,0,0:0:0:0:
352,180,169156,1,0,0:0:0:0:
428,144,169389,2,0,P|464:124|480:96,2,70,0|8|8,0:0|0:0|0:0,0:0:0:0:
404,64,170086,6,0,P|368:72|336:64,1,70
256,44,170551,2,0,P|228:104|260:168,2,140,8|0|8,0:0|0:0|0:0,0:0:0:0:
312,104,171714,2,0,P|340:164|308:228,1,140,8|0,0:0|0:0,0:0:0:0:
240,272,172412,2,0,B|200:280|172:260|172:260|140:280|100:272,1,140,8|0,0:0|0:0,0:0:0:0:
44,216,173110,1,0,0:0:0:0:
112,164,173342,1,8,0:0:0:0:
40,116,173575,1,8,0:0:0:0:
112,72,173807,6,0,P|180:100|204:160,2,140,0|8|0,0:0|0:0|0:0,0:0:0:0:
40,116,174970,1,0,0:0:0:0:
112,164,175203,1,8,0:0:0:0:
44,216,175435,2,0,P|44:292|88:336,1,140,8|0,0:0|0:0,0:0:0:0:
152,280,176133,1,8,0:0:0:0:
212,340,176365,2,0,L|284:332,1,70
316,256,176831,2,0,L|388:248,1,70,0|8,0:0|0:0,0:0:0:0:
448,192,177296,6,0,P|448:112|404:68,1,140,8|0,0:0|0:0,0:0:0:0:
340,120,177993,1,8,0:0:0:0:
276,68,178226,2,0,B|236:60|204:76|204:76|176:60|136:68,1,140
84,128,178924,1,8,0:0:0:0:
160,168,179156,2,0,P|152:240|196:288,1,140,8|0,0:0|0:0,0:0:0:0:
256,232,179854,1,8,0:0:0:0:
324,284,180086,1,0,0:0:0:0:
388,228,180319,2,0,P|416:200|428:168,1,70
344,152,180784,1,8,0:0:0:0:
284,96,181017,6,0,B|244:80|216:96|216:96|184:112|148:96,1,140,8|0,0:0|0:0,0:0:0:0:
88,40,181714,1,8,0:0:0:0:
28,96,181947,1,0,0:0:0:0:
92,152,182179,2,0,P|91:188|104:220,1,70
164,280,182644,1,8,0:0:0:0:
224,220,182877,2,0,P|288:244|356:216,1,140,8|0,0:0|0:0,0:0:0:0:
416,164,183575,1,8,0:0:0:0:
356,108,183807,1,0,0:0:0:0:
288,160,184040,1,0,0:0:0:0:
224,108,184272,2,0,P|231:73|224:36,2,70,0|8|8,0:0|0:0|0:0,0:0:0:0:
148,72,184970,6,0,P|96:120|96:188,2,140,0|8|0,0:0|0:0|0:0,0:0:0:0:
172,152,186133,1,0,0:0:0:0:
244,196,186365,1,8,0:0:0:0:
275,276,186598,2,0,P|323:227|320:160,1,140,8|0,0:0|0:0,0:0:0:0:
260,100,187296,2,0,P|320:72|384:104,1,140,8|0,0:0|0:0,0:0:0:0:
424,175,187993,2,0,P|450:151|464:120,2,70,0|8|8,0:0|0:0|0:0,0:0:0:0:
360,228,188691,1,4,0:0:0:0:
256,192,188807,12,0,190551,0:0:0:0:
