osu file format v14

[General]
AudioFilename: 08 - Cry for you - September.mp3
AudioLeadIn: 0
PreviewTime: 57290
Countdown: 1
SampleSet: None
StackLeniency: 0.2
Mode: 0
LetterboxInBreaks: 1
EpilepsyWarning: 1
WidescreenStoryboard: 0

[Editor]
Bookmarks: 7467,30083,57544,96083,106467,124006,154929,168313
DistanceSpacing: 0.8
BeatDivisor: 2
GridSize: 4
TimelineZoom: 1

[Metadata]
Title:Cry for You
TitleUnicode:
Artist:September
ArtistUnicode:
Creator:Sielana
Version:NM
Source:
Tags:Techno _Gezo_ Lolicore Flandre
BeatmapID:693444
BeatmapSetID:27420

[Difficulty]
HPDrainRate:4
CircleSize:3
OverallDifficulty:5
ApproachRate:5
SliderMultiplier:1
SliderTickRate:1

[Events]
//Background and Video events
0,0,"lonely.jpg",0,0
//Break Periods
2,88898,94883
2,155360,164575
//Storyboard Layer 0 (Background)
Sprite,Background,Centre,"bgbump[nmhd].jpg",320,240 L,59159,32 F,0,0,924,1,0.01449275 S,0,0,924,0.9999998,1.07168 L,125621,32 F,0,0,924,1,0.01449275 S,0,0,924,0.9999998,1.07168 L,169948,32 F,0,0,924,1,0.01449275 S,0,0,924,0.9999998,1.07168
Sprite,Background,Centre,"bgbump[nmhd].jpg",320,240 F,0,29621,30502,1,0.01449275 S,0,29621,30502,0.9999998,1.07168 F,0,88698,89579,1,0.01449275 S,0,88698,89579,0.9999998,1.07168 F,1,96083,96964,1,0.01449275 S,1,96083,96964,0.9999998,1.07168 F,0,155159,156040,1,0.01449275 S,0,155159,156040,0.9999998,1.07168 F,0,199467,200348,1,0.01449275 S,0,199467,200348,0.9999998,1.07168 F,0,205006,205887,1,0.01449275 S,0,205006,205887,0.9999998,1.07168
Sprite,Background,Centre,"glleft.png",47,60 L,59159,32 F,1,0,924,1,0 S,1,0,924,1,1.02 L,89159,3 F,1,0,924,1,0 S,1,0,924,1,1.02 L,92852,3 F,1,0,924,1,0 S,1,0,924,1,1.02 L,125621,32 F,1,0,924,1,0 S,1,0,924,1,1.02 L,169929,32 F,1,0,924,1,0 S,1,0,924,1,1.02 L,199006,7 F,1,0,924,1,0 S,1,0,924,1,1.02
Sprite,Background,Centre,"glleft.png",47,60 F,1,88698,89579,1,0.01449275 S,1,88698,89579,0.9999998,1.07168 F,1,91698,92160,1,0.01449275 S,1,91698,92160,0.9999998,1.07168 F,1,95407,95869,1,0.01449275 S,1,95407,95869,0.9999998,1.07168 F,1,96083,96964,1,0.01449275 S,1,96083,96964,0.9999998,1.07168 F,0,155159,156040,1,0.01449275 S,0,155159,156040,0.9999998,1.07168 F,0,199467,200348,1,0.01449275 S,0,199467,200348,0.9999998,1.07168 F,0,205006,206287,1,0.01449275 S,0,205006,206287,0.9999998,1.07168
Sprite,Background,Centre,"glright.png",593,240 L,59159,32 F,1,0,924,1,0 S,1,0,924,1,1.02 L,89159,3 F,1,0,924,1,0 S,1,0,924,1,1.02 L,92852,3 F,1,0,924,1,0 S,1,0,924,1,1.02 L,125621,32 F,1,0,924,1,0 S,1,0,924,1,1.02 L,169929,32 F,1,0,924,1,0 S,1,0,924,1,1.02 L,199006,7 F,1,0,924,1,0 S,1,0,924,1,1.02
Sprite,Background,Centre,"glright.png",593,240 F,1,88698,89579,1,0.01449275 S,1,88698,89579,0.9999998,1.07168 F,1,91929,92391,1,0.01449275 S,1,91929,92391,0.9999998,1.07168 F,1,95621,96083,1,0.01449275 S,1,95621,96083,0.9999998,1.07168 F,1,96083,96964,1,0.01449275 S,1,96083,96964,0.9999998,1.07168 F,0,155159,156040,1,0.01449275 S,0,155159,156040,0.9999998,1.07168 F,0,199467,200348,1,0.01449275 S,0,199467,200348,0.9999998,1.07168 F,0,205006,206287,1,0.01449275 S,0,205006,206287,0.9999998,1.07168
//Storyboard Layer 1 (Fail)
//Storyboard Layer 2 (Pass)
//Storyboard Layer 3 (Foreground)
//Storyboard Sound Samples

[TimingPoints]
83,461.538461538462,4,1,0,30,1,0
55986,-133.333333333333,4,1,0,30,0,0
57521,-100,4,2,0,30,0,1
58006,-100,4,2,0,40,0,1
58467,-100,4,2,0,50,0,1
59528,-100,4,1,0,50,0,1
88591,-100,4,1,0,30,0,0
95910,-100,4,2,0,30,0,0
103236,-100,4,1,0,30,0,0
110136,-100,4,1,0,40,0,0
122621,-133.333333333333,4,1,0,40,0,0
123978,-100,4,1,0,30,0,1
124467,-100,4,1,0,40,0,1
124929,-100,4,1,0,50,0,1
154906,-100,4,1,0,30,0,0
168290,-100,4,2,0,30,0,1
168775,-100,4,2,0,40,0,1
169236,-100,4,2,0,50,0,1
169617,-100,4,1,0,50,0,1
198060,-100,4,1,0,40,0,0

[Colours]
Combo1 : 255,0,0
Combo2 : 0,255,0
Combo3 : 0,0,255

[HitObjects]
144,232,7467,1,0,0:0:0:0:
144,232,7929,2,0,B|156:287|229:297,1,100
300,296,8852,1,0,0:0:0:0:
300,296,9313,2,0,B|355:283|380:212,1,100
348,144,10236,2,0,B|232:76|144:152,1,200
128,252,11621,5,0,0:0:0:0:
256,316,12083,1,0,0:0:0:0:
384,252,12544,1,0,0:0:0:0:
256,42,13236,6,0,B|256:92,1,50
256,172,13929,2,0,B|256:276,2,100,8|8|4,0:0|0:0|0:0,0:0:0:0:
148,112,15313,6,0,B|140:52|60:40,1,100,8|0,0:0|0:0,0:0:0:0:
148,112,16236,2,0,B|92:87|40:150,1,100,8|0,0:0|0:0,0:0:0:0:
148,112,17159,2,0,B|94:140|110:219,1,100,8|0,0:0|0:0,0:0:0:0:
160,276,18083,5,8,0:0:0:0:
256,328,18544,1,0,0:0:0:0:
352,276,19006,1,8,0:0:0:0:
404,196,19467,6,0,B|417:140|364:112,1,100,0|8,0:0|0:0,0:0:0:0:
454,136,20390,2,0,B|418:90|362:114,1,100,0|8,0:0|0:0,0:0:0:0:
431,48,21313,2,0,B|373:55|365:115,1,100,0|8,0:0|0:0,0:0:0:0:
332,208,22236,5,4,0:0:0:0:
256,288,22698,1,8,0:0:0:0:
180,208,23159,1,4,0:0:0:0:
256,124,23621,2,0,B|256:20,2,100,8|0|8,0:0|0:0|0:0,0:0:0:0:
256,208,25006,1,0,0:0:0:0:
256,208,25467,2,0,B|256:312,1,100,8|0,0:0|0:0,0:0:0:0:
176,344,26390,6,0,B|120:336|96:260,2,100,8|0|8,0:0|0:0|0:0,0:0:0:0:
176,344,27775,1,0,0:0:0:0:
256,344,28236,1,8,0:0:0:0:
336,344,28698,2,0,B|392:336|416:260,2,100,0|8|4,0:0|0:0|0:0,0:0:0:0:
256,272,30082,5,8,0:0:0:0:
256,184,30544,1,0,0:0:0:0:
208,96,31006,2,0,B|88:96,2,100,8|0|8,0:0|0:0|0:0,0:0:0:0:
304,96,32390,2,0,B|424:96,2,100,0|8|0,0:0|0:0|0:0,0:0:0:0:
216,96,33775,1,8,0:0:0:0:
128,96,34236,6,0,B|68:112|48:168,1,100,0|8,0:0|0:0,0:0:0:0:
48,264,35159,1,0,0:0:0:0:
140,332,35621,2,0,B|256:204|316:340|416:224,1,300,8|0,0:0|0:0,0:0:0:0:
459,156,37467,2,0,B|444:112|384:92,3,100,8|0|8|0,0:0|0:0|0:0|0:0,0:0:0:0:
332,184,39313,5,8,0:0:0:0:
256,96,39775,1,0,0:0:0:0:
180,184,40236,1,8,0:0:0:0:
124,92,40698,2,0,B|67:72|51:28,3,100,0|8|0|8,0:0|0:0|0:0|0:0,0:0:0:0:
132,156,42544,5,0,0:0:0:0:
196,232,43006,1,8,0:0:0:0:
136,304,43467,1,0,0:0:0:0:
92,232,44159,2,0,B|36:232,2,50
92,320,45083,2,0,B|28:320,2,50
176,320,46006,6,0,B|176:270,1,50
236,272,46467,2,0,B|236:322,1,50,0|8,0:0|0:0,0:0:0:0:
288,320,46929,2,0,B|288:248,1,50
348,272,47390,2,0,B|348:322,1,50,8|8,0:0|0:0,0:0:0:0:
420,320,48083,6,0,B|484:320,2,50,0|0|8,0:0|0:0|0:0,0:0:0:0:
420,232,49006,2,0,B|476:232,3,50,0|0|8|0,0:0|0:0|0:0|0:0,0:0:0:0:
376,128,51544,6,0,B|376:32,2,50
312,192,52236,1,8,0:0:0:0:
256,252,52467,2,0,B|256:302,2,50,0|0|0,0:0|0:0|0:0,0:0:0:0:
192,192,53159,1,8,0:0:0:0:
136,128,53390,6,0,B|136:32,2,50
68,192,54083,1,8,0:0:0:0:
48,276,54544,2,0,B|56:328|136:356,1,100,0|8,0:0|0:0,0:0:0:0:
208,348,55467,1,0,0:0:0:0:
304,348,55929,1,8,0:0:0:0:
399,346,56390,2,0,B|456:328|464:276,1,100,0|4,0:0|0:0,0:0:0:0:
384,172,57544,6,0,B|384:232,1,50
336,208,58006,2,0,B|336:260,1,50
288,248,58467,2,0,B|288:304,1,50
256,272,58929,6,0,B|256:336,2,50,0|4|0,0:0|0:0|0:0,0:0:0:0:
256,272,59621,1,8,0:0:0:0:
256,112,60083,2,0,B|256:48,1,50
256,112,60544,1,8,0:0:0:0:
124,192,61006,2,0,B|60:192,1,50
124,192,61467,1,8,0:0:0:0:
172,280,61929,5,0,0:0:0:0:
256,340,62390,1,8,0:0:0:0:
340,280,62852,1,0,0:0:0:0:
255,244,63313,2,0,B|272:220|212:192|256:152,2,100,8|0|8,0:0|0:0|0:0,0:0:0:0:
336,312,64698,6,0,B|384:348|452:296,2,100,0|8|0,0:0|0:0|0:0,0:0:0:0:
176,312,66083,2,0,B|128:348|60:296,2,100,8|4|8,0:0|0:0|0:0,0:0:0:0:
256,288,67467,1,0,0:0:0:0:
256,288,67929,1,8,0:0:0:0:
192,192,68390,6,0,B|132:192,1,50
142,192,68852,1,8,0:0:0:0:
320,192,69313,2,0,B|380:192,1,50
370,192,69775,1,8,0:0:0:0:
340,104,70236,5,0,0:0:0:0:
256,44,70698,1,8,0:0:0:0:
172,104,71159,1,0,0:0:0:0:
100,176,71621,2,0,B|72:220|72:220|68:280,2,100,8|0|8,0:0|0:0|0:0,0:0:0:0:
256,192,73006,5,0,0:0:0:0:
412,176,73467,2,0,B|440:220|440:220|444:280,2,100,8|4|8,0:0|0:0|0:0,0:0:0:0:
348,116,74852,2,0,B|256:48|148:116,1,200
256,192,76236,5,8,0:0:0:0:
256,192,76467,1,0,0:0:0:0:
256,192,76698,1,0,0:0:0:0:
256,192,77159,5,8,0:0:0:0:
160,275,77621,2,0,B|256:336|348:268,1,200
428,300,79006,1,0,0:0:0:0:
428,300,79236,1,0,0:0:0:0:
428,300,79467,1,0,0:0:0:0:
432,204,79929,5,8,0:0:0:0:
408,120,80390,2,0,B|388:72|316:52,1,100,0|8,0:0|0:0,0:0:0:0:
256,48,81313,1,4,0:0:0:0:
178,57,81775,2,0,B|124:72|104:120,1,100,8|0,0:0|0:0,0:0:0:0:
80,204,82698,1,8,0:0:0:0:
96,292,83159,1,0,0:0:0:0:
96,292,83390,1,0,0:0:0:0:
96,292,83621,1,8,0:0:0:0:
195,263,84083,6,0,B|248:252|256:192,1,100,0|8,0:0|0:0,0:0:0:0:
327,252,85006,2,0,B|316:200|256:192,1,100,0|8,0:0|0:0,0:0:0:0:
316,120,85929,2,0,B|264:132|256:192,1,100,0|8,0:0|0:0,0:0:0:0:
184,131,86852,2,0,B|196:184|256:192,1,100,0|8,0:0|0:0,0:0:0:0:
376,252,87775,1,0,0:0:0:0:
256,336,88236,1,8,0:0:0:0:
136,252,88698,1,4,0:0:0:0:
256,192,96083,5,4,0:0:0:0:
256,192,96544,1,0,0:0:0:0:
340,124,97006,1,0,0:0:0:0:
340,124,97467,6,0,B|368:76|368:76|432:56,2,100
336,256,98852,2,0,B|384:284|384:284|404:348,2,100
256,192,100236,1,0,0:0:0:0:
256,192,100698,1,0,0:0:0:0:
172,124,101159,6,0,B|144:76|144:76|80:56,2,100
176,256,102544,2,0,B|128:284|128:284|108:348,2,100
176,256,103929,1,8,0:0:0:0:
256,296,104390,2,0,B|256:356,2,50,0|0|8,0:0|0:0|0:0,0:0:0:0:
336,256,105313,5,0,0:0:0:0:
400,192,105775,2,0,B|460:192,1,50,8|0,0:0|0:0,0:0:0:0:
400,192,106236,1,0,0:0:0:0:
336,128,106698,1,8,0:0:0:0:
256,88,107159,2,0,B|256:28,2,50,0|0|8,0:0|0:0|0:0,0:0:0:0:
176,128,108083,5,0,0:0:0:0:
112,192,108544,2,0,B|52:192,1,50,8|0,0:0|0:0,0:0:0:0:
112,192,109006,1,0,0:0:0:0:
176,256,109467,1,8,0:0:0:0:
336,88,110621,6,0,B|392:156,2,50
176,296,111544,2,0,B|120:228,2,50,0|0|0,0:0|0:0|0:0,0:0:0:0:
256,192,112467,6,0,B|292:156,1,50
256,192,112929,2,0,B|292:228,1,50,0|8,0:0|0:0,0:0:0:0:
256,192,113390,2,0,B|220:228,1,50
256,192,113852,2,0,B|220:156,1,50,0|8,0:0|0:0,0:0:0:0:
176,88,114544,6,0,B|120:156,2,50,0|0|8,0:0|0:0|0:0,0:0:0:0:
336,296,115467,2,0,B|392:228,3,50,0|0|8|0,0:0|0:0|0:0|0:0,0:0:0:0:
128,312,118006,6,0,B|60:312,1,50
128,312,118467,1,0,0:0:0:0:
256,220,118929,2,0,B|256:170,2,50,0|0|0,0:0|0:0|0:0,0:0:0:0:
383,324,119852,2,0,B|428:300|428:300|440:252,1,100
440,252,120544,1,8,0:0:0:0:
440,152,121006,6,0,B|432:100|352:72,1,100,0|8,0:0|0:0,0:0:0:0:
304,144,121929,1,0,0:0:0:0:
208,144,122390,1,8,0:0:0:0:
128,80,122852,2,0,B|72:99|64:139,1,74.9999977648259,0|8,0:0|0:0,0:0:0:0:
128,212,124006,6,0,B|128:152,1,50
176,176,124468,2,0,B|176:124,1,50
224,144,124929,2,0,B|224:88,1,50
256,120,125391,6,0,B|256:56,2,50,0|4|0,0:0|0:0|0:0,0:0:0:0:
256,120,126083,1,8,0:0:0:0:
256,272,126545,2,0,B|256:336,1,50
256,272,127006,1,8,0:0:0:0:
388,192,127468,2,0,B|452:192,1,50
388,192,127929,1,8,0:0:0:0:
340,104,128391,5,0,0:0:0:0:
256,44,128852,1,8,0:0:0:0:
172,104,129314,1,0,0:0:0:0:
257,140,129775,2,0,B|240:164|300:192|256:232,2,100,8|0|8,0:0|0:0|0:0,0:0:0:0:
176,72,131160,6,0,B|128:36|60:88,2,100,0|8|0,0:0|0:0|0:0,0:0:0:0:
336,72,132544,2,0,B|384:36|452:88,2,100,8|4|8,0:0|0:0|0:0,0:0:0:0:
256,96,133929,1,0,0:0:0:0:
256,96,134391,1,8,0:0:0:0:
320,192,134852,6,0,B|380:192,1,50
370,192,135314,1,8,0:0:0:0:
192,192,135775,2,0,B|132:192,1,50
142,192,136237,1,8,0:0:0:0:
172,280,136698,1,0,0:0:0:0:
256,340,137160,1,8,0:0:0:0:
340,280,137621,1,0,0:0:0:0:
412,208,138083,2,0,B|440:164|440:164|444:104,2,100,8|0|8,0:0|0:0|0:0,0:0:0:0:
256,192,139468,5,0,0:0:0:0:
100,208,139929,2,0,B|72:164|72:164|68:104,2,100,8|4|8,0:0|0:0|0:0,0:0:0:0:
164,268,141314,2,0,B|256:336|364:268,1,200
304,192,142698,5,8,0:0:0:0:
208,192,143160,1,0,0:0:0:0:
304,192,143621,1,8,0:0:0:0:
352,109,144083,2,0,B|256:48|164:116,1,200
84,84,145467,1,0,0:0:0:0:
84,84,145698,1,0,0:0:0:0:
84,84,145929,1,0,0:0:0:0:
80,180,146391,5,8,0:0:0:0:
104,264,146852,2,0,B|124:312|196:332,1,100,0|8,0:0|0:0,0:0:0:0:
256,336,147775,1,4,0:0:0:0:
334,327,148237,2,0,B|388:312|408:264,1,100,8|0,0:0|0:0,0:0:0:0:
432,180,149160,1,8,0:0:0:0:
432,80,149621,1,0,0:0:0:0:
432,80,149852,1,0,0:0:0:0:
432,80,150083,1,8,0:0:0:0:
356,136,150545,6,0,B|303:147|295:207,1,100,0|8,0:0|0:0,0:0:0:0:
236,136,151468,2,0,B|202:180|215:239,1,100,0|8,0:0|0:0,0:0:0:0:
132,192,152391,2,0,B|121:244|164:312,1,100,0|8,0:0|0:0,0:0:0:0:
104,352,153314,2,0,B|68:324|56:260,1,100,0|8,0:0|0:0,0:0:0:0:
56,180,154237,1,0,0:0:0:0:
104,100,154698,1,8,0:0:0:0:
180,48,155160,1,4,0:0:0:0:
256,192,165775,12,4,168083,0:0:0:0:
152,140,168544,6,0,B|152:88|232:52,1,100
256,158,169236,2,0,B|256:208,2,50
303,63,169929,2,0,B|360:88|360:140,1,100,4|8,0:0|0:0,0:0:0:0:
404,208,170621,1,0,0:0:0:0:
404,208,170852,1,0,0:0:0:0:
404,208,171083,1,0,0:0:0:0:
444,276,171313,5,8,0:0:0:0:
444,276,171544,2,0,B|400:332,1,50
316,292,172236,1,8,0:0:0:0:
316,292,172698,2,0,B|320:244|292:176,1,100,0|8,0:0|0:0,0:0:0:0:
212,194,173621,2,0,B|192:244|196:292,1,100,0|8,0:0|0:0,0:0:0:0:
195,291,174544,1,0,0:0:0:0:
100,316,175006,1,8,0:0:0:0:
100,316,175237,2,0,B|52:252,1,50
56,180,175929,6,0,B|56:56,1,100,8|0,0:0|0:0,0:0:0:0:
128,152,176852,2,0,B|128:28,1,100,8|4,0:0|0:0,0:0:0:0:
204,128,177775,2,0,B|204:4,2,100,8|0|8,0:0|0:0|0:0,0:0:0:0:
256,192,179159,1,0,0:0:0:0:
308,256,179621,6,0,B|308:356,2,100,8|0|8,0:0|0:0|0:0,0:0:0:0:
388,232,181006,2,0,B|388:332,1,100,0|8,0:0|0:0,0:0:0:0:
468,204,181929,2,0,B|468:304,2,100,0|8|0,0:0|0:0|0:0,0:0:0:0:
408,128,183313,5,8,0:0:0:0:
332,72,183775,1,0,0:0:0:0:
256,124,184236,2,0,B|256:208,2,50,8|0|4,0:0|0:0|0:0,0:0:0:0:
180,72,185159,1,8,0:0:0:0:
104,128,185621,1,0,0:0:0:0:
48,208,186083,6,0,B|8:264|64:324,1,100,8|0,0:0|0:0,0:0:0:0:
46,301,187006,1,8,0:0:0:0:
128,248,187467,1,0,0:0:0:0:
208,192,187929,2,0,B|332:192,1,100,8|0,0:0|0:0,0:0:0:0:
376,136,188852,5,8,0:0:0:0:
466,83,189313,1,0,0:0:0:0:
465,82,189775,2,0,B|504:128|464:176,1,100,0|0,0:0|0:0,0:0:0:0:
256,192,190698,12,8,193467,0:0:0:0:
256,192,194390,5,8,0:0:0:0:
176,136,194852,2,0,B|160:80|96:72,2,100,0|8|0,0:0|0:0|0:0,0:0:0:0:
256,192,196236,1,8,0:0:0:0:
336,135,196698,2,0,B|352:80|406:73,2,100,0|8|0,0:0|0:0|0:0,0:0:0:0:
336,232,198083,2,0,B|336:336,1,100,8|0,0:0|0:0,0:0:0:0:
256,292,199006,1,8,0:0:0:0:
172,332,199467,6,0,B|172:232,1,100,4|8,0:0|0:0,0:0:0:0:
80,192,200390,1,0,0:0:0:0:
128,120,200852,2,0,B|164:84|164:84|228:72,1,100,8|0,0:0|0:0,0:0:0:0:
256,160,201775,1,8,0:0:0:0:
299,74,202236,2,0,B|348:84|348:84|384:120,1,100,0|8,0:0|0:0,0:0:0:0:
432,192,203159,5,0,0:0:0:0:
340,264,203621,1,8,0:0:0:0:
256,332,204083,1,0,0:0:0:0:
172,264,204544,1,8,0:0:0:0:
80,192,205006,1,4,0:0:0:0:
