osu file format v14

[General]
AudioFilename: 08 - Cry for you - September.mp3
AudioLeadIn: 0
PreviewTime: 57544
Countdown: 1
SampleSet: Normal
StackLeniency: 0.7
Mode: 0
LetterboxInBreaks: 1
EpilepsyWarning: 1
WidescreenStoryboard: 0

[Editor]
Bookmarks: 7467,14852,30775,43929,57313,73929,88698,96083,110159,123775,140390,155159,162083,168313,184698,199236
DistanceSpacing: 1.2
BeatDivisor: 8
GridSize: 4
TimelineZoom: 1

[Metadata]
Title:Cry for You
TitleUnicode:
Artist:September
ArtistUnicode:
Creator:Sielana
Version:HD
Source:
Tags:Techno _Gezo_ Lolicore Flandre
BeatmapID:106802
BeatmapSetID:27420

[Difficulty]
HPDrainRate:7
CircleSize:4
OverallDifficulty:7
ApproachRate:6
SliderMultiplier:2
SliderTickRate:2

[Events]
//Background and Video events
0,0,"lonely.jpg",0,0
//Break Periods
2,15052,21186
2,22898,28571
//Storyboard Layer 0 (Background)
Sprite,Background,Centre,"bgbump[nmhd].jpg",320,240 L,59159,32 F,0,0,924,1,0.01449275 S,0,0,924,0.9999998,1.07168 L,125621,32 F,0,0,924,1,0.01449275 S,0,0,924,0.9999998,1.07168 L,169948,32 F,0,0,924,1,0.01449275 S,0,0,924,0.9999998,1.07168
Sprite,Background,Centre,"bgbump[nmhd].jpg",320,240 F,0,29621,30502,1,0.01449275 S,0,29621,30502,0.9999998,1.07168 F,0,88698,89579,1,0.01449275 S,0,88698,89579,0.9999998,1.07168 F,1,96083,96964,1,0.01449275 S,1,96083,96964,0.9999998,1.07168 F,0,155159,156040,1,0.01449275 S,0,155159,156040,0.9999998,1.07168 F,0,199467,200348,1,0.01449275 S,0,199467,200348,0.9999998,1.07168 F,0,205006,205887,1,0.01449275 S,0,205006,205887,0.9999998,1.07168
Sprite,Background,Centre,"glleft.png",47,60 L,59159,32 F,1,0,924,1,0 S,1,0,924,1,1.02 L,89159,3 F,1,0,924,1,0 S,1,0,924,1,1.02 L,92852,3 F,1,0,924,1,0 S,1,0,924,1,1.02 L,125621,32 F,1,0,924,1,0 S,1,0,924,1,1.02 L,169929,32 F,1,0,924,1,0 S,1,0,924,1,1.02 L,199006,7 F,1,0,924,1,0 S,1,0,924,1,1.02
Sprite,Background,Centre,"glleft.png",47,60 F,1,88698,89579,1,0.01449275 S,1,88698,89579,0.9999998,1.07168 F,1,91698,92160,1,0.01449275 S,1,91698,92160,0.9999998,1.07168 F,1,95407,95869,1,0.01449275 S,1,95407,95869,0.9999998,1.07168 F,1,96083,96964,1,0.01449275 S,1,96083,96964,0.9999998,1.07168 F,0,155159,156040,1,0.01449275 S,0,155159,156040,0.9999998,1.07168 F,0,199467,200348,1,0.01449275 S,0,199467,200348,0.9999998,1.07168 F,0,205006,206287,1,0.01449275 S,0,205006,206287,0.9999998,1.07168
Sprite,Background,Centre,"glright.png",593,240 L,59159,32 F,1,0,924,1,0 S,1,0,924,1,1.02 L,89159,3 F,1,0,924,1,0 S,1,0,924,1,1.02 L,92852,3 F,1,0,924,1,0 S,1,0,924,1,1.02 L,125621,32 F,1,0,924,1,0 S,1,0,924,1,1.02 L,169929,32 F,1,0,924,1,0 S,1,0,924,1,1.02 L,199006,7 F,1,0,924,1,0 S,1,0,924,1,1.02
Sprite,Background,Centre,"glright.png",593,240 F,1,88698,89579,1,0.01449275 S,1,88698,89579,0.9999998,1.07168 F,1,91929,92391,1,0.01449275 S,1,91929,92391,0.9999998,1.07168 F,1,95621,96083,1,0.01449275 S,1,95621,96083,0.9999998,1.07168 F,1,96083,96964,1,0.01449275 S,1,96083,96964,0.9999998,1.07168 F,0,155159,156040,1,0.01449275 S,0,155159,156040,0.9999998,1.07168 F,0,199467,200348,1,0.01449275 S,0,199467,200348,0.9999998,1.07168 F,0,205006,206287,1,0.01449275 S,0,205006,206287,0.9999998,1.07168
//Storyboard Layer 1 (Fail)
//Storyboard Layer 2 (Pass)
//Storyboard Layer 3 (Foreground)
//Storyboard Sound Samples

[TimingPoints]
83,461.538461538462,4,1,0,30,1,0
57544,-100,4,1,0,30,0,0
58006,-100,4,1,0,40,0,0
58467,-100,4,1,0,50,0,0
59159,-100,4,1,0,50,0,1
73813,-100,4,1,0,50,0,0
73928,-100,4,1,0,50,0,1
88698,-100,4,1,0,30,0,0
110159,-100,4,1,0,40,0,0
124006,-100,4,1,0,30,0,0
124467,-100,4,1,0,40,0,0
124929,-100,4,1,0,50,0,0
125621,-100,4,1,0,50,0,1
140275,-100,4,1,0,50,0,0
140390,-100,4,1,0,50,0,1
155159,-100,4,1,0,30,0,0
168313,-100,4,1,0,30,0,0
168775,-100,4,1,0,40,0,0
169236,-100,4,1,0,50,0,0
169929,-100,4,1,0,50,0,1
184583,-100,4,1,0,50,0,0
184698,-100,4,1,0,50,0,1
198083,-100,4,1,0,40,0,0

[Colours]
Combo1 : 0,87,130
Combo2 : 252,124,150
Combo3 : 0,128,192

[HitObjects]
148,96,7467,5,0,0:0:0:0:
352,96,7929,1,0,0:0:0:0:
256,192,8390,1,0,0:0:0:0:
208,280,8621,2,0,B|268:308|324:268,1,100
256,92,9313,1,0,0:0:0:0:
424,76,9775,2,0,B|460:120|460:172,1,100
100,76,10467,2,0,B|64:116|52:168,1,100
256,192,11159,5,0,0:0:0:0:
216,40,11621,2,0,B|144:44|112:88,1,100
256,124,12083,1,0,0:0:0:0:
256,248,12313,1,0,0:0:0:0:
256,248,12429,2,0,L|256:312,1,50
256,192,13006,5,0,0:0:0:0:
392,40,13467,2,0,B|448:68|460:120,1,100
368,180,13929,1,8,0:0:0:0:
368,212,14044,2,0,L|368:276,2,50
368,180,14390,1,8,0:0:0:0:
144,192,14621,1,0,0:0:0:0:
256,192,14852,1,4,0:0:0:0:
256,192,22236,5,4,0:0:0:0:
256,192,22698,1,12,0:0:0:0:
256,192,29621,5,4,0:0:0:0:
256,192,30083,1,12,0:0:0:0:
72,116,30775,5,0,0:0:0:0:
180,60,31006,1,8,0:0:0:0:
252,156,31236,1,0,0:0:0:0:
136,192,31467,2,0,P|160:232|212:260,1,100
88,284,31929,1,8,0:0:0:0:
216,336,32159,1,0,0:0:0:0:
192,220,32390,1,0,0:0:0:0:
76,184,32621,1,0,0:0:0:0:
148,88,32852,1,8,0:0:0:0:
76,184,33083,1,0,0:0:0:0:
256,192,33775,5,8,0:0:0:0:
492,136,34467,5,0,0:0:0:0:
392,68,34698,1,8,0:0:0:0:
492,136,34929,1,0,0:0:0:0:
380,176,35159,1,0,0:0:0:0:
472,256,35390,1,0,0:0:0:0:
380,176,35621,1,8,0:0:0:0:
256,192,35852,2,0,B|244:268|144:320|60:260|40:184,1,300,0|8,0:0|0:0,0:0:0:0:
40,184,36775,1,0,0:0:0:0:
256,192,37467,5,8,0:0:0:0:
376,132,38159,5,0,0:0:0:0:
292,216,38390,1,8,0:0:0:0:
232,112,38621,1,0,0:0:0:0:
112,116,38852,2,0,B|104:184|136:268|192:296,1,200,0|8,0:0|0:0,0:0:0:0:
300,260,39544,1,0,0:0:0:0:
380,172,39775,1,0,0:0:0:0:
420,284,40006,1,0,0:0:0:0:
300,260,40236,1,8,0:0:0:0:
284,140,40467,2,0,L|232:140,2,50
256,192,41159,5,8,0:0:0:0:
136,72,41852,5,0,0:0:0:0:
256,72,42083,1,8,0:0:0:0:
376,72,42313,1,0,0:0:0:0:
136,164,42544,1,0,0:0:0:0:
256,164,42775,1,0,0:0:0:0:
376,164,43006,1,8,0:0:0:0:
136,264,43236,1,0,0:0:0:0:
256,264,43467,1,0,0:0:0:0:
376,264,43698,1,0,0:0:0:0:
216,328,43929,2,0,P|188:300|188:240,1,100,8|0,0:0|0:0,0:0:0:0:
185,120,44390,6,0,L|256:192,1,100
185,262,44852,2,0,L|256:192,1,100,8|0,0:0|0:0,0:0:0:0:
332,116,45313,2,0,L|256:192,1,100
326,262,45775,2,0,B|256:192,1,100,8|0,0:0|0:0,0:0:0:0:
184,120,46467,1,0,0:0:0:0:
328,120,46698,1,8,0:0:0:0:
256,192,46929,1,0,0:0:0:0:
328,272,47159,1,0,0:0:0:0:
184,272,47390,1,0,0:0:0:0:
256,192,47621,1,8,0:0:0:0:
148,136,47852,6,0,B|148:248,1,100
368,132,48313,2,0,B|368:248,1,100,0|8,0:0|0:0,0:0:0:0:
204,60,48775,2,0,B|320:60,1,100
204,296,49236,2,0,B|320:296,1,100,0|8,0:0|0:0,0:0:0:0:
256,192,49698,1,0,0:0:0:0:
256,192,50390,5,8,0:0:0:0:
256,192,51313,5,8,0:0:0:0:
192,48,51544,5,0,0:0:0:0:
256,112,51775,1,0,0:0:0:0:
328,48,52006,1,0,0:0:0:0:
256,192,52236,1,8,0:0:0:0:
180,328,52467,1,0,0:0:0:0:
256,268,52698,1,0,0:0:0:0:
328,328,52929,1,0,0:0:0:0:
256,112,53159,1,8,0:0:0:0:
256,192,53390,5,0,0:0:0:0:
148,120,53852,1,0,0:0:0:0:
360,120,54083,1,8,0:0:0:0:
148,252,54313,1,0,0:0:0:0:
360,252,54544,1,0,0:0:0:0:
256,120,54775,2,0,L|256:220,1,100,0|8,0:0|0:0,0:0:0:0:
80,304,55236,6,0,B|164:220,1,100
180,304,55698,2,0,B|264:220,1,100,0|8,0:0|0:0,0:0:0:0:
280,304,56159,2,0,B|364:220,1,100
380,304,56621,2,0,B|464:220,1,100,0|8,0:0|0:0,0:0:0:0:
256,192,57083,1,0,0:0:0:0:
256,192,57544,12,4,58929,0:0:0:0:
256,192,59159,6,0,B|372:148|324:272|284:332|156:328|112:176|76:56|264:24|448:20|496:236|352:352|208:320,1,800
256,192,61467,5,8,0:0:0:0:
132,60,61698,5,0,0:0:0:0:
132,60,61929,2,0,P|84:76|60:120,1,100
380,60,62390,1,8,0:0:0:0:
380,60,62621,2,0,P|428:76|452:120,1,100
256,196,63313,1,8,0:0:0:0:
256,196,63544,2,0,B|328:196|368:256|268:324|124:312|116:176|180:68|320:88|368:192,1,500
256,84,64929,5,0,0:0:0:0:
152,140,65159,1,8,0:0:0:0:
392,140,65390,1,0,0:0:0:0:
192,228,65621,1,0,0:0:0:0:
324,228,65852,1,0,0:0:0:0:
256,312,66083,1,8,0:0:0:0:
256,192,66313,1,0,0:0:0:0:
256,36,66544,6,0,L|180:112,1,100
304,80,67006,2,8,L|228:156,1,100,8|0,0:0|0:0,0:0:0:0:
352,124,67467,2,0,L|276:200,1,100
404,160,67929,2,0,L|328:236,1,100,8|0,0:0|0:0,0:0:0:0:
256,192,68852,5,8,0:0:0:0:
256,304,69313,5,0,0:0:0:0:
172,136,69544,1,0,0:0:0:0:
332,136,69775,1,8,0:0:0:0:
172,248,70006,1,0,0:0:0:0:
332,248,70237,1,0,0:0:0:0:
256,80,70467,1,0,0:0:0:0:
256,192,70698,1,8,0:0:0:0:
