osu file format v12

[General]
AudioFilename: 01. .mp3
AudioLeadIn: 0
PreviewTime: -1
Countdown: 0
SampleSet: Soft
StackLeniency: 0.7
Mode: 0
LetterboxInBreaks: 1
WidescreenStoryboard: 1

[Editor]
Bookmarks: 30141,42891,75891,114891,132891,161391,167391,185391,209391,228516
DistanceSpacing: 0.1
BeatDivisor: 4
GridSize: 4

[Metadata]
Title:Yureru Koi Wa Nami Nogotoku
TitleUnicode:揺れる恋は波の如く
Artist:Senya
ArtistUnicode:Senya
Creator:OrangeNeKo
Version:Collab.
Source:Yuhei Katarushisu
Tags:Senya nya Senya nya Senya nya nya
BeatmapID:338448
BeatmapSetID:135046

[Difficulty]
HPDrainRate:7
CircleSize:4
OverallDifficulty:8
ApproachRate:9
SliderMultiplier:2.3
SliderTickRate:1

[Events]
//Background and Video events
0,0,"Cover.jpg",0,0
//Break Periods
2,38591,113728
2,160091,208791
//Storyboard Layer 0 (Background)
//Storyboard Layer 1 (Fail)
//Storyboard Layer 2 (Pass)
//Storyboard Layer 3 (Foreground)
//Storyboard Sound Samples
//Background Colour Transformations
3,100,163,162,255

[TimingPoints]
-609,375,4,2,2,80,1,0
891,-133.333333333333,4,1,1,60,0,0
984,-133.333333333333,4,2,1,80,0,0
3891,-133.333333333333,4,1,1,60,0,0
3984,-133.333333333333,4,2,1,80,0,0
4641,-133.333333333333,4,1,1,60,0,0
4734,-133.333333333333,4,2,1,80,0,0
5391,-100,4,2,1,80,0,0
6891,-100,4,1,1,80,0,0
6984,-100,4,2,1,80,0,0
9891,-100,4,1,1,80,0,0
9984,-100,4,2,1,80,0,0
11391,-100,4,1,1,80,0,0
11484,-100,4,2,1,80,0,0
12328,-100,4,2,1,20,0,0
12516,-100,4,2,1,40,0,0
12891,-80,4,1,1,80,0,1
12984,-80,4,2,1,60,0,1
13078,-80,4,2,1,80,0,1
15891,-80,4,1,1,80,0,1
15984,-80,4,2,1,80,0,1
18328,-80,4,2,1,20,0,1
18516,-80,4,2,1,40,0,1
18891,-100,4,1,1,60,0,1
19078,-100,4,2,1,80,0,1
23391,-100,4,1,1,60,0,0
23484,-100,4,2,1,80,0,0
23672,-100,4,1,1,60,0,0
23766,-100,4,2,1,80,0,0
23953,-100,4,1,1,60,0,0
24047,-100,4,2,1,80,0,0
24141,-100,4,1,1,60,0,0
24187,-100,4,2,1,20,0,0
24516,-100,4,2,1,40,0,0
24891,-80,4,1,1,80,0,1
24984,-80,4,2,1,60,0,1
25078,-80,4,2,1,80,0,1
27891,-80,4,1,1,80,0,1
27984,-80,4,2,1,80,0,1
30141,-80,4,2,1,20,0,1
30516,-80,4,2,1,40,0,1
30891,-100,4,1,1,60,0,1
30984,-100,4,2,1,80,0,1
33891,-100,4,1,1,60,0,1
33984,-100,4,2,1,80,0,1
35391,-133.333333333333,4,1,1,60,0,0
35484,-133.333333333333,4,2,1,80,0,0
35672,-133.333333333333,4,1,1,60,0,0
35766,-133.333333333333,4,2,1,80,0,0
36891,-133.333333333333,4,1,1,60,0,0
36984,-133.333333333333,4,2,1,80,0,0
38016,-133.333333333333,4,2,1,5,0,0
42891,-100,4,2,1,80,0,0
48891,-80,4,2,1,80,0,1
59391,-100,4,2,1,80,0,0
60891,-80,4,2,1,80,0,1
72891,-100,4,2,1,80,0,0
90891,-133.333333333333,4,2,1,80,0,0
96891,-80,4,2,1,80,0,1
108891,-133.333333333333,4,2,1,80,0,0
114891,-100,4,1,1,60,0,0
114984,-100,4,2,1,80,0,0
115641,-100,4,2,1,60,0,0
116016,-100,4,2,1,80,0,0
116391,-100,4,1,1,60,0,0
116484,-100,4,2,1,80,0,0
118641,-100,4,2,1,40,0,0
119016,-100,4,2,1,80,0,0
119391,-100,4,1,1,80,0,0
119484,-100,4,2,1,80,0,0
119766,-100,4,2,1,65,0,0
120141,-100,4,2,1,50,0,0
120516,-100,4,2,1,35,0,0
120891,-80,4,2,1,80,0,1
144891,-100,4,1,1,80,0,0
144984,-100,4,2,1,80,0,0
146391,-100,4,1,1,60,0,0
146484,-100,4,2,1,80,0,0
147891,-100,4,1,1,60,0,0
147984,-100,4,2,1,30,0,0
148266,-100,4,2,1,80,0,0
148453,-100,4,2,1,40,0,0
148734,-100,4,2,1,30,0,0
149016,-100,4,2,1,80,0,0
149391,-100,4,1,1,60,0,0
149484,-100,4,2,1,80,0,0
152391,-100,4,1,1,60,0,0
152484,-100,4,2,1,80,0,0
153703,-100,4,2,1,40,0,0
153891,-100,4,2,1,80,0,0
154078,-100,4,2,1,40,0,0
154266,-100,4,2,1,80,0,0
154641,-100,4,2,1,40,0,0
155016,-100,4,2,1,80,0,0
155391,-100,4,1,1,60,0,0
155484,-100,4,2,1,80,0,0
156891,-100,4,1,1,60,0,0
156984,-100,4,2,1,80,0,0
158391,-100,4,1,1,60,0,0
158484,-100,4,2,1,30,0,0
158766,-100,4,2,1,80,0,0
159141,-100,4,1,1,60,0,0
159234,-100,4,2,1,30,0,0
159234,-100,4,2,1,80,0,0
159516,-100,4,2,1,80,0,0
159891,-57.1428571428571,4,1,1,60,0,0
159984,-57.1428571428571,4,2,1,80,0,0
161016,-57.1428571428571,4,2,1,5,0,0
167391,-100,4,2,1,80,0,0
173391,-80,4,2,1,80,0,1
197391,-100,4,2,1,80,0,0
197766,-80,4,2,1,80,0,1
209391,-80,4,1,1,80,0,1
209484,-80,4,2,1,80,0,1
212391,-80,4,1,1,80,0,1
212484,-80,4,2,1,80,0,1
213516,-80,4,2,1,40,0,1
213703,-80,4,2,1,20,0,1
213891,-80,4,2,1,80,0,1
215391,-80,4,1,1,80,0,1
215484,-80,4,2,1,80,0,1
218391,-80,4,1,1,80,0,1
218484,-80,4,2,1,80,0,1
220078,-80,4,1,1,80,0,1
220172,-80,4,2,1,80,0,1
220641,-80,4,2,1,60,0,1
221016,-80,4,2,1,80,0,1
221391,-100,4,1,1,80,0,0
221484,-100,4,2,1,80,0,0
222891,-100,4,1,1,60,0,0
222984,-100,4,2,1,80,0,0
223641,-100,4,1,1,60,0,0
223734,-100,4,2,1,80,0,0
224391,-100,4,1,1,60,0,0
224484,-100,4,2,1,80,0,0
225891,-100,4,1,1,60,0,0
225984,-100,4,2,1,80,0,0
226641,-100,4,2,1,40,0,0
227391,-100,4,2,1,20,0,0
228141,-100,4,2,1,5,0,0

[Colours]
Combo1 : 71,186,248
Combo2 : 168,230,253

[HitObjects]
140,208,891,6,0,P|180:160|160:220,1,172.500006580353
48,192,1453,1,0,0:0:0:0:
48,192,1641,2,0,P|84:104|156:76,1,172.500006580353
264,116,2203,1,0,0:0:0:0:
264,116,2391,6,0,P|292:196|252:272,1,172.500006580353
140,304,2953,1,0,0:0:0:0:
128,328,3141,2,0,L|300:356,1,172.500006580353
292,236,3703,1,0,0:0:0:0:
276,216,3891,2,0,L|446:188,1,172.500006580353
424,308,4453,1,0,0:0:0:0:
372,200,4641,2,0,L|328:124,1,86.2500032901765
424,52,5016,2,0,L|468:128,1,86.2500032901765
308,92,5391,5,0,0:0:0:0:
80,172,5578,2,0,P|24:144|8:96,1,115
156,32,5953,1,0,0:0:0:0:
308,92,6141,1,0,0:0:0:0:
168,172,6328,6,0,L|148:144,1,28.75
192,160,6422,2,0,L|188:124,1,28.75
256,208,6516,6,0,L|288:188,1,28.75
240,224,6609,2,0,L|272:236,1,28.75
220,236,6703,6,0,P|212:296|168:332,1,115
24,268,7078,1,0,0:0:0:0:
172,331,7266,2,0,P|224:348|284:336,1,115
444,324,7641,6,0,P|392:304|364:252,1,115
472,132,8016,2,0,P|480:187|449:237,1,115
292,204,8391,2,0,P|368:152|452:236,1,230
292,204,8953,1,0,0:0:0:0:
136,164,9141,2,0,L|212:72,1,115
364,32,9516,2,0,L|296:124,1,115
136,164,9891,2,0,B|140:232|48:248|64:336|132:360,1,230
276,296,10453,1,0,0:0:0:0:
428,248,10641,2,0,L|424:368,1,115
276,296,11016,2,0,L|196:212,1,115
256,60,11391,5,0,0:0:0:0:
492,100,11578,1,0,0:0:0:0:
340,288,11766,1,0,0:0:0:0:
360,168,11953,2,0,P|420:212|428:252,1,115
276,296,12328,6,0,L|272:332,1,28.75
260,300,12422,2,0,L|248:336,1,28.75
244,300,12516,2,0,L|228:332,1,28.75
232,292,12609,2,0,L|208:324,1,28.75
224,280,12703,6,0,P|192:236|204:172,1,115
220,168,12984,1,0,0:0:0:0:
220,168,13078,1,0,0:0:0:0:
68,36,13266,2,0,L|32:176,1,143.75
136,348,13641,1,0,0:0:0:0:
120,148,13828,1,0,0:0:0:0:
284,28,14016,1,0,0:0:0:0:
304,228,14203,1,0,0:0:0:0:
120,148,14391,5,0,0:0:0:0:
120,148,14484,1,0,0:0:0:0:
120,148,14578,1,0,0:0:0:0:
320,148,14766,2,0,B|368:164|380:212|380:212|392:184|428:176,1,143.75
228,248,15140,1,0,0:0:0:0:
417,178,15328,1,0,0:0:0:0:
216,156,15515,1,0,0:0:0:0:
200,172,15609,1,0,0:0:0:0:
364,52,15797,1,0,0:0:0:0:
408,60,15891,6,0,P|447:125|414:180,1,143.75
339,216,16266,2,0,L|381:355,1,143.75
396,340,16547,1,0,0:0:0:0:
396,340,16641,1,0,0:0:0:0:
496,168,16828,1,0,0:0:0:0:
336,292,17016,1,0,0:0:0:0:
164,192,17203,1,0,0:0:0:0:
40,348,17391,2,0,B|76:356|76:356|72:312|156:284|156:284|156:292|156:292|200:236|188:168,1,287.5
256,364,17953,1,0,0:0:0:0:
88,248,18141,1,0,0:0:0:0:
152,56,18328,6,0,L|134:87,1,35.9375
152,56,18422,2,0,L|130:94,1,35.9375
152,56,18516,2,0,L|134:87,1,35.9375
152,56,18609,2,0,L|130:94,1,35.9375
152,56,18703,6,0,L|32:134,1,143.75
164,232,19078,1,0,0:0:0:0:
312,164,19266,2,0,L|224:80,1,115
164,232,19641,1,0,0:0:0:0:
296,324,19828,1,0,0:0:0:0:
312,164,20016,1,0,0:0:0:0:
164,232,20203,1,0,0:0:0:0:
296,324,20391,5,0,0:0:0:0:
328,276,20484,1,0,0:0:0:0:
360,228,20578,1,0,0:0:0:0:
300,76,20766,2,0,B|336:96|336:96|372:56|372:56|384:72,1,115
472,208,21141,1,0,0:0:0:0:
328,276,21328,1,0,0:0:0:0:
176,328,21516,1,0,0:0:0:0:
36,252,21703,1,0,0:0:0:0:
172,168,21891,5,0,0:0:0:0:
172,168,21984,1,0,0:0:0:0:
172,168,22078,1,0,0:0:0:0:
312,244,22266,2,0,L|208:184,1,115
64,124,22641,1,0,0:0:0:0:
212,64,22828,1,0,0:0:0:0:
360,124,23016,1,0,0:0:0:0:
512,68,23203,1,0,0:0:0:0:
360,124,23391,6,0,L|308:148,1,57.5
88,48,23672,5,0,0:0:0:0:
88,48,23766,1,0,0:0:0:0:
256,220,23953,5,0,0:0:0:0:
28,300,24141,6,0,L|8:334,1,28.75
28,300,24234,2,0,L|10:331,1,28.75
28,300,24328,2,0,L|10:331,1,28.75
28,300,24422,2,0,L|10:331,1,28.75
28,300,24516,2,0,L|10:331,1,28.75
28,300,24609,2,0,L|10:331,1,28.75
28,300,24703,6,0,P|78:331|136:328,1,115
168,292,24984,1,0,0:0:0:0:
168,292,25078,1,0,0:0:0:0:
56,124,25266,2,0,P|60:208|100:252,1,143.75
188,72,25641,1,0,0:0:0:0:
144,160,25828,1,0,0:0:0:0:
418,37,26016,1,0,0:0:0:0:
336,92,26203,1,0,0:0:0:0:
344,224,26391,5,0,0:0:0:0:
296,220,26484,1,0,0:0:0:0:
256,188,26578,1,0,0:0:0:0:
456,164,26766,2,0,L|448:312,1,143.75
256,364,27141,1,0,0:0:0:0:
288,336,27328,1,0,0:0:0:0:
164,176,27516,1,0,0:0:0:0:
168,196,27609,1,0,0:0:0:0:
76,376,27797,1,0,0:0:0:0:
40,340,27891,6,0,P|44:268|96:224,1,143.75
400,192,28266,2,0,B|332:204|332:204|328:216|328:216|264:228,1,143.75
232,204,28547,1,0,0:0:0:0:
232,204,28641,1,0,0:0:0:0:
80,72,28828,1,0,0:0:0:0:
204,232,29016,1,0,0:0:0:0:
156,36,29203,1,0,0:0:0:0:
164,236,29391,5,0,0:0:0:0:
392,40,29578,1,0,0:0:0:0:
140,208,29766,1,0,0:0:0:0:
428,116,29953,1,0,0:0:0:0:
316,148,30141,6,0,L|276:168,1,35.9375
296,132,30234,2,0,L|260:144,1,35.9375
284,112,30328,2,0,L|244:112,1,35.9375
276,88,30422,2,0,L|236:84,1,35.9375
340,36,30516,6,0,L|376:28,1,35.9375
352,56,30609,2,0,L|392:56,1,35.9375
360,80,30703,6,0,P|396:152|368:208,1,143.75
336,224,30984,1,0,0:0:0:0:
336,224,31078,1,0,0:0:0:0:
484,288,31266,2,0,B|472:340|420:360|420:360|440:364,1,115
280,320,31641,1,0,0:0:0:0:
124,360,31828,1,0,0:0:0:0:
64,208,32016,1,0,0:0:0:0:
220,168,32203,1,0,0:0:0:0:
176,264,32391,5,0,0:0:0:0:
176,264,32484,1,0,0:0:0:0:
176,264,32578,1,0,0:0:0:0:
324,196,32766,2,0,P|324:128|296:92,1,115
136,64,33141,1,0,0:0:0:0:
64,208,33328,1,0,0:0:0:0:
372,120,33516,1,0,0:0:0:0:
220,168,33703,1,0,0:0:0:0:
332,52,33891,5,0,0:0:0:0:
332,52,33984,1,0,0:0:0:0:
332,52,34078,1,0,0:0:0:0:
412,184,34266,2,0,B|458:164|458:164|464:152|464:152|512:128,1,115
380,292,34641,5,0,0:0:0:0:
132,92,34828,1,0,0:0:0:0:
132,292,35016,1,0,0:0:0:0:
380,92,35203,1,0,0:0:0:0:
372,284,35391,5,0,0:0:0:0:
140,100,35578,1,0,0:0:0:0:
140,100,35672,1,0,0:0:0:0:
140,100,35766,1,0,0:0:0:0:
140,284,35953,1,0,0:0:0:0:
372,100,36141,5,0,0:0:0:0:
196,148,36328,1,0,0:0:0:0:
196,148,36422,1,0,0:0:0:0:
196,148,36516,1,0,0:0:0:0:
312,236,36703,1,0,0:0:0:0:
140,284,36891,1,0,0:0:0:0:
256,192,37266,12,0,38391,0:0:0:0:
120,260,114328,6,0,P|104:304|72:324,2,86.2500032901765
80,104,114891,6,0,P|124:68|184:60,1,115
76,180,115266,2,0,P|132:170|188:193,1,115
308,296,115641,5,0,0:0:0:0:
308,296,115734,1,0,0:0:0:0:
308,296,115828,6,0,L|272:216,1,57.5
224,188,116016,2,0,L|276:160,1,57.5
356,152,116203,2,0,L|324:100,1,57.5
248,76,116391,6,0,L|364:64,1,115
464,192,116766,2,0,L|352:152,1,115
256,280,117141,2,0,L|368:240,1,115
388,248,117422,1,0,0:0:0:0:
408,260,117516,6,0,P|420:352|360:352,1,172.5
344,344,117891,5,0,0:0:0:0:
216,248,118078,1,0,0:0:0:0:
76,52,118266,5,0,0:0:0:0:
16,200,118453,1,0,0:0:0:0:
144,100,118641,6,0,L|180:80,1,28.75
144,100,118734,2,0,L|180:80,1,28.75
144,100,118828,2,0,L|180:80,1,28.75
144,100,118922,2,0,L|180:80,1,28.75
180,124,119016,6,0,L|216:104,1,28.75
192,148,119109,2,0,L|232:140,1,28.75
192,172,119203,2,0,L|224:172,1,28.75
188,196,119297,2,0,L|220:208,1,28.75
120,168,119391,5,0,0:0:0:0:
416,92,119766,5,0,0:0:0:0:
204,344,120141,5,0,0:0:0:0:
440,348,120516,5,0,0:0:0:0:
204,76,120891,5,0,0:0:0:0:
28,288,121078,1,0,0:0:0:0:
76,268,121172,1,0,0:0:0:0:
128,264,121266,2,0,B|196:252|245:281|245:281|228:236,1,143.75
400,56,121641,1,0,0:0:0:0:
160,364,121828,1,0,0:0:0:0:
356,360,122016,2,0,B|372:320|364:287|364:287|336:216,1,143.75
120,8,122391,6,0,B|116:40|116:40|148:172,1,143.75
68,292,122672,1,0,0:0:0:0:
20,264,122766,2,0,B|0:248|12:228|12:228|64:248|144:216,1,143.75
312,20,123141,1,0,0:0:0:0:
368,352,123328,1,0,0:0:0:0:
428,320,123422,1,0,0:0:0:0:
464,260,123516,2,0,P|464:164|444:108,1,143.75
180,96,123891,5,0,0:0:0:0:
308,248,124078,1,0,0:0:0:0:
60,348,124266,1,0,0:0:0:0:
224,336,124453,1,0,0:0:0:0:
312,40,124641,5,0,0:0:0:0:
68,132,124828,1,0,0:0:0:0:
464,288,125016,1,0,0:0:0:0:
140,344,125203,1,0,0:0:0:0:
148,112,125391,5,0,0:0:0:0:
236,264,125578,1,0,0:0:0:0:
436,208,125766,2,0,P|460:135|459:64,1,143.75
168,8,126141,6,0,L|104:16,1,35.9375
156,72,126234,2,0,L|108:100,1,35.9375
192,128,126328,2,0,L|156:176,1,35.9375
248,160,126422,2,0,L|240:208,1,35.9375
316,164,126516,6,0,L|324:120,1,35.9375
368,200,126609,2,0,L|392:172,1,35.9375
408,252,126703,2,0,L|452:236,1,35.9375
404,316,126797,2,0,L|444:328,1,35.9375
376,364,126891,6,0,P|330:381|208:376,1,143.75
112,324,127172,1,0,0:0:0:0:
48,240,127266,2,0,P|28:180|36:88,1,143.75
320,32,127641,1,0,0:0:0:0:
260,292,127828,1,0,0:0:0:0:
196,244,127922,1,0,0:0:0:0:
228,176,128016,2,0,B|232:196|244:204|244:204|172:224|136:164,1,143.75
464,164,128391,6,0,B|484:128|484:128|476:80|500:16,1,143.75
344,252,128672,1,0,0:0:0:0:
392,280,128766,2,0,B|500:252|500:252|464:312,1,143.75
148,372,129141,1,0,0:0:0:0:
276,148,129328,2,0,P|273:107|260:56,1,71.875
0,308,129516,1,0,0:0:0:0:
244,276,129703,1,0,0:0:0:0:
72,140,129891,6,0,P|62:99|64:40,1,71.875
212,80,130078,2,0,P|216:36|216:4,1,71.875
348,120,130266,2,0,P|344:163|352:208,1,71.875
500,168,130453,2,0,P|504:216|500:239,1,71.875
200,364,130641,5,0,0:0:0:0:
264,360,130734,1,0,0:0:0:0:
320,332,130828,1,0,0:0:0:0:
360,288,130922,1,0,0:0:0:0:
348,180,131016,5,0,0:0:0:0:
248,152,131109,1,0,0:0:0:0:
152,176,131203,1,0,0:0:0:0:
80,248,131297,1,0,0:0:0:0:
168,272,131391,6,0,P|212:265|256:248,1,71.875,0|0,0:0|0:0,0:0:0:0:
372,72,131578,2,0,P|325:75|276:104,1,71.875
456,384,131766,2,0,P|472:300|468:220,1,143.75
108,72,132047,1,0,0:0:0:0:
108,72,132141,6,0,P|120:176|136:220,1,143.75
508,88,132422,2,0,P|496:28|472:-4,1,71.875
216,208,132609,1,0,0:0:0:0:
248,268,132703,6,0,L|240:320,1,35.9375
316,296,132797,2,0,L|328:344,1,35.9375
388,308,132891,6,0,B|404:320|428:328|428:328|432:272|400:208,1,143.75
412,72,133172,1,0,0:0:0:0:
352,112,133266,2,0,P|304:132|196:136,1,143.75
28,320,133641,2,0,P|84:308|176:328,1,143.75
240,364,133922,1,0,0:0:0:0:
332,372,134016,2,0,P|408:356|480:316,1,143.75
512,104,134391,5,0,0:0:0:0:
216,196,134578,1,0,0:0:0:0:
192,124,134672,1,0,0:0:0:0:
248,72,134766,1,0,0:0:0:0:
24,152,134953,1,0,0:0:0:0:
432,324,135141,2,0,P|460:248|448:180,1,143.75
120,52,135516,1,0,0:0:0:0:
152,208,135703,1,0,0:0:0:0:
408,88,135891,5,0,0:0:0:0:
256,292,136078,1,0,0:0:0:0:
404,252,136266,1,0,0:0:0:0:
204,104,136453,1,0,0:0:0:0:
40,328,136641,5,0,0:0:0:0:
160,20,136828,1,0,0:0:0:0:
384,368,137016,1,0,0:0:0:0:
428,160,137203,1,0,0:0:0:0:
216,268,137391,6,0,P|186:276|124:272,1,71.875
224,120,137578,2,0,P|255:116|295:120,1,71.875
480,264,137766,2,0,P|479:298|472:364,1,71.875
432,92,137953,2,0,P|428:66|436:8,1,71.875
292,212,138141,6,0,L|280:176,1,35.9375
240,228,138234,2,0,L|232:192,1,35.9375
178,219,138328,2,0,L|184:184,1,35.9375
134,180,138422,2,0,L|156:152,1,35.9375
48,124,138516,6,0,L|-4:124,1,35.9375
40,204,138609,2,0,L|4:240,1,35.9375
80,276,138703,2,0,L|72:316,1,35.9375
152,316,138797,2,0,L|168:372,1,35.9375
240,328,138891,6,0,P|320:352|408:348,1,143.75
384,80,139172,1,0,0:0:0:0:
312,108,139266,2,0,P|296:196|332:256,1,143.75
500,88,139641,1,0,0:0:0:0:
156,196,139828,1,0,0:0:0:0:
92,172,139922,1,0,0:0:0:0:
44,116,140016,2,0,B|28:72|20:20|20:20|44:48|72:60,1,143.75
488,268,140391,5,0,0:0:0:0:
260,368,140578,1,0,0:0:0:0:
216,308,140672,1,0,0:0:0:0:
264,248,140766,1,0,0:0:0:0:
88,56,140953,1,0,0:0:0:0:
8,232,141141,2,0,B|-8:272|-8:272|32:280|108:256,1,143.75
328,8,141422,1,0,0:0:0:0:
396,52,141516,2,0,B|408:84|408:84|384:216,1,143.75
384,352,141891,5,0,0:0:0:0:
104,316,142078,1,0,0:0:0:0:
272,212,142266,2,0,P|282:169|268:116,1,71.875
56,52,142453,2,0,L|72:124,1,71.875
256,320,142641,1,0,0:0:0:0:
308,304,142734,1,0,0:0:0:0:
352,272,142828,2,0,L|368:312,1,35.9375
388,232,142922,2,0,L|428:244,1,35.9375
404,172,143016,6,0,L|456:168,1,35.9375
320,144,143109,2,0,L|364:100,1,35.9375
240,160,143203,2,0,L|244:120,1,35.9375
172,220,143297,2,0,L|164:168,1,35.9375
140,304,143391,6,0,P|24:320|-12:312,1,143.75
208,40,143766,1,0,0:0:0:0:
464,368,143953,6,0,P|452:284|468:208,1,143.75
512,28,144328,5,0,0:0:0:0:
56,240,144516,5,0,0:0:0:0:
320,312,144703,1,0,0:0:0:0:
256,300,144891,6,0,P|200:264|192:220,1,115
352,192,145266,1,0,0:0:0:0:
276,220,145453,1,0,0:0:0:0:
276,220,145547,1,0,0:0:0:0:
276,220,145641,1,0,0:0:0:0:
348,76,145828,5,0,0:0:0:0:
432,216,146016,1,0,0:0:0:0:
488,156,146203,1,0,0:0:0:0:
148,120,146391,5,0,0:0:0:0:
276,220,146578,1,0,0:0:0:0:
348,76,146766,1,0,0:0:0:0:
268,48,146953,5,0,0:0:0:0:
252,128,147141,1,0,0:0:0:0:
104,188,147328,1,0,0:0:0:0:
52,36,147516,5,0,0:0:0:0:
16,108,147703,1,0,0:0:0:0:
208,256,147891,5,0,0:0:0:0:
216,276,147984,1,0,0:0:0:0:
216,300,148078,1,0,0:0:0:0:
212,324,148172,1,0,0:0:0:0:
200,344,148266,5,0,0:0:0:0:
140,292,148453,2,0,L|92:328,2,57.5
140,212,148734,1,0,0:0:0:0:
212,176,148828,2,0,P|244:172|264:156,1,57.5
296,84,149016,1,0,0:0:0:0:
424,180,149203,1,0,0:0:0:0:
456,104,149391,6,0,L|464:220,1,115
304,228,149766,2,0,L|312:344,1,115
398,320,150141,2,0,P|393:266|408:207,1,115
219,286,150516,2,0,P|229:220|211:176,1,115
148,324,150891,5,0,0:0:0:0:
88,272,151078,1,0,0:0:0:0:
176,48,151266,1,0,0:0:0:0:
88,272,151641,5,0,0:0:0:0:
62,196,151828,1,0,0:0:0:0:
256,52,152016,2,0,P|212:120|128:108,1,172.5
112,96,152391,6,0,P|156:184|224:200,1,172.5
244,192,152766,5,0,0:0:0:0:
336,60,152953,1,0,0:0:0:0:
496,92,153141,1,0,0:0:0:0:
424,124,153328,1,0,0:0:0:0:
264,108,153516,6,0,P|220:104|188:44,1,115
264,108,153797,1,0,0:0:0:0:
264,108,153891,2,0,P|308:112|340:172,1,115
436,300,154266,1,0,0:0:0:0:
444,280,154359,1,0,0:0:0:0:
212,212,154547,5,0,0:0:0:0:
288,184,154641,6,0,L|320:168,1,28.75
292,204,154734,2,0,L|328:200,1,28.75
288,224,154828,2,0,L|320:232,1,28.75
280,248,154922,2,0,L|312:272,1,28.75
264,284,155016,6,0,L|288:312,1,28.75
244,296,155109,2,0,L|248:336,1,28.75
216,300,155203,6,0,P|152:280|128:232,1,115
212,212,155578,1,0,0:0:0:0:
440,136,155766,1,0,0:0:0:0:
440,136,156141,5,0,0:0:0:0:
364,112,156328,1,0,0:0:0:0:
132,48,156516,6,0,P|72:104|72:192,1,172.5
92,196,156891,5,0,0:0:0:0:
164,236,157078,1,0,0:0:0:0:
380,348,157266,1,0,0:0:0:0:
380,348,157641,5,0,0:0:0:0:
300,336,157828,1,0,0:0:0:0:
60,292,158016,1,0,0:0:0:0:
256,120,158391,5,0,0:0:0:0:
332,96,158484,1,0,0:0:0:0:
332,136,158578,1,0,0:0:0:0:
316,172,158672,1,0,0:0:0:0:
284,196,158766,5,0,0:0:0:0:
284,196,158859,1,0,0:0:0:0:
256,120,159141,5,0,0:0:0:0:
392,40,159234,1,0,0:0:0:0:
408,88,159328,1,0,0:0:0:0:
408,140,159422,1,0,0:0:0:0:
388,188,159516,5,0,0:0:0:0:
388,188,159609,1,0,0:0:0:0:
256,120,159891,5,0,0:0:0:0:
120,88,209391,6,0,P|44:172|168:232,1,287.5
124,168,209953,1,0,0:0:0:0:
300,68,210141,2,0,L|464:308,1,287.5
300,68,210703,1,0,0:0:0:0:
284,120,210891,6,0,P|292:284|196:328,1,287.5
124,168,211452,1,0,0:0:0:0:
163,235,211641,2,0,P|47:189|120:87,1,287.5
320,72,212203,1,0,0:0:0:0:
460,220,212391,5,0,0:0:0:0:
440,124,212578,1,0,0:0:0:0:
368,312,212766,1,0,0:0:0:0:
424,128,213141,1,0,0:0:0:0:
376,216,213328,1,0,0:0:0:0:
204,320,213516,2,0,L|168:308,6,35.9375
256,256,213891,6,0,P|292:200|276:124,1,143.75
112,244,214266,2,0,P|76:300|92:376,1,143.75
256,256,214641,6,0,L|292:268,1,35.9375
256,256,214734,2,0,L|280:288,1,35.9375
256,256,214828,2,0,L|256:296,1,35.9375
256,256,214922,2,0,L|232:288,1,35.9375
208,240,215016,5,0,0:0:0:0:
184,188,215109,1,0,0:0:0:0:
128,168,215203,1,0,0:0:0:0:
132,112,215297,1,0,0:0:0:0:
76,96,215391,2,0,B|128:52|128:52|164:80|276:88|276:88|332:48,1,287.5
352,252,215953,1,0,0:0:0:0:
452,76,216141,5,0,0:0:0:0:
464,312,216328,1,0,0:0:0:0:
496,328,216516,2,0,L|472:180,1,143.75
332,332,216891,6,0,P|252:324|204:280,1,143.75
4,288,217266,1,0,0:0:0:0:
180,192,217453,1,0,0:0:0:0:
4,288,217641,2,0,P|80:292|120:244,1,143.75
120,24,218016,2,0,B|40:56|92:144|40:220,1,215.625
100,160,218391,6,0,P|200:112|236:248,1,287.5
180,192,218953,1,0,0:0:0:0:
352,88,219141,6,0,L|440:220,1,143.75
256,308,219516,2,0,P|264:228|288:168,1,143.75
396,340,219891,1,0,0:0:0:0:
396,340,220078,5,0,0:0:0:0:
76,336,220266,1,0,0:0:0:0:
236,216,220453,1,0,0:0:0:0:
100,68,220641,1,0,0:0:0:0:
148,120,220734,1,0,0:0:0:0:
96,168,220828,1,0,0:0:0:0:
144,224,220922,1,0,0:0:0:0:
96,276,221016,5,0,0:0:0:0:
256,132,221203,1,0,0:0:0:0:
404,196,221391,1,0,0:0:0:0:
328,224,221578,1,0,0:0:0:0:
320,64,221766,1,0,0:0:0:0:
480,52,221953,1,0,0:0:0:0:
404,196,222141,5,0,0:0:0:0:
184,100,222328,1,0,0:0:0:0:
388,272,222516,2,0,B|352:304|352:304|348:320|348:320|312:356,1,115
244,208,222891,6,0,L|216:320,1,115
56,340,223266,1,0,0:0:0:0:
184,244,223453,1,0,0:0:0:0:
124,192,223641,5,0,0:0:0:0:
108,176,224016,1,0,0:0:0:0:
108,176,224391,6,0,P|224:176|292:88,1,230
416,300,224953,1,0,0:0:0:0:
256,268,225141,5,0,0:0:0:0:
248,248,225516,1,0,0:0:0:0:
256,228,225891,1,0,0:0:0:0:
256,192,225984,12,0,228516,0:0:0:0:
