osu file format v9

[General]
AudioFilename: Yuuhei Satelite - Opposite World.mp3
AudioLeadIn: 0
PreviewTime: 52224
Countdown: 0
SampleSet: Soft
StackLeniency: 0.7
Mode: 0
LetterboxInBreaks: 1

[Editor]
DistanceSpacing: 2
BeatDivisor: 4
GridSize: 8

[Metadata]
Title:Opposite World
Artist:Senya
Creator:l3lueskyiiz
Version:Hard
Source:Touhou
Tags:septette for the dead princess

[Difficulty]
HPDrainRate:7
CircleSize:4
OverallDifficulty:8
ApproachRate:8
SliderMultiplier:1.8
SliderTickRate:1

[Events]
//Background and Video events
0,0,"remilia.png"
//Break Periods
2,90599,96839
//Storyboard Layer 0 (Background)
//Storyboard Layer 1 (Fail)
//Storyboard Layer 2 (Pass)
//Storyboard Layer 3 (Foreground)
//Storyboard Sound Samples
//Background Colour Transformations
3,100,163,162,255

[TimingPoints]
17011,495.867768595041,4,2,1,20,1,0
18870,-100,4,2,1,40,0,0
34862,-100,4,1,1,70,0,0
50606,-100,4,1,1,20,0,0
52713,-100,4,1,1,70,0,1
68085,-100,4,1,1,70,0,0
68581,-100,4,1,1,70,0,1
84572,-133.333333333333,4,2,1,60,0,0
90399,-100,4,2,1,5,0,0
97341,-133.333333333333,4,2,1,25,0,0
98209,-133.333333333333,4,2,1,40,0,0
113209,-100,4,2,1,40,0,0
130068,-100,4,1,1,70,0,0
145564,-100,4,1,1,20,0,0
147920,-100,4,1,1,70,0,1
163291,-100,4,1,1,70,0,0
163787,-100,4,1,1,70,0,1
185482,-100,4,1,1,70,0,0
185606,-100,4,1,1,70,0,1
185730,-100,4,1,1,70,0,0

[Colours]
Combo1 : 120,209,54
Combo2 : 236,113,131
Combo3 : 175,155,230
Combo4 : 241,41,56

[HitObjects]
192,192,18002,1,0
256,128,18250,1,0
320,192,18498,1,0
256,256,18746,1,0
256,128,18994,6,0,B|240:80|256:40,1,90,4|0
336,80,19490,1,2
416,48,19738,2,0,B|432:88|416:136,1,90
336,176,20234,1,0
336,176,20482,1,2
376,256,20730,1,0
376,256,20977,2,0,B|336:336|208:352,1,180,0|2
144,312,21721,2,0,B|144:192,1,90
224,176,22217,2,0,B|224:272,2,90,0|2|0
152,128,22961,5,0
224,176,23209,1,0
304,128,23457,1,2
376,184,23705,2,0,B|408:136|384:88,1,90
304,128,24201,2,0,B|304:32,2,90,0|2|0
224,176,24944,2,0,B|128:144|24:176,2,180,0|2|0
256,352,26184,5,0
432,312,26432,1,2
416,136,26680,1,0
328,240,26928,6,0,B|296:152|336:40,2,180,0|2|0
272,312,28168,2,0,B|176:312,1,90,0|2
104,264,28663,1,0
184,240,28911,2,0,B|216:152|176:40,2,180,0|2|0
256,296,30151,5,0
256,208,30399,1,2
256,120,30647,1,0
256,208,30895,6,0,B|352:208,1,90
416,264,31391,1,2
456,344,31639,2,0,B|336:344,1,90
272,344,32134,1,0
184,320,32382,1,2
120,256,32630,1,0
96,168,32878,1,0
256,192,33126,12,4,34862
192,200,35110,5,0
256,136,35358,1,8
320,200,35606,1,0
288,280,35853,2,0,B|304:336|376:344,1,90,8|0
392,336,36225,1,8
440,264,36473,1,0
440,264,36597,2,0,B|440:160,1,90,8|0
312,40,37093,5,0
264,216,37341,1,8
440,176,37589,1,0
336,144,37837,6,0,B|288:112|216:144,1,90,8|0
208,152,38209,2,0,B|151:139|124:65,1,90,8|0
139,97,38581,1,8
80,160,38829,1,0
104,248,39077,1,0
128,248,39201,1,0
152,248,39325,1,8
216,312,39572,2,0,B|256:272|232:200,1,90
176,160,40068,2,0,B|176:96,2,45,0|0|8
256,128,40564,5,0
336,168,40812,2,0,B|408:136|424:40,1,135
419,66,41308,1,8
336,40,41556,1,0
256,80,41804,2,0,B|256:144,1,45,0|8
168,152,42176,2,0,B|168:216,1,45,0|8
96,256,42548,1,0
96,256,42672,1,0
96,256,42796,2,0,B|40:248|24:176,1,90,4|0
152,64,43291,5,8
264,208,43539,1,0
160,168,43787,6,0,B|192:208|176:288,1,90,8|0
184,296,44159,1,8
256,344,44407,1,0
256,344,44531,2,0,B|352:344,2,90,8|0|0
336,184,45275,5,8
464,312,45523,1,0
360,296,45771,6,0,B|384:240|456:232,1,90,8|0
456,208,46143,2,0,B|456:104,1,90,8|0
456,72,46515,1,8
280,64,46763,6,0,B|232:64|184:112,1,90
160,176,47258,1,8
160,176,47382,1,0
160,176,47506,1,0
232,320,47754,6,0,B|280:320|328:272,1,90
352,208,48250,1,8
352,208,48374,1,0
352,208,48498,1,0
256,192,48746,5,4
256,160,49490,1,4
128,304,50234,5,4
256,352,50482,1,0
384,304,50730,1,0
256,192,50853,12,4,52713
352,80,52961,6,0,B|368:136|320:184,1,90,0|8
256,128,53457,1,0
256,128,53705,1,0
176,176,53953,1,0
176,200,54077,1,0
176,224,54201,1,8
256,272,54449,5,0
312,200,54696,2,0,B|360:232|336:312,1,90
256,272,55192,1,8
192,336,55440,1,0
168,336,55564,1,8
104,280,55812,1,0
80,280,55936,1,8
88,104,56184,5,8
264,80,56432,1,0
120,192,56680,6,0,B|176:176|176:112,1,90,4|0
88,104,57176,1,8
88,104,57300,1,0
88,104,57424,1,0
224,216,57672,6,0,B|328:216,1,90,0|0
360,216,58044,2,0,B|424:224|432:304,1,90,0|0
425,270,58415,1,0
352,320,58663,5,0
352,320,58911,1,0
168,320,59159,1,8
128,144,59407,1,0
256,272,59655,1,0
376,144,59903,1,0
168,144,60151,5,8
336,144,60399,1,0
256,96,60647,6,0,B|256:192,1,90,4|0
184,240,61143,1,8
184,240,61267,1,0
184,240,61391,2,0,B|128:248|112:304,1,90,0|0
56,224,61887,1,0
56,200,62011,1,0
120,136,62258,2,0,B|120:64,1,45,0|0
208,120,62630,5,0
208,120,62878,1,0
328,184,63126,1,8
328,184,63374,1,0
384,304,63622,1,0
384,304,63870,1,0
208,288,64118,5,8
280,120,64366,1,0
456,112,64614,1,4
424,200,64862,1,0
336,232,65110,5,0
320,240,65234,1,0
304,248,65358,2,0,B|216:288|120:232,1,180,4|0
128,240,66101,1,0
48,288,66349,1,0
48,312,66473,1,0
48,336,66597,1,4
136,344,66845,2,0,B|256:344,1,90,0|8
280,272,67341,2,0,B|192:272,1,90,0|8
136,200,67837,1,8
136,200,68085,5,8
144,176,68209,1,0
160,160,68333,1,0
184,152,68457,1,0
208,152,68581,2,0,B|320:144|352:56,1,180,4|8
256,56,69325,5,0
336,216,69572,1,0
416,56,69820,1,0
416,56,69944,1,0
416,56,70068,1,8
336,96,70316,5,0
256,144,70564,2,0,B|248:208|328:232,1,90
384,216,71060,2,0,B|431:205|423:141,2,90,8|0|0
360,216,71680,1,0
336,216,71804,1,8
192,320,72052,5,8
368,352,72300,1,0
256,216,72548,5,4
256,216,72796,2,0,B|160:216,1,90,0|8
192,128,73291,1,0
192,128,73415,1,0
112,88,73663,1,0
112,88,73787,1,0
32,136,74035,1,8
112,176,74283,2,0,B|112:288,2,90
192,336,75027,5,8
272,176,75275,1,0
344,336,75523,5,0
344,312,75647,1,0
344,288,75771,1,8
256,264,76019,1,8
176,232,76267,1,0
176,208,76391,1,0
176,184,76515,2,0,B|192:96|296:40,1,180,4|8
283,46,77258,1,0
368,64,77506,5,0
368,88,77630,1,0
416,160,77878,2,0,B|416:216,1,45,0|8
328,224,78250,1,0
368,304,78498,1,0
456,304,78746,1,0
496,224,78994,1,8
416,192,79242,2,0,B|416:240,2,45,0|0|0
416,104,79738,5,8
264,208,79986,1,8
240,32,80234,1,0
416,104,80482,1,4
328,72,80730,6,0,B|304:112|224:128,1,90
232,120,81101,1,0
208,120,81225,2,0,B|112:136|64:224,1,180,4|0
64,312,81969,1,0
144,264,82217,1,0
168,264,82341,1,0
192,264,82465,1,4
216,176,82713,2,0,B|280:192|288:272,1,90,0|8
192,264,83209,1,8
256,328,83457,5,8
280,328,83581,1,0
304,328,83705,1,0
328,320,83829,1,0
352,312,83953,1,0
368,296,84077,1,0
376,272,84201,1,0
376,248,84325,1,0
368,224,84449,1,4
336,144,84696,6,0,B|288:160|288:216,1,67.4999979883433,0|2
224,248,85192,2,0,B|104:248|64:128,1,202.49999396503,0|2
128,80,86184,1,0
256,192,86432,12,0,90399
256,272,97589,5,0
256,256,97837,1,0
256,240,98085,1,0
256,160,98333,6,0,B|256:88,1,67.4999979883433,4|0
320,40,98829,1,2
384,96,99077,2,0,B|384:184,1,67.4999979883433
320,216,99572,1,0
256,160,99820,1,2
192,216,100068,1,0
192,216,100316,2,0,B|192:360,1,134.999995976687,0|2
112,352,101060,2,0,B|64:344|48:288,1,67.4999979883433
128,272,101556,5,0
256,320,101804,1,2
384,272,102052,1,0
336,208,102300,6,0,B|336:120,2,67.4999979883433,0|0|2
416,184,103044,1,0
464,120,103291,2,0,B|464:32,2,67.4999979883433,0|0|2
392,80,104035,1,0
312,80,104283,2,0,B|232:72|176:128,1,134.999995976687,0|2
240,184,105027,2,0,B|240:264,1,67.4999979883433
240,251,105523,5,0
128,328,105771,1,2
48,224,106019,1,0
104,168,106267,6,0,B|104:32,1,134.999995976687,0|2
224,144,107258,2,0,B|312:144,2,67.4999979883433,0|0|2
200,224,108002,1,0
264,272,108250,2,0,B|344:272|384:344,2,134.999995976687,0|2|0
288,352,109490,5,0
368,240,109738,1,2
320,112,109986,1,0
320,112,110234,6,0,B|408:112,1,67.4999979883433
448,168,110730,1,2
448,248,110977,1,0
376,208,111225,1,0
376,208,111473,2,0,B|288:208,1,67.4999979883433,0|2
308,208,111969,1,0
296,288,112217,2,0,B|208:288|160:208,1,134.999995976687,0|2
177,233,112961,1,0
104,72,113209,6,0,B|48:96|48:160,1,90
232,144,113705,2,0,B|288:120|288:56,1,90,2|0
128,168,114201,5,4
80,240,114449,2,0,B|80:328,1,90,0|2
160,288,114944,2,0,B|232:352,1,90
280,272,115440,2,0,B|384:272,2,90,0|2|0
224,200,116184,1,0
352,72,116680,2,0,B|440:128|472:232,1,180,2|0
408,280,117424,5,0
264,168,117672,1,2
304,344,117920,1,0
168,224,118168,6,0,B|160:280|216:320,1,90
264,248,118663,1,2
352,264,118911,2,0,B|360:208|304:168,1,90
232,152,119407,1,0
232,152,119655,1,2
144,144,119903,1,0
64,184,120151,2,0,B|32:280|96:368,1,180,0|2
160,304,120895,6,0,B|264:272,1,90
312,216,121391,2,0,B|200:176,1,90,0|2
144,224,121887,1,0
280,112,122134,6,0,B|392:112|456:200,2,180,0|2|0
384,264,123374,2,0,B|416:304|504:272,1,90,0|2
288,256,123870,1,0
128,168,124118,2,0,B|216:224|192:344,2,180,0|2|0
128,168,125358,5,0
40,144,125606,1,2
56,232,125853,1,0
56,232,126101,2,0,B|112:312,1,90
184,256,126597,2,0,B|240:344,2,90,2|0|0
136,176,127341,1,0
200,112,127589,1,2
280,160,127837,1,0
272,248,128085,1,0
256,192,128333,12,4,130068
256,144,130316,6,0,B|256:48,1,90,0|8
336,88,130812,1,0
408,136,131060,2,0,B|464:152|464:240,1,90,8|0
464,224,131432,1,8
392,272,131680,1,0
392,296,131804,1,8
304,288,132052,5,0
256,216,132300,1,0
344,192,132548,1,8
256,216,132796,2,0,B|160:216,1,90,0|8
120,296,133291,2,0,B|56:296,1,45,0|8
248,352,133663,2,0,B|312:352,1,45,0|8
200,192,134035,5,0
136,128,134283,1,0
136,104,134407,1,0
136,80,134531,1,8
224,88,134779,1,0
224,88,135027,1,0
288,152,135275,1,0
288,176,135399,1,0
288,200,135523,1,8
224,256,135771,5,0
304,288,136019,2,0,B|392:272|408:160,1,135
400,176,136515,1,8
400,88,136763,1,0
320,48,137011,1,0
320,48,137134,1,0
320,48,137258,1,8
256,112,137506,1,8
232,128,137630,1,0
208,136,137754,1,0
184,128,137878,1,0
160,112,138002,1,4
208,40,138250,5,0
208,224,138498,1,8
56,128,138746,1,0
104,304,138994,6,0,B|136:352|208:352,1,90,8|0
200,352,139366,2,0,B|288:352,1,90,8|0
312,352,139738,1,8
304,224,139986,5,0
304,224,140234,1,0
456,128,140482,1,8
304,40,140730,1,0
400,192,140977,6,0,B|368:144|296:144,1,90,8|0
304,144,141349,2,0,B|216:144,1,90,8|0
192,144,141721,1,8
120,88,141969,5,0
48,144,142217,2,0,B|48:216,2,45,0|0|8
184,168,142713,1,0
256,224,142961,2,0,B|256:296,2,45
184,336,143457,5,8
328,336,143705,1,0
256,144,143953,5,4
256,120,144696,1,4
256,88,145440,1,4
256,224,145688,5,0
256,192,145936,12,4,147920
256,280,148168,5,0
256,280,148415,1,8
224,200,148663,2,0,B|160:216|168:288,1,90
256,280,149159,1,0
280,280,149283,1,0
304,280,149407,1,8
360,208,149655,5,0
448,208,149903,1,0
408,128,150151,1,0
448,208,150399,2,0,B|448:328,1,90,8|0
448,320,150771,1,0
448,344,150895,1,0
360,336,151143,5,0
184,320,151391,1,8
96,160,151639,1,0
176,200,151887,6,0,B|200:136|144:80,1,90,4|0
96,64,152382,2,0,B|32:64,2,45,8|0|0
280,80,152878,2,0,B|336:80|384:144,1,90,0|0
360,160,153250,2,0,B|360:248,1,90,0|0
360,272,153622,1,0
288,224,153870,5,0
280,312,154118,1,0
360,272,154366,1,8
200,264,154614,5,0
352,168,154862,1,0
360,352,155110,1,8
200,264,155358,1,8
120,296,155606,5,0
96,296,155730,1,0
72,296,155853,2,0,B|24:208|80:96,1,180,4|8
136,64,156597,1,0
136,64,156845,1,0
208,120,157093,2,0,B|272:120,1,45,0|0
136,192,157465,2,0,B|72:192,1,45,0|0
256,272,157837,5,0
256,184,158085,1,0
256,272,158333,1,8
368,224,158581,5,0
144,224,158829,1,0
256,80,159077,1,0
256,272,159325,5,8
232,352,159572,1,0
256,352,159696,1,0
280,352,159820,1,4
256,272,160068,1,0
280,184,160316,5,0
256,184,160440,1,0
232,184,160564,2,0,B|136:216|144:336,1,180,4|0
256,272,161308,1,0
320,328,161556,5,0
344,328,161680,1,0
368,328,161804,2,0,B|375:219|279:187,1,180,4|8
104,160,162548,5,0
256,56,162796,1,8
400,160,163044,1,8
296,216,163291,5,8
280,232,163415,1,0
256,240,163539,1,0
232,232,163663,1,0
216,216,163787,1,4
256,136,164035,5,0
176,88,164283,2,0,B|72:88,1,90,8|0
64,88,164655,1,0
48,104,164779,2,0,B|40:168|112:200,1,90,0|0
104,184,165151,1,0
152,264,165399,2,0,B|152:328,1,45,0|0
64,280,165771,5,0
232,344,166019,1,0
208,168,166267,1,8
280,224,166515,5,0
304,224,166639,1,0
328,224,166763,1,0
368,304,167010,1,0
368,304,167258,2,0,B|368:352,2,45,8|0|0
440,248,167754,2,0,B|472:160|432:64,1,180,4|8
368,128,168498,6,0,B|272:128,1,90,0|0
208,184,168994,1,0
208,184,169118,1,0
136,128,169366,1,0
136,128,169490,1,0
64,184,169738,2,0,B|40:240|80:296,1,90
136,328,170234,2,0,B|136:256,2,45,8|0|0
208,272,170730,2,0,B|233:240|209:184,1,90
136,128,171225,5,8
304,72,171473,1,0
472,128,171721,2,0,B|480:232|408:296,1,180,4|8
368,216,172465,5,0
344,216,172589,1,0
320,216,172713,1,0
256,160,172961,2,0,B|208:160,1,45,0|0
240,248,173333,2,0,B|240:312,1,45,0|0
152,272,173705,2,0,B|48:264|16:152,1,180,0|8
72,88,174449,1,0
160,88,174696,1,0
112,168,174944,5,0
256,280,175192,1,8
400,168,175440,1,0
256,64,175688,6,0,B|256:160,2,90,4|0|0
256,64,176308,1,0
256,64,176432,1,4
256,248,176928,5,0
256,336,177176,1,0
256,248,177424,1,0
256,224,177548,1,0
256,200,177672,1,4
176,240,177920,6,0,B|152:192|184:136,1,90,0|8
336,153,178415,2,0,B|360:192|336:240,1,90
424,80,178911,5,0
256,24,179159,1,8
88,80,179407,1,8
256,136,179655,1,4
256,224,179903,5,0
176,264,180151,1,8
160,280,180275,1,0
144,296,180399,1,0
208,360,180647,2,0,B|256:336|312:368,1,90
368,296,181143,1,8
352,280,181267,1,0
336,264,181391,1,0
256,104,181639,5,4
256,192,181887,12,4,185606
