osu file format v9

[General]
AudioFilename: vocal 136 .mp3
AudioLeadIn: 2029
PreviewTime: 192083
Countdown: 0
SampleSet: Soft
StackLeniency: 0.7
Mode: 0
LetterboxInBreaks: 1

[Editor]
Bookmarks: 207944
DistanceSpacing: 1.2
BeatDivisor: 4
GridSize: 8

[Metadata]
Title:Kodokutsuki
Artist:Senya
Creator:y u z u k i
Version:Normal
Source:touhou
Tags:flandre scarlet gowww U.N. Owen was her?

[Difficulty]
HPDrainRate:1
CircleSize:3
OverallDifficulty:4
ApproachRate:4
SliderMultiplier:1.4
SliderTickRate:1

[Events]
//Background and Video events
0,0,"BG.jpg"
//Break Periods
2,25193,29575
//Storyboard Layer 0 (Background)
//Storyboard Layer 1 (Fail)
//Storyboard Layer 2 (Pass)
//Storyboard Layer 3 (Foreground)
//Storyboard Sound Samples
//Background Colour Transformations
3,100,163,162,255

[TimingPoints]
1387,491.803278688525,4,2,1,70,1,0
66182,-100,4,1,0,85,0,0
66305,-100,4,1,0,85,0,1
97657,-100,4,2,1,70,0,0
131100,-100,4,1,0,80,0,0
131223,-100,4,1,0,80,0,1
146960,-100,4,1,0,80,0,0

[Colours]
Combo1 : 170,142,244
Combo2 : 250,101,160
Combo3 : 254,132,105
Combo4 : 141,186,254

[HitObjects]
88,72,1387,2,0,B|144:56|184:56|320:72|376:136,1,280,4|0
356,117,2862,1,0
432,264,3354,2,0,B|376:280|336:280|200:264|144:200,1,280,4|0
163,218,4829,1,0
72,80,5321,6,0,B|160:48,1,70,2|0
137,56,5813,2,0,B|208:88,1,70
201,85,6305,2,0,B|272:56,1,70,2|0
266,58,6796,2,0,B|344:96,1,70
329,88,7288,2,0,B|400:144|432:232|424:272,1,210,2|0
360,320,8272,2,0,B|312:344,6,35,8|0|2|0|8|0|2
304,256,9255,6,0,B|240:224|160:224,1,140,4|0
56,104,10239,2,0,B|120:72|200:72,1,140,2|0
360,56,11223,2,0,B|392:120|392:200,1,140,2|0
352,264,11960,1,0
288,320,12206,2,0,B|208:320,1,70,2|0
224,240,12698,2,0,B|144:240,1,70
72,240,13190,6,0,B|72:96,2,140,2|0|2
120,312,14419,1,0
200,280,14665,1,0
280,312,14911,1,0
360,280,15157,2,0,B|400:224,1,70,10|0
400,223,15649,2,0,B|352:152,1,70,8|0
408,96,16141,2,0,B|352:56|272:48,1,140,10|4
112,88,17124,6,0,B|88:160|88:240,1,140,4|0
240,304,18108,2,0,B|312:328|392:328,1,140,2|0
456,176,19091,2,0,B|384:152|304:152,1,140,2|0
248,200,19829,1,0
168,168,20075,2,0,B|128:96,1,70,2|0
64,56,20567,1,0
64,56,20813,1,0
32,136,21059,6,0,B|16:192|24:232,1,70,10|0
104,232,21550,2,0,B|120:288|112:328,1,70,8|0
200,320,22042,2,0,B|256:336|296:328,2,70,10|0|0
192,232,22780,1,4
256,192,23026,12,4,24993
214,228,30895,6,0,B|214:132,1,70,4|0
298,160,31387,2,0,B|298:240,1,70,4|0
256,304,31878,2,0,B|256:344,6,35,8|0|2|0|8|0|2
176,288,32862,6,0,B|112:248|72:176,2,140,4|0|2
256,256,34091,1,0
336,288,34337,2,0,B|400:248,1,70
456,192,34829,6,0,B|448:104|400:48,1,140,2|0
328,40,35567,1,0
248,72,35813,1,2
168,48,36059,1,0
88,64,36305,2,0,B|56:144,1,70
48,216,36796,6,0,B|96:272|184:288,1,140,2|0
248,256,37534,1,0
312,312,37780,2,0,B|368:264|384:176,1,140,2|0
432,128,38518,1,0
376,64,38764,2,0,B|304:48|280:96|144:80,1,210,2|0
88,64,39747,6,0,B|24:112,1,70,8|0
96,160,40239,2,0,B|32:208,1,70,8|0
104,264,40731,2,0,B|168:312|248:320,1,140,4|0
376,232,41714,2,0,B|312:184|232:176,1,140,2|0
168,200,42452,1,0
136,120,42698,6,0,B|184:64,1,70,2|0
264,88,43190,2,0,B|312:32,1,70,0|0
384,80,43682,2,0,B|336:136,1,70,2|0
408,184,44173,2,0,B|360:240,1,70
368,320,44665,2,0,B|288:320|232:304|144:320,1,210,2|0
80,280,45649,5,2
80,280,45895,1,0
48,200,46141,1,0
48,200,46387,1,0
80,120,46632,2,0,B|144:80|224:64,2,140,4|0|2
168,264,48108,6,0,B|320:264,2,140,0|2|0
168,264,49583,1,4
312,176,50075,2,0,B|160:176,2,140,0|2|0
312,176,51550,5,4
312,88,51796,1,0
232,56,52042,1,4
152,80,52288,1,0
72,56,52534,6,0,B|56:152|64:224,2,140,2|0|0
200,160,54009,2,0,B|296:176|368:168,2,140,0|2|0
96,288,55485,6,0,B|384:288,2,280,2|2|2
48,216,57698,1,0
72,136,57944,2,0,B|144:80,1,70
200,48,58436,2,0,B|288:48|408:120|440:176,1,280,2|6
472,256,59665,5,0
400,304,59911,1,4
328,344,60157,1,0
256,192,60403,12,4,63846
250,146,64337,6,0,B|154:146,1,70,4|0
178,234,64829,2,0,B|266:234,1,70,4|0
328,208,65321,1,2
328,208,65567,1,0
328,208,65813,2,0,B|368:208,2,35,4|0|0
328,120,66305,6,0,B|256:72|176:56,1,140,4|0
152,224,67288,2,0,B|224:272|304:288,1,140,8|0
448,264,68272,2,0,B|376:216|296:200,1,140,8|0
240,208,69009,1,0
184,144,69255,2,0,B|144:80,1,70,8|0
72,40,69747,2,0,B|32:96,1,70
64,176,70239,6,0,B|64:272|104:320,1,140,8|0
184,320,70977,1,0
264,296,71223,2,0,B|336:320,1,70,8|0
408,288,71714,2,0,B|472:264,1,70
480,176,72206,5,8
480,176,72452,1,0
448,96,72698,1,8
448,96,72944,1,0
376,48,73190,1,8
376,48,73436,1,0
296,48,73682,1,8
296,48,73927,1,0
216,40,74173,6,0,B|128:48|88:112,1,140,8|0
232,200,75157,2,0,B|320:192|360:128,1,140,8|0
488,232,76141,2,0,B|480:320|416:360,1,140,8|0
344,328,76878,1,0
256,328,77124,2,0,B|152:328,1,70,8|0
184,240,77616,2,0,B|104:240,1,70
80,160,78108,6,0,B|136:88|208:72,2,140,8|0|8
144,216,79337,2,0,B|216:216,1,70
288,256,79829,1,0
288,256,80075,2,0,B|360:208|424:112,3,140,8|0|8|4
256,56,82042,6,0,B|112:56,1,140,4|0
120,224,83026,2,0,B|272:224,1,140,8|0
406,141,84009,2,0,B|254:141,1,140,8|0
264,312,84993,2,0,B|440:312,1,140,8|0
400,144,85977,6,0,B|456:200,2,70,8|0|0
344,80,86714,1,0
280,136,86960,2,0,B|224:184|160:216,1,140,8|0
164,213,87698,1,0
164,213,87944,1,8
104,152,88190,1,0
104,152,88436,1,0
152,80,88682,1,0
152,80,88927,1,8
152,80,89173,2,0,B|240:56,1,70
384,72,89911,6,0,B|432:144|448:208,1,140,8|0
328,320,90895,2,0,B|280:248|264:184,1,140,0|0
152,72,91878,2,0,B|88:112,1,70,8|0
92,109,92370,2,0,B|72:176,1,70,8|0
72,175,92862,2,0,B|112:248,1,70,8|0
105,237,93354,2,0,B|80:312,1,70,8|0
160,328,93846,6,0,B|328:328,1,140,8|0
384,328,94583,1,0
408,248,94829,1,8
392,168,95075,1,0
344,96,95321,1,8
272,56,95567,1,4
256,192,95813,12,4,97288
336,96,97780,6,0,B|400:136|440:208,2,140,4|0|2
256,128,99009,1,0
176,96,99255,2,0,B|112:136,1,70
56,192,99747,6,0,B|64:280|112:336,1,140,2|0
184,344,100485,1,0
264,312,100731,1,2
344,336,100977,1,0
424,320,101223,2,0,B|456:240,1,70
464,168,101714,6,0,B|416:112|328:96,1,140,2|0
264,128,102452,1,0
200,72,102698,2,0,B|144:120|128:208,1,140,2|0
80,256,103436,1,0
136,320,103682,2,0,B|208:336|232:288|368:304,1,210,2|0
424,320,104665,6,0,B|488:272,1,70,8|0
416,224,105157,2,0,B|480:176,1,70,8|0
408,120,105649,2,0,B|344:72|264:64,1,140,4|0
136,152,106632,2,0,B|200:200|280:208,1,140,2|0
344,184,107370,1,0
376,264,107616,6,0,B|328:320,1,70,2|0
248,296,108108,2,0,B|200:352,1,70,0|0
128,304,108600,2,0,B|176:248,1,70,2|0
104,200,109091,2,0,B|152:144,1,70
144,64,109583,2,0,B|224:64|280:80|368:64,1,210,2|0
432,104,110567,1,2
432,104,110813,1,0
464,184,111059,1,0
464,184,111305,1,0
432,264,111550,2,0,B|368:304|288:320,2,140,4|0|2
344,120,113026,6,0,B|192:120,2,140,0|2|0
344,120,114501,1,4
200,208,114993,2,0,B|352:208,2,140,0|2|0
200,208,116468,5,4
200,296,116714,1,0
280,328,116960,1,4
360,304,117206,1,0
440,328,117452,6,0,B|456:232|448:160,2,140,2|0|0
312,224,118927,2,0,B|216:208|144:216,2,140,0|2|0
416,96,120403,6,0,B|128:96,2,280,2|2|2
464,168,122616,1,0
440,248,122862,2,0,B|368:304,1,70
312,336,123354,2,0,B|224:336|104:264|72:208,1,280,2|6
40,128,124583,5,0
112,80,124829,1,4
184,40,125075,1,0
256,192,125321,12,4,128764
262,238,129255,6,0,B|358:238,1,70,4|0
334,150,129747,2,0,B|246:150,1,70,4|0
184,176,130239,1,2
184,176,130485,1,0
184,176,130731,2,0,B|144:176,2,35,4|0|0
184,264,131223,6,0,B|256:312|336:328,1,140,4|0
360,160,132206,2,0,B|288:112|208:96,1,140,8|0
64,120,133190,2,0,B|136:168|216:184,1,140,8|0
272,176,133927,1,0
328,240,134173,2,0,B|368:304,1,70,8|0
440,344,134665,2,0,B|480:288,1,70
448,208,135157,6,0,B|448:112|408:64,1,140,8|0
328,64,135895,1,0
248,88,136141,2,0,B|176:64,1,70,8|0
104,96,136632,2,0,B|40:120,1,70
32,208,137124,5,8
32,208,137370,1,0
64,288,137616,1,8
64,288,137862,1,0
136,336,138108,1,8
136,336,138354,1,0
216,336,138600,1,8
216,336,138845,1,0
296,344,139091,6,0,B|384:336|424:272,1,140,8|0
280,184,140075,2,0,B|192:192|152:256,1,140,8|0
24,152,141059,2,0,B|32:64|96:24,1,140,8|0
168,56,141796,1,0
256,56,142042,2,0,B|360:56,1,70,8|0
328,144,142534,2,0,B|408:144,1,70
432,224,143026,6,0,B|376:296|304:312,2,140,8|0|8
368,168,144255,2,0,B|296:168,1,70
224,128,144747,1,0
224,128,144993,2,0,B|152:176|88:272,4,140,0|0|0|0|4
