osu file format v9

[General]
AudioFilename: vocal 136 .mp3
AudioLeadIn: 2007
PreviewTime: 192083
Countdown: 0
SampleSet: Soft
StackLeniency: 0.7
Mode: 0
LetterboxInBreaks: 1

[Editor]
DistanceSpacing: 1.2
BeatDivisor: 4
GridSize: 8

[Metadata]
Title:Kodokutsuki
Artist:Senya
Creator:y u z u k i
Version:Hard
Source:touhou
Tags:flandre scarlet gowww U.N. Owen was her?

[Difficulty]
HPDrainRate:8
CircleSize:5
OverallDifficulty:7
ApproachRate:7
SliderMultiplier:1.7
SliderTickRate:1

[Events]
//Background and Video events
0,0,"BG.jpg"
//Break Periods
2,25192,31716
2,64537,65405
2,129455,130323
2,147160,153929
2,170767,175568
//Storyboard Layer 0 (Background)
//Storyboard Layer 1 (Fail)
//Storyboard Layer 2 (Pass)
//Storyboard Layer 3 (Foreground)
//Storyboard Sound Samples
//Background Colour Transformations
3,100,163,162,255

[TimingPoints]
1387,491.803278688525,4,2,1,51,1,0
8149,-100,4,2,1,60,0,0
8395,-100,4,2,1,70,0,0
8641,-100,4,2,1,86,0,0
9132,-100,4,2,1,89,0,0
9624,-100,4,2,1,100,0,0
50936,-100,4,2,1,66,0,0
51182,-100,4,2,1,100,0,0
51282,-100,4,2,1,100,0,0
51427,-100,4,2,1,65,0,0
51673,-100,4,2,1,100,0,0
51919,-100,4,2,1,66,0,0
52165,-100,4,2,1,100,0,0
52411,-100,4,2,1,66,0,0
53641,-100,4,2,1,100,0,0
60280,-100,4,2,1,65,0,0
60526,-100,4,2,1,100,0,0
61264,-100,4,2,1,84,0,0
61509,-100,4,2,1,100,0,0
66305,-100,4,2,1,100,0,1
97534,-100,4,2,1,100,0,0
111427,-100,4,2,1,64,0,0
111673,-100,4,2,1,100,0,0
111919,-100,4,2,1,65,0,0
112165,-100,4,2,1,100,0,0
112411,-100,4,2,1,65,0,0
112657,-100,4,2,1,100,0,0
112903,-100,4,2,1,100,0,0
113395,-100,4,2,1,66,0,0
113887,-100,4,2,1,100,0,0
116346,-100,4,2,1,65,0,0
116591,-100,4,2,1,100,0,0
116837,-100,4,2,1,65,0,0
117083,-100,4,2,1,100,0,0
117329,-100,4,2,1,66,0,0
118559,-100,4,2,1,100,0,0
124214,-100,4,2,1,66,0,0
124706,-100,4,2,1,83,0,0
125198,-100,4,2,1,100,0,0
127657,-100,4,2,1,66,0,0
127903,-100,4,2,1,100,0,0
131223,-100,4,2,1,100,0,1
146960,-100,4,2,1,100,0,0
157165,-100,4,2,1,65,0,0
157411,-100,4,2,1,100,0,0
176346,-100,4,2,1,64,0,0
182247,-100,4,2,1,68,0,0
182739,-100,4,2,1,85,0,0
183231,-100,4,2,1,100,0,0
192206,-100,4,2,1,100,0,1
207944,-100,4,2,1,100,0,0

[Colours]
Combo1 : 168,130,247
Combo2 : 251,117,154
Combo3 : 254,157,105
Combo4 : 124,194,252

[HitObjects]
256,88,1387,2,0,B|256:176,1,85,4|0
256,272,1878,1,2
352,232,2124,1,0
352,128,2370,1,0
256,88,2616,1,0
160,128,2862,1,2
160,232,3108,1,0
256,272,3354,6,0,B|256:184,1,85,4|0
256,88,3846,1,2
352,128,4091,1,0
352,232,4337,1,0
256,272,4583,1,0
160,232,4829,1,2
160,128,5075,1,0
256,160,5321,6,0,B|256:48,1,85
176,136,5813,1,2
336,136,6059,1,0
256,264,6305,1,0
256,264,6550,1,0
256,264,6673,1,0
256,264,6796,2,0,B|144:264,1,85,2|0
88,136,7288,5,4
88,136,7411,1,0
208,40,7657,1,0
208,40,7780,1,2
328,136,8026,1,0
208,232,8272,5,8
216,256,8395,1,0
232,280,8518,1,2
256,296,8641,1,0
280,304,8764,1,10
304,304,8886,1,0
328,296,9009,1,2
352,280,9132,1,0
368,264,9255,6,0,B|368:160,1,85,12|0
296,104,9747,2,0,B|296:208,1,85,2|0
224,264,10239,2,0,B|224:96,1,170,0|2
128,272,11223,2,0,B|128:328,1,42.5
56,248,11591,2,0,B|56:192,1,42.5,0|2
56,104,11960,5,0
56,104,12083,1,0
56,104,12206,1,2
144,48,12452,1,0
144,152,12698,1,2
336,104,12944,1,0
312,272,13190,6,0,B|344:224|296:176,1,85,0|0
200,192,13682,2,0,B|168:240|216:288,1,85,2|0
416,272,14173,2,0,B|448:224|400:176,1,85,0|0
88,192,14665,2,0,B|56:240|104:288,1,85,2|0
144,112,15157,5,8
216,184,15403,1,0
288,112,15649,1,10
360,184,15895,1,0
288,256,16141,1,8
216,184,16386,1,0
144,112,16632,2,0,B|96:152|152:192,1,85,10|0
256,56,17124,6,0,B|256:248,1,170,4|2
256,328,17862,2,0,B|256:232,2,85
176,264,18600,1,2
336,264,18846,1,0
256,244,19091,1,0
256,40,19583,5,2
256,144,19829,1,0
256,144,19952,1,0
256,248,20198,2,0,B|256:200,1,42.5
176,272,20567,1,2
104,200,20813,1,0
176,128,21059,1,0
104,200,21305,1,0
208,200,21550,2,0,B|384:200,1,170,2|0
378,200,22288,1,0
378,200,22411,1,0
378,200,22534,1,2
378,200,22780,5,0
320,80,23026,2,0,B|384:136,1,85,4|0
192,80,23518,2,0,B|128:136,1,85,2|0
256,128,24009,2,0,B|256:232,1,85,4|0
256,240,24378,1,0
256,264,24501,1,2
256,312,24747,6,0,B|256:360,2,42.5,0|0|4
128,112,32616,5,0
128,112,32739,1,0
128,112,32862,2,0,B|128:280,2,170,4|2|0
320,192,34337,2,0,B|408:192,1,85,2|0
360,136,34829,5,0
360,248,35075,1,0
264,96,35321,1,2
264,288,35567,1,0
160,136,35813,1,0
160,248,36059,1,0
256,192,36305,2,0,B|352:192,2,85,2|0|0
256,192,37042,5,0
256,192,37165,1,0
256,192,37288,1,2
256,88,37534,2,0,B|256:32,2,42.5
256,192,38026,1,0
256,296,38272,2,0,B|208:336|120:320|96:296,1,170,2|0
176,144,39009,6,0,B|104:88,1,85,0|2
320,256,39501,2,0,B|400:320,1,85
248,208,39993,1,0
248,104,40239,1,2
336,48,40485,1,0
416,104,40731,1,0
416,208,40977,2,0,B|416:256,1,42.5
320,296,41346,2,0,B|320:240,1,42.5
192,168,41714,5,0
56,232,41960,1,0
208,264,42206,1,2
104,152,42452,1,0
112,304,42698,2,0,B|160:360|240:352|304:344,1,170,0|2
344,280,43436,1,0
344,256,43559,1,0
416,184,43805,1,0
416,208,43927,1,0
416,104,44173,6,0,B|408:56|352:56,1,85,2|0
320,152,44665,1,0
320,152,44911,2,0,B|240:200,1,85,0|2
232,296,45403,2,0,B|312:248,1,85
392,192,45895,2,0,B|472:144,2,85,0|2|0
392,88,46632,5,0
304,32,46878,1,0
304,32,47001,1,0
216,88,47247,1,0
216,88,47370,1,0
216,192,47616,1,0
216,192,47739,1,0
216,192,47862,1,0
304,248,48108,1,0
304,248,48231,1,0
304,248,48354,1,0
304,144,48600,6,0,B|376:152|416:208|408:272,1,170,0|2
408,152,49337,1,0
352,72,49583,1,0
296,152,49829,1,0
232,72,50075,1,2
168,152,50321,1,0
96,224,50567,6,0,B|88:288|168:288,1,85
240,288,51059,2,0,B|344:288,1,85,6|0
408,232,51550,1,8
344,152,51796,1,0
280,232,52042,1,8
216,152,52288,1,0
280,72,52534,2,0,B|464:72,2,170,8|2|0
384,152,53764,1,0
232,152,54009,1,2
80,152,54255,1,0
80,256,54501,6,0,B|112:288,1,42.5
216,288,54870,2,0,B|248:256,1,42.5,0|2
352,256,55239,1,0
376,240,55362,1,0
352,144,55608,1,0
376,160,55731,1,0
224,192,55977,1,2
128,72,56223,1,0
128,72,56468,6,0,B|80:112|80:176|104:216|168:224,1,170,0|2
200,152,57206,1,0
264,72,57452,1,0
328,152,57698,1,0
392,72,57944,2,0,B|432:104|432:160,1,85,2|0
256,240,58436,6,0,B|256:328,1,85
256,128,58927,2,0,B|256:40,1,85,2|0
328,192,59419,2,0,B|424:192,1,85
184,192,59911,2,0,B|96:192,1,85,2|0
136,96,60403,1,4
240,96,60649,2,0,B|344:96,2,85,0|2|0
136,96,61386,1,4
192,184,61632,2,0,B|256:256,2,85,0|2|0
256,104,62370,5,4
256,104,62616,1,0
344,160,62862,1,2
344,160,63108,1,0
312,256,63354,1,0
312,256,63477,1,0
208,256,63723,1,0
208,256,63846,1,2
176,160,64091,1,0
176,160,64214,1,0
176,160,64337,1,4
208,96,66305,6,0,B|104:96,1,85,4|0
304,288,66796,2,0,B|400:288,1,85,8|0
304,152,67288,2,0,B|392:152,1,85
208,240,67780,2,0,B|120:240,2,85,8|0|0
312,240,68518,1,0
416,240,68764,2,0,B|416:128|296:128,1,170,8|0
248,48,69501,1,0
314,129,69747,1,8
248,208,69993,1,0
312,288,70239,1,0
312,288,70731,6,0,B|208:288,1,85,8|0
144,224,71223,1,0
216,152,71468,2,0,B|256:112,2,42.5,0|0|8
288,80,71960,1,0
392,80,72206,2,0,B|424:136|384:184,1,85,4|0
296,152,72698,2,0,B|256:200|256:272|304:320,1,170,8|4
376,312,73436,1,0
200,312,73682,1,8
104,312,73927,1,0
104,208,74173,6,0,B|104:104,1,85
424,192,74665,2,0,B|424:280,1,85,8|0
208,184,75157,2,0,B|208:80,1,85
312,208,75649,2,0,B|312:304,2,85,8|0|0
312,104,76386,5,0
312,104,76509,1,0
312,104,76632,1,8
240,32,76878,1,0
240,32,77001,1,0
240,32,77124,1,0
168,104,77370,2,0,B|168:160|240:160,2,85,0|8|0
168,104,78108,1,0
384,320,78600,6,0,B|384:208,1,85,8|0
384,136,79091,1,0
384,136,79337,1,0
384,136,79460,1,0
384,136,79583,1,8
280,136,79829,2,0,B|176:136,1,85,0|4
128,56,80321,5,0
195,135,80567,1,4
128,208,80813,1,0
195,135,81059,1,4
96,136,81305,1,0
195,135,81550,1,8
195,135,81796,2,0,B|256:136,2,42.5
312,64,82288,5,0
392,128,82534,2,0,B|392:200|336:248|256:248,1,170,8|0
184,248,83272,2,0,B|96:248,2,85,0|8|0
184,144,84009,1,0
320,80,84255,1,0
248,216,84501,1,8
224,64,84747,1,0
336,168,84993,1,0
424,216,85239,5,0
384,312,85485,1,8
280,312,85731,1,0
248,216,85977,2,0,B|160:216,1,85
88,144,86468,1,8
248,80,86714,1,0
320,152,86960,5,0
320,256,87206,2,0,B|320:304,2,42.5,0|0|8
320,152,87698,1,0
232,208,87944,2,0,B|128:208,1,85,4|0
200,120,88436,2,0,B|104:120,1,85,6|0
168,32,88927,2,0,B|264:32,2,85,0|0|6
328,240,89911,6,0,B|288:288|224:280|192:264|168:224,1,170,0|8
256,176,90649,1,0
176,112,90895,2,0,B|216:64|280:72|312:88|336:128,1,170,0|8
256,176,91632,1,0
256,72,91878,2,0,B|256:24,1,42.5
256,288,92247,2,0,B|256:336,1,42.5,0|8
184,176,92616,5,0
272,128,92862,1,0
328,216,93108,1,0
232,256,93354,1,8
280,344,93600,1,0
136,256,93846,2,0,B|88:256|88:200,1,85,4|0
80,32,94337,2,0,B|136:32|136:88,1,85,2|0
200,168,94829,1,4
200,168,95075,1,0
304,168,95321,1,2
304,168,95567,1,0
256,288,95813,5,4
256,64,96059,1,0
256,232,96305,1,6
256,120,96550,1,0
256,176,96796,1,4
152,176,97042,5,0
360,176,97288,1,2
152,176,97534,1,0
360,176,97780,6,0,B|360:344,2,170,4|2|0
256,176,99009,1,0
256,176,99132,1,0
256,176,99255,1,2
152,176,99501,1,0
256,176,99747,1,0
360,136,99993,5,0
360,248,100239,1,2
264,288,100485,1,0
264,96,100731,1,0
160,136,100977,1,0
160,248,101223,1,2
256,192,101469,2,0,B|352:192,2,85
256,192,102206,5,2
256,192,102329,1,0
256,192,102452,1,0
168,144,102698,2,0,B|176:96|232:96,1,85
344,240,103190,2,0,B|336:288|280:288,1,85,2|0
184,288,103682,1,0
328,96,103927,1,0
176,144,104173,6,0,B|104:88,1,85,2|0
320,256,104665,2,0,B|400:320,1,85
248,208,105157,1,2
352,96,105403,1,0
352,248,105649,1,0
248,136,105895,1,0
352,248,106141,2,0,B|352:296,1,42.5,2|0
352,192,106510,2,0,B|352:136,1,42.5
192,168,106878,5,0
48,216,107124,1,2
192,256,107370,1,0
48,312,107616,2,0,B|96:368|176:360|240:352,1,170,0|2
205,355,108354,1,0
344,280,108600,1,0
344,256,108723,1,0
416,184,108969,1,0
416,208,109091,1,2
416,56,109337,1,0
264,56,109583,1,0
336,192,109829,6,0,B|248:248,2,85,0|2|0
184,184,110567,2,0,B|264:136,1,85
344,288,111059,2,0,B|424:240,2,85,2|0|8
240,288,111796,5,0
136,288,112042,1,8
64,216,112288,1,0
136,144,112534,1,8
216,88,112780,1,0
304,144,113026,1,0
304,144,113149,1,0
304,144,113272,1,0
304,144,113395,1,0
304,144,113518,6,0,B|376:152|416:208|408:272,1,170,4|2
328,312,114255,1,0
256,240,114501,1,0
184,312,114747,1,0
256,240,114993,1,2
176,176,115239,1,0
256,112,115485,6,0,B|344:112,1,85
256,112,115977,2,0,B|160:112,1,85,2|0
408,232,116468,1,8
344,152,116714,1,0
280,232,116960,1,8
216,152,117206,1,0
280,72,117452,2,0,B|464:72,2,170,8|2|0
280,176,118682,1,0
360,232,118927,1,2
280,296,119173,1,0
80,256,119419,6,0,B|112:288,1,42.5
216,288,119788,2,0,B|248:256,1,42.5,0|2
240,152,120157,2,0,B|208:120,1,42.5
104,120,120526,2,0,B|72:152,1,42.5
240,152,120895,1,2
384,72,121141,5,0
384,72,121386,2,0,B|432:112|432:176|408:216|344:224,1,170,0|2
312,152,122124,1,0
256,240,122370,1,0
200,152,122616,1,0
152,240,122862,2,0,B|152:304|208:312,1,85,2|0
312,144,123354,2,0,B|384:80,1,85
200,248,123846,2,0,B|120:312,1,85,2|0
200,144,124337,2,0,B|128:88,1,85,4|0
312,248,124829,2,0,B|400:328,1,85,6|0
256,192,125321,5,0
256,88,125567,2,0,B|256:24|184:24,2,85,0|2|0
256,192,126304,1,0
256,296,126550,2,0,B|256:352|320:352,2,85,0|2|0
256,104,127288,5,4
256,104,127534,1,0
304,256,127780,1,6
304,256,128026,1,0
176,160,128272,1,0
176,160,128395,1,0
336,160,128641,1,0
336,160,128764,1,2
208,256,129009,1,0
208,256,129132,1,0
208,256,129255,1,4
352,240,131223,6,0,B|352:344,1,85,4|0
160,144,131714,2,0,B|160:48,1,85,8|0
296,144,132206,2,0,B|296:56,1,85,0|0
208,240,132698,2,0,B|208:328,2,85,8|0|0
208,240,133436,1,0
312,240,133682,2,0,B|368:208|368:128|304:96,1,170,8|0
312,101,134419,1,0
248,176,134665,1,8
176,104,134911,1,0
104,176,135157,1,0
184,360,135649,6,0,B|288:360,1,85,8|0
224,272,136141,1,0
296,200,136387,1,0
296,200,136509,1,0
296,200,136632,1,8
224,272,136878,1,0
152,200,137124,2,0,B|96:200|96:136,1,85,4|0
152,64,137616,2,0,B|256:64|256:184,1,170,8|4
344,120,138354,1,0
168,224,138600,1,4
88,280,138845,1,0
408,208,139091,6,0,B|408:104,1,85,4|0
88,192,139583,2,0,B|88:280,1,85,8|0
304,184,140075,2,0,B|304:80,1,85
200,208,140567,2,0,B|200:304,2,85,8|0|0
200,104,141304,5,0
200,104,141427,1,0
200,104,141550,1,8
272,32,141796,1,0
272,32,142042,1,0
120,168,142288,2,0,B|120:240|192:240,2,85,0|8|0
120,168,143026,1,0
256,320,143518,6,0,B|256:208,1,85,8|0
168,184,144009,1,0
352,184,144255,1,0
352,184,144378,1,0
352,184,144501,1,8
168,184,144747,1,0
256,192,144993,12,4,146960
280,120,154829,6,8,B|344:120|344:192,1,85,4|0
232,264,155321,2,0,B|168:264|168:192,1,85,2|0
136,128,155813,2,0,B|136:72|192:72,1,85,4|0
376,256,156305,2,0,B|376:312|320:312,1,85,2|0
256,160,156796,5,8
208,248,157042,1,0
312,248,157288,1,8
256,336,157534,5,0
152,160,157780,1,8
360,160,158026,1,0
256,248,158272,2,0,B|256:200,2,42.5,6|0|0
216,80,158764,2,0,B|312:80,1,85
256,168,159255,1,2
256,272,159501,2,0,B|152:272|152:152,1,170
256,168,160239,5,2
256,168,160362,1,0
256,168,160485,1,0
288,72,160731,2,0,B|352:72|352:136,1,85,4|0
352,288,161223,5,2
352,288,161468,2,0,B|168:288,1,170
80,288,162206,2,0,B|32:288,4,42.5
328,112,163190,6,0,B|408:40,1,85,10|0
192,112,163682,2,0,B|96:176,1,85
304,240,164173,2,0,B|376:184,1,85,10|0
168,240,164665,2,0,B|88:296,1,85
80,184,165157,5,10
168,240,165403,1,0
256,184,165649,1,0
168,240,165895,2,0,B|168:344,2,85,0|10|0
168,88,166632,6,0,B|192:40,1,42.5
272,104,167001,2,0,B|312:80,1,42.5,0|2
344,176,167370,1,0
288,264,167616,2,0,B|264:312,1,42.5
184,248,167985,2,0,B|144:272,1,42.5,0|2
112,176,168354,1,0
184,104,168600,5,8
336,104,168846,1,0
208,192,169091,1,10
256,48,169337,1,0
304,192,169583,1,8
392,248,169829,5,0
352,344,170075,1,10
248,344,170321,1,0
216,248,170567,1,8
152,112,176468,6,0,B|96:208|168:296,1,170,4|2
352,272,177452,2,0,B|408:176|336:88,1,170,4|2
248,192,178436,5,0
248,88,178682,1,0
336,144,178927,1,2
336,248,179173,1,0
248,304,179419,1,0
160,248,179665,1,0
160,144,179911,1,6
248,192,180403,6,0,B|248:304,1,85
248,120,180895,2,0,B|248:24,1,85,2|0
416,80,181387,1,0
416,184,181632,2,0,B|448:224,4,42.5,0|0|2|0|0
312,184,182370,2,0,B|200:184,1,85,8|0
152,256,182862,2,0,B|256:256,1,85,8|0
312,328,183354,2,0,B|208:328,2,85,8|8|8
328,112,184337,6,0,B|280:80|232:128,1,85
248,113,184829,1,2
288,208,185075,2,0,B|288:264,1,42.5
200,288,185444,2,0,B|200:240,1,42.5
112,208,185813,2,0,B|112:256,4,42.5,2|0|0|0|0
272,96,186796,5,2
416,96,187042,1,0
344,96,187288,2,0,B|344:184|264:240,1,170,0|2
168,208,188026,2,0,B|184:152|224:144,1,85
264,240,188518,2,0,B|264:296|208:304,1,85,0|2
112,296,189009,1,0
168,208,189255,1,0
112,120,189501,1,0
168,32,189747,1,2
224,120,189993,5,0
224,120,190239,2,0,B|328:120,1,85,4|0
376,280,190731,2,0,B|288:280,1,85,2|0
120,280,191223,5,0
120,256,191346,1,0
176,176,191591,1,0
176,200,191714,1,2
240,280,191960,1,0
240,256,192083,1,0
240,232,192206,6,0,B|240:64,1,170,0|10
328,248,193190,1,0
384,160,193436,1,0
440,248,193682,1,10
328,248,193928,2,0,B|328:336,2,85
328,248,194665,5,10
176,280,194911,1,0
88,160,195157,1,0
184,40,195403,1,0
328,96,195649,1,10
328,248,195895,1,0
184,208,196141,2,0,B|144:256|208:312,1,85
336,288,196632,2,0,B|376:240|312:184,1,85,10|0
264,96,197124,5,0
264,208,197370,1,0
264,152,197616,1,10
264,264,197862,1,0
184,320,198108,2,0,B|272:360,1,85,4|0
340,320,198600,2,0,B|252:360,1,85,6|0
264,264,199091,5,8
332,188,199337,1,0
199,158,199583,1,10
390,97,199829,1,0
144,56,200075,2,0,B|88:96|96:184|176:216,1,170,4|10
368,328,201059,2,0,B|424:288|416:200|336:168,1,170,4|10
296,112,201796,5,0
200,152,202042,1,0
256,240,202288,1,0
352,200,202534,1,10
384,120,202780,5,0
224,72,203026,1,8
176,232,203272,1,0
328,280,203518,1,10
176,144,204009,6,0,B|80:96,1,85,4|0
320,240,204501,2,0,B|400:280,1,85,6|0
256,112,204993,1,0
256,112,205239,1,0
336,176,205485,1,2
336,176,205731,1,0
312,272,205977,5,4
208,272,206223,5,0
208,272,206346,1,0
208,272,206468,1,2
176,176,206714,5,0
256,112,206960,5,4
256,112,207083,1,0
312,24,207329,1,0
312,24,207452,1,2
208,24,207698,5,0
208,24,207944,1,4
