osu file format v9

[General]
AudioFilename: vocal 136 .mp3
AudioLeadIn: 2007
PreviewTime: 192083
Countdown: 0
SampleSet: Soft
StackLeniency: 0.7
Mode: 0
LetterboxInBreaks: 1

[Editor]
Bookmarks: 207944
DistanceSpacing: 1.1
BeatDivisor: 6
GridSize: 8

[Metadata]
Title:Kodokutsuki
Artist:Senya
Creator:y u z u k i
Version:Easy
Source:touhou
Tags:flandre scarlet gowww U.N. Owen was her?

[Difficulty]
HPDrainRate:2
CircleSize:3
OverallDifficulty:2
ApproachRate:2
SliderMultiplier:0.9
SliderTickRate:1

[Events]
//Background and Video events
0,0,"BG.jpg"
//Break Periods
2,25192,31302
//Storyboard Layer 0 (Background)
//Storyboard Layer 1 (Fail)
//Storyboard Layer 2 (Pass)
//Storyboard Layer 3 (Foreground)
//Storyboard Sound Samples
//Background Colour Transformations
3,100,163,162,255

[TimingPoints]
1387,491.803278688525,4,2,1,70,1,0
1387,-100,4,2,1,26,0,0
8190,-100,4,2,1,56,0,0
9173,-100,4,2,1,100,0,0
32780,-100,4,2,1,54,0,0
66223,-100,4,2,1,100,0,0
66305,-100,4,2,1,70,0,1
97288,-100,4,2,1,70,0,0
97698,-100,4,2,1,55,0,0
131141,-100,4,2,1,100,0,0
131223,-100,4,2,1,70,0,1
146960,-100,4,2,1,70,0,0

[Colours]
Combo1 : 188,137,250
Combo2 : 254,114,173
Combo3 : 254,157,105
Combo4 : 135,197,252

[HitObjects]
208,232,1387,2,0,B|176:192|216:144,1,90,0|2
312,152,2370,2,0,B|344:192|304:240,1,90,0|2
256,320,3354,5,0
104,192,4337,1,0
256,72,5321,1,0
408,192,6305,1,0
256,320,7288,5,4
256,224,7780,1,2
256,128,8272,2,0,B|256:80,2,45,0|0|4
64,96,9255,6,0,B|168:96,1,90,0|2
256,96,10239,1,0
256,192,10731,1,2
256,288,11223,2,0,B|360:288,2,90,0|2|0
160,288,12698,1,2
200,200,13190,6,0,B|240:160|168:80|216:24,2,180
280,264,15649,1,2
360,200,16141,1,0
440,264,16632,1,2
360,328,17124,6,0,B|80:328,1,270
128,232,19091,2,0,B|400:232,1,270
400,136,21059,5,0
256,272,22042,1,0
112,136,23026,1,0
192,80,23518,2,0,B|216:32,2,45,2|0|0
216,176,24501,2,0,B|304:208,1,90,2|0
184,96,32862,6,0,B|128:120|128:232|192:256,1,180
248,176,34337,1,2
336,128,34829,2,0,B|440:128,1,90,0|2
432,224,35813,2,0,B|344:224,2,90,0|2|0
392,312,37288,1,0
296,312,37780,6,0,B|200:312|152:280|136:240|136:184|136:136,1,270,0|2
136,48,39747,1,0
136,48,40239,1,2
232,48,40731,6,0,B|328:48|376:80|392:120|392:176|392:224,1,270,0|2
392,312,42698,1,0
296,312,43190,1,2
200,312,43682,2,0,B|152:312,2,45,0|0|2
248,224,44665,6,0,B|248:168|200:144,1,90,0|2
192,48,45649,2,0,B|136:56|112:112,1,90,0|2
24,120,46632,2,0,B|40:176|88:200|128:200|184:200,2,180
120,104,49091,5,2
120,104,49583,2,0,B|208:104,1,90,0|2
288,40,50567,1,0
352,120,51059,1,2
288,192,51550,1,0
352,264,52042,1,2
288,344,52534,6,0,B|192:344|144:320|128:280|128:216|128:168,1,270,0|2
80,88,54501,1,0
80,88,54993,1,2
184,88,55485,2,0,B|240:88,2,45,0|0|2
128,176,56468,6,0,B|128:272|152:320|192:336|256:336|304:336,1,270,0|2
392,336,58436,1,0
392,240,58927,2,0,B|392:136,1,90,2|0
392,48,59911,2,0,B|448:48,2,45,2|0|0
296,48,60895,1,2
200,48,61387,2,0,B|152:48,2,45,0|0|2
256,192,62370,12,4,65813
184,128,66305,6,0,B|216:88|272:72|312:96|344:144,1,180
256,192,67780,1,2
184,264,68272,2,0,B|216:304|272:320|312:296|344:248,1,180
256,192,69747,1,2
256,96,70239,2,0,B|312:112|352:96,1,90,0|2
432,56,71223,2,0,B|456:104|432:144,1,90,0|2
368,216,72206,5,0
272,216,72698,1,2
176,216,73190,1,0
80,216,73682,1,2
128,128,74173,6,0,B|208:64,1,90,0|2
232,168,75157,2,0,B|160:224,2,90,0|2|0
312,104,76632,1,2
392,168,77124,2,0,B|464:224|464:232,2,90,0|2|0
312,104,78600,6,0,B|264:160|352:224|304:296,1,180,2|2
240,344,80075,1,0
168,280,80567,1,2
240,208,81059,1,0
168,144,81550,2,0,B|208:104,2,45,2|0|0
240,208,82534,5,2
240,208,83026,2,0,B|280:248|344:200|392:200|424:224,1,180
416,120,84501,1,2
320,120,84993,1,0
224,120,85485,1,2
128,120,85977,2,0,B|128:184,1,45
128,216,86468,6,0,B|128:272|168:312|224:320|272:312,1,180,2|2
320,240,87944,1,0
384,312,88436,1,2
320,240,88927,1,0
368,152,89419,1,2
368,152,89911,6,0,B|288:88|288:88|216:136,1,180
152,200,91387,1,2
152,200,91878,2,0,B|232:264|232:264|304:216,1,180
360,296,93354,1,2
400,208,93846,6,0,B|296:208,1,90,0|2
264,296,94829,2,0,B|176:296,2,90,0|2|0
336,232,96305,1,2
256,176,96796,1,0
336,120,97288,1,2
336,120,97780,6,0,B|392:144|392:256|328:280,1,180
272,200,99255,1,2
184,152,99747,2,0,B|80:152,1,90,0|2
88,248,100731,2,0,B|176:248,2,90,0|2|0
128,336,102206,1,0
224,336,102698,6,0,B|320:336|368:304|384:264|384:208|384:160,1,270,0|2
384,72,104665,1,0
384,72,105157,1,2
288,72,105649,6,0,B|192:72|144:104|128:144|128:200|128:248,1,270,0|2
128,336,107616,1,0
224,336,108108,1,2
320,336,108600,2,0,B|368:336,2,45,0|0|2
272,248,109583,6,0,B|272:192|320:168,1,90,0|2
328,72,110567,2,0,B|384:80|408:136,1,90,0|2
496,144,111550,2,0,B|480:200|432:224|392:224|336:224,2,180
400,128,114009,5,2
400,128,114501,2,0,B|312:128,1,90,0|2
232,64,115485,1,0
168,144,115977,1,2
232,216,116468,1,0
168,288,116960,1,2
232,368,117452,6,0,B|328:368|376:344|392:304|392:240|392:192,1,270,0|2
440,112,119419,1,0
440,112,119911,1,2
336,112,120403,2,0,B|280:112,2,45,0|0|2
392,200,121386,6,0,B|392:296|368:344|328:360|264:360|216:360,1,270,0|2
128,360,123354,1,0
128,264,123845,2,0,B|128:160,1,90,2|0
128,72,124829,6,0,B|72:72,2,45,2|0|0
224,72,125813,1,2
320,72,126305,2,0,B|368:72,2,45,0|0|2
256,192,127288,12,4,130731
336,152,131223,6,0,B|304:112|248:96|208:120|176:168,1,180
264,216,132698,1,2
336,288,133190,2,0,B|304:328|248:344|208:320|176:272,1,180
264,216,134665,1,2
264,120,135157,2,0,B|208:136|168:120,1,90,0|2
88,80,136141,2,0,B|64:128|88:168,1,90,0|2
152,240,137124,5,0
248,240,137616,1,2
344,240,138108,1,0
440,240,138600,1,2
392,152,139091,6,0,B|312:88,1,90,0|2
288,192,140075,2,0,B|360:248,2,90,0|2|0
208,128,141550,1,2
128,192,142042,2,0,B|56:248|56:256,2,90,0|2|0
208,128,143518,6,0,B|256:184|168:248|216:320,1,180,2|2
296,344,144993,1,0
360,272,145485,1,2
296,200,145977,1,0
360,128,146468,2,0,B|320:88,2,45,2|0|0
