osu file format v12

[General]
AudioFilename: 04 - .mp3
AudioLeadIn: 1500
PreviewTime: -1
Countdown: 0
SampleSet: Soft
StackLeniency: 0.5
Mode: 0
LetterboxInBreaks: 0
WidescreenStoryboard: 0

[Editor]
Bookmarks: 99713
DistanceSpacing: 0.9
BeatDivisor: 4
GridSize: 8

[Metadata]
Title:Kobore Sakura
TitleUnicode:零れ桜
Artist:Senya
ArtistUnicode:Senya
Creator:Tonoko
Version:Insane
Source:touhou
Tags:Yuuhei Satellite
BeatmapID:318727
BeatmapSetID:125179

[Difficulty]
HPDrainRate:5
CircleSize:4
OverallDifficulty:5
ApproachRate:7
SliderMultiplier:1.8
SliderTickRate:1

[Events]
//Background and Video events
0,0,"uuk_2.jpg",0,0
//Break Periods
2,29246,35480
2,203691,236369
//Storyboard Layer 0 (Background)
//Storyboard Layer 1 (Fail)
//Storyboard Layer 2 (Pass)
//Storyboard Layer 3 (Foreground)
//Storyboard Sound Samples
//Background Colour Transformations
3,100,163,162,255

[TimingPoints]
825,444.444444444444,4,2,0,40,1,0
105618,-133.333333333333,4,2,0,100,0,0
106824,-100,4,2,0,100,0,0

[Colours]
Combo1 : 255,209,70
Combo2 : 15,255,15
Combo3 : 89,164,255
Combo4 : 248,129,147

[HitObjects]
80,72,824,2,8,L|192:64,1,90
176,144,1269,2,8,B|232:168|232:168|272:240|216:304,1,180
168,336,1935,1,8,0:0:0:0:
312,320,2158,2,8,P|360:328|408:360,1,90
368,96,2602,2,8,B|360:160|360:160|376:224|472:240,1,180
456,136,3269,1,8,0:0:0:0:
368,96,3491,1,8,0:0:0:0:
280,56,3685,2,8,P|236:69|176:72,1,90
48,176,4380,2,8,P|96:176|176:192,1,90
272,176,4824,2,8,P|246:218|200:256,1,90
144,368,5269,2,8,P|130:323|128:272,2,90
296,320,6158,2,8,P|384:288|448:320,1,135
456,320,6602,2,8,L|464:224,1,90
416,72,7046,2,8,L|408:176,1,90
376,184,7380,1,8,0:0:0:0:
336,200,7491,2,8,L|328:312,1,90
248,304,7935,2,8,P|192:256|120:280,1,135
104,288,8380,2,8,P|56:288|16:272,1,90
32,104,9019,2,8,L|104:208,1,90
192,96,9713,2,8,B|240:72|240:72|296:72|344:88,1,135
344,112,10158,2,8,P|390:109|432:96,1,90
368,288,10796,2,8,L|464:304,1,90
208,344,11491,1,8,0:0:0:0:
160,280,11935,1,8,0:0:0:0:
112,216,12380,1,8,0:0:0:0:
64,152,12824,1,8,0:0:0:0:
64,152,13269,2,8,P|96:80|128:64,1,90
360,80,13713,2,8,L|232:96,1,90
360,304,14158,2,8,L|352:200,1,90
120,320,14602,2,8,P|176:336|224:304,1,90
16,232,15046,2,8,L|176:176,1,135
176,208,15491,1,8,0:0:0:0:
184,96,15713,2,8,P|208:48|264:24,1,90
320,48,16158,2,8,P|344:104|320:160,1,90
392,328,16602,1,8,0:0:0:0:
392,328,16824,2,8,L|432:176,1,135
464,176,17269,1,8,0:0:0:0:
320,184,17491,2,8,P|288:224|248:232,1,90
192,168,17935,2,8,P|216:112|264:96,1,90
120,64,18491,1,8,0:0:0:0:
120,64,18602,2,8,P|48:104|40:208,1,180
48,336,19380,1,8,0:0:0:0:
48,336,19491,2,8,P|120:296|128:192,1,180
256,96,20380,1,8,0:0:0:0:
320,48,20602,1,8,0:0:0:0:
496,128,20824,1,8,0:0:0:0:
384,144,21046,1,8,0:0:0:0:
456,224,21269,1,8,0:0:0:0:
256,336,21491,1,8,0:0:0:0:
384,328,21713,1,8,0:0:0:0:
160,256,21935,1,8,0:0:0:0:
32,288,22158,2,8,L|64:144,1,135
48,120,22602,1,8,0:0:0:0:
128,96,22824,2,8,P|168:80|208:24,1,90
216,160,23269,2,8,P|232:208|216:272,1,90
144,312,23713,1,8,0:0:0:0:
144,312,23935,2,8,L|312:344,1,135
312,320,24380,1,8,0:0:0:0:
432,280,24602,2,8,P|424:328|392:368,1,90
464,200,25046,2,8,P|472:144|496:104,1,90
344,40,25713,1,8,0:0:0:0:
368,120,25935,1,8,0:0:0:0:
240,184,26158,1,8,0:0:0:0:
240,184,26602,1,8,0:0:0:0:
112,240,26824,1,8,0:0:0:0:
136,320,27046,1,8,0:0:0:0:
296,320,27491,1,8,0:0:0:0:
376,320,27713,1,8,0:0:0:0:
480,208,27935,1,8,0:0:0:0:
384,224,28158,1,8,0:0:0:0:
208,152,28380,1,8,0:0:0:0:
312,144,28602,1,8,0:0:0:0:
128,216,28824,1,8,0:0:0:0:
16,200,29046,1,8,0:0:0:0:
336,40,36380,6,8,L|440:192,1,180
424,272,37047,1,8,0:0:0:0:
344,248,37269,2,8,P|264:296|240:296,1,90
304,176,37714,1,8,0:0:0:0:
304,176,37936,2,8,L|112:160,1,180
64,208,38602,1,8,0:0:0:0:
64,352,38824,2,8,P|104:312|112:256,2,90
216,288,39713,1,8,0:0:0:0:
216,288,39936,2,8,P|296:264|336:280,2,90
400,256,40602,2,8,P|376:200|336:176,2,90
480,336,41269,1,8,0:0:0:0:
480,336,41491,2,8,L|488:128,1,180
464,80,42158,1,8,0:0:0:0:
384,72,42380,2,8,P|312:48|264:64,2,90
344,144,43047,1,8,0:0:0:0:
256,152,43269,1,8,0:0:0:0:
256,152,43491,2,8,L|72:104,1,180
40,176,44158,1,8,0:0:0:0:
40,176,44380,2,8,P|96:240|96:280,2,90
304,272,45047,2,8,L|104:344,1,180
368,352,45713,1,8,0:0:0:0:
368,352,45936,2,8,P|416:312|472:320,2,90
464,216,46824,1,8,0:0:0:0:
464,216,47046,2,8,P|384:192|368:168,1,90
400,112,47491,2,8,P|432:64|480:40,1,90
312,128,47936,2,8,P|288:200|304:248,1,90
224,64,48602,1,8,0:0:0:0:
224,64,48824,2,8,P|168:72|120:64,1,90
48,144,49269,2,8,P|40:208|56:248,1,90
232,224,49713,2,8,P|192:192|128:184,1,90
88,328,50380,1,8,0:0:0:0:
88,328,50602,1,8,0:0:0:0:
120,304,50713,1,8,0:0:0:0:
160,296,50824,1,8,0:0:0:0:
200,304,50936,1,8,0:0:0:0:
240,320,51047,1,8,0:0:0:0:
272,344,51158,1,8,0:0:0:0:
312,360,51269,1,8,0:0:0:0:
352,368,51380,1,8,0:0:0:0:
392,360,51491,1,8,0:0:0:0:
424,344,51602,1,8,0:0:0:0:
448,312,51713,1,8,0:0:0:0:
456,272,51824,1,8,0:0:0:0:
448,232,51936,1,8,0:0:0:0:
424,200,52047,1,8,0:0:0:0:
392,176,52158,1,8,0:0:0:0:
352,168,52269,1,8,0:0:0:0:
312,168,52380,2,8,L|216:224,2,90
168,312,53047,2,8,B|136:256|136:176|136:176|184:112,1,180
32,48,53713,1,8,0:0:0:0:
136,64,53936,1,8,0:0:0:0:
224,24,54158,2,8,B|248:96|248:96|288:144|376:144,1,180
392,80,54824,1,8,0:0:0:0:
456,136,55047,2,8,L|488:256,1,90
360,272,55491,2,8,L|384:176,1,90
248,200,55936,1,8,0:0:0:0:
264,280,56158,1,8,0:0:0:0:
64,288,56380,1,8,0:0:0:0:
168,328,56602,1,8,0:0:0:0:
160,232,56824,1,8,0:0:0:0:
88,152,57047,1,8,0:0:0:0:
256,72,57269,1,8,0:0:0:0:
144,56,57491,1,8,0:0:0:0:
144,56,57713,2,8,B|88:32|88:32|24:64|16:120,1,180
200,200,58380,1,8,0:0:0:0:
256,328,58602,2,8,B|312:352|312:352|376:320|384:264,1,180
384,263,59269,1,8,0:0:0:0:
384,263,59491,2,8,P|384:176|448:112,1,180
376,64,60158,2,8,L|264:40,1,90
184,192,60602,1,8,0:0:0:0:
192,88,60824,1,8,0:0:0:0:
96,32,61047,1,8,0:0:0:0:
96,32,61269,2,8,P|88:128|32:208,1,180
44,197,61936,2,8,L|72:304,2,90
160,248,62602,2,8,L|224:152,1,90
256,296,63047,2,8,P|344:296|440:352,1,180
352,200,63713,1,8,0:0:0:0:
448,104,63936,2,8,P|360:104|264:48,1,180
200,88,64602,1,8,0:0:0:0:
144,168,64824,1,8,0:0:0:0:
144,168,64936,1,8,0:0:0:0:
56,144,65158,1,8,0:0:0:0:
56,144,65269,1,8,0:0:0:0:
96,336,65491,1,8,0:0:0:0:
96,336,65602,1,8,0:0:0:0:
32,256,65824,1,8,0:0:0:0:
32,256,65936,1,8,0:0:0:0:
160,256,66158,1,8,0:0:0:0:
240,352,66380,1,8,0:0:0:0:
240,352,66602,2,8,L|432:304,1,180
496,184,67269,2,8,B|465:160|465:160|385:160|329:192,1,180
136,256,67935,1,8,0:0:0:0:
224,192,68158,1,8,0:0:0:0:
136,144,68380,2,8,B|112:72|112:72|72:24|-16:24,1,180
40,136,69046,1,8,0:0:0:0:
24,232,69269,2,8,L|56:352,1,90
136,368,69713,2,8,L|160:272,1,90
264,256,70158,1,8,0:0:0:0:
344,312,70380,1,8,0:0:0:0:
496,184,70602,1,8,0:0:0:0:
392,216,70824,1,8,0:0:0:0:
336,48,71046,1,8,0:0:0:0:
392,128,71269,1,8,0:0:0:0:
208,88,71491,1,8,0:0:0:0:
288,152,71713,1,8,0:0:0:0:
88,96,71935,2,8,B|56:136|56:136|48:208|88:256,1,180
192,192,72602,1,8,0:0:0:0:
280,264,72824,2,8,B|344:256|344:256|400:288|408:368,1,180
464,264,73491,1,8,0:0:0:0:
464,264,73713,2,8,P|480:168|400:88,1,180
392,32,74380,2,8,L|304:64,1,90
208,176,74824,1,8,0:0:0:0:
232,96,75046,1,8,0:0:0:0:
184,32,75269,1,8,0:0:0:0:
184,32,75491,2,8,B|120:40|120:40|72:72|56:152,1,180
88,296,76158,2,8,P|74:344|44:395,1,90
136,208,76602,2,8,P|178:200|232:200,1,90
420,354,77269,2,8,P|336:344|256:296,1,180
352,200,77935,1,8,0:0:0:0:
448,104,78158,2,8,P|368:56|264:48,1,180
120,56,79047,1,8,0:0:0:0:
96,176,79380,1,8,0:0:0:0:
64,296,79713,1,8,0:0:0:0:
128,248,79936,1,8,0:0:0:0:
240,304,80269,1,8,0:0:0:0:
352,360,80602,1,8,0:0:0:0:
320,288,80824,1,8,0:0:0:0:
312,168,81157,1,8,0:0:0:0:
304,48,81490,1,8,0:0:0:0:
304,48,81713,1,8,0:0:0:0:
344,40,81824,1,8,0:0:0:0:
384,48,81936,1,8,0:0:0:0:
416,72,82047,1,8,0:0:0:0:
432,112,82158,1,8,0:0:0:0:
440,152,82269,1,8,0:0:0:0:
448,192,82380,1,8,0:0:0:0:
456,232,82491,1,8,0:0:0:0:
464,272,82602,2,8,B|393:285|393:285|355:337|288:336,1,180
304,256,83269,2,8,P|259:240|200:240,1,90
152,296,83713,1,8,0:0:0:0:
56,168,83936,1,8,0:0:0:0:
72,256,84158,1,8,0:0:0:0:
144,208,84380,2,8,B|136:140|136:140|96:56|160:8,1,180
208,88,85047,2,8,P|256:80|312:80,1,90
368,32,85491,1,8,0:0:0:0:
368,32,85713,2,8,L|440:112,1,90
472,208,86158,2,8,L|376:184,1,90
384,186,86602,1,8,0:0:0:0:
336,248,86824,2,8,L|264:334,2,90
400,296,87491,1,8,0:0:0:0:
256,192,87713,12,8,88824,0:0:0:0:
208,72,89047,6,8,L|304:96,1,90
295,93,89491,1,8,0:0:0:0:
295,93,89713,1,8,0:0:0:0:
304,312,90824,6,8,L|216:290,1,90
216,290,91268,1,8,0:0:0:0:
216,290,91490,1,8,0:0:0:0:
40,160,92602,1,8,0:0:0:0:
40,160,92824,1,8,0:0:0:0:
40,160,93047,2,8,B|56:120|120:128|144:192|240:144,1,180
336,56,93713,1,8,0:0:0:0:
248,80,93936,1,8,0:0:0:0:
424,72,94158,1,8,0:0:0:0:
472,256,94380,1,8,0:0:0:0:
400,176,94602,1,8,0:0:0:0:
416,360,94824,1,8,0:0:0:0:
416,360,95047,2,8,B|392:328|328:384|240:344,1,180
241,344,95602,1,8,0:0:0:0:
241,344,95713,1,8,0:0:0:0:
72,296,95936,1,8,0:0:0:0:
176,272,96158,1,8,0:0:0:0:
72,296,96380,1,8,0:0:0:0:
72,296,96491,1,8,0:0:0:0:
72,296,96602,1,8,0:0:0:0:
72,296,96713,1,8,0:0:0:0:
72,296,96824,2,8,P|40:216|64:120,2,180
208,56,98158,1,8,0:0:0:0:
388,225,98602,2,8,P|408:138|376:56,2,180
248,312,99936,2,8,B|168:320|88:304|56:352,2,180
256,232,101047,2,8,P|232:160|304:80,1,180
360,40,101713,1,8,0:0:0:0:
400,136,101936,1,8,0:0:0:0:
440,232,102158,1,8,0:0:0:0:
88,304,102602,1,8,0:0:0:0:
16,120,103047,1,8,0:0:0:0:
56,128,103158,1,8,0:0:0:0:
96,144,103269,1,8,0:0:0:0:
128,168,103380,1,8,0:0:0:0:
152,200,103491,1,8,0:0:0:0:
248,272,103936,2,8,P|384:288|432:184,1,270
280,128,104824,2,8,P|373:227|477:178,1,270
392,32,105713,2,8,P|399:168|510:197,1,270
440,344,107047,2,8,P|368:320|312:320,2,90
280,328,107936,1,8,0:0:0:0:
232,176,108380,1,8,0:0:0:0:
112,288,108824,1,8,0:0:0:0:
256,192,109269,12,8,111047,0:0:0:0:
176,152,111491,1,8,0:0:0:0:
168,112,111602,1,8,0:0:0:0:
208,120,111713,1,8,0:0:0:0:
330,142,111936,1,8,0:0:0:0:
369,155,112047,1,8,0:0:0:0:
342,186,112158,1,8,0:0:0:0:
261,281,112380,1,8,0:0:0:0:
230,308,112491,1,8,0:0:0:0:
217,269,112602,1,8,0:0:0:0:
256,192,112824,2,8,P|280:96|360:40,1,180
400,224,113491,1,8,0:0:0:0:
400,224,114158,1,8,0:0:0:0:
400,224,114602,2,8,P|376:320|296:376,1,180
144,72,115269,1,8,0:0:0:0:
144,72,115936,1,8,0:0:0:0:
144,72,116380,2,8,P|176:144|128:216,1,135
120,184,116824,2,8,P|64:216|40:296,1,135
72,304,117269,2,8,L|232:288,1,135
232,320,117713,2,8,L|400:304,1,135
392,280,118158,1,8,0:0:0:0:
288,128,118380,1,8,0:0:0:0:
296,168,118491,1,8,0:0:0:0:
304,208,118602,1,8,0:0:0:0:
176,272,118824,1,8,0:0:0:0:
192,88,119047,1,8,0:0:0:0:
32,128,119269,1,8,0:0:0:0:
64,144,119380,1,8,0:0:0:0:
96,160,119491,1,8,0:0:0:0:
8,240,119713,1,8,0:0:0:0:
208,184,119936,2,8,P|344:144|352:104,1,180
96,56,120602,2,0,P|192:48|264:120,1,180
32,360,121269,1,8,0:0:0:0:
32,360,121713,2,8,P|64:272|152:256,1,180
288,304,122380,2,0,P|224:368|128:344,1,180
128,184,123047,1,8,0:0:0:0:
128,184,123491,1,8,0:0:0:0:
144,112,123936,1,8,0:0:0:0:
208,72,124380,1,8,0:0:0:0:
280,72,124824,2,8,P|336:128|448:112,1,180
376,48,125491,2,8,L|304:232,1,180
264,328,126158,1,8,0:0:0:0:
264,328,126491,1,8,0:0:0:0:
264,328,126602,1,8,0:0:0:0:
264,328,126824,1,8,0:0:0:0:
144,288,127047,2,8,P|64:280|24:304,2,90
168,368,127713,2,8,L|112:168,1,180
56,144,128380,1,8,0:0:0:0:
176,40,128824,2,0,P|168:88|136:120,2,90
96,48,129491,2,0,L|280:24,1,180
352,56,130158,1,0,0:0:0:0:
440,192,130602,1,8,0:0:0:0:
392,248,131047,1,8,0:0:0:0:
344,304,131491,1,8,0:0:0:0:
296,360,131936,1,8,0:0:0:0:
144,216,132380,2,0,P|176:272|176:304,1,90
152,328,132713,1,8,0:0:0:0:
120,352,132824,1,8,0:0:0:0:
256,192,133047,1,8,0:0:0:0:
368,168,133269,2,0,P|336:112|336:80,1,90
360,56,133602,1,8,0:0:0:0:
392,32,133713,1,8,0:0:0:0:
256,192,133936,1,8,0:0:0:0:
120,248,134158,1,8,0:0:0:0:
376,168,134824,1,8,0:0:0:0:
200,208,135491,1,8,0:0:0:0:
288,120,135936,1,8,0:0:0:0:
280,256,136602,1,8,0:0:0:0:
104,208,137269,1,8,0:0:0:0:
320,128,137713,1,8,0:0:0:0:
400,224,138158,1,8,0:0:0:0:
160,272,138602,1,8,0:0:0:0:
240,136,139047,1,8,0:0:0:0:
192,72,139491,1,8,0:0:0:0:
272,64,139713,1,8,0:0:0:0:
312,56,139824,1,8,0:0:0:0:
352,48,139936,1,8,0:0:0:0:
392,120,140158,1,8,0:0:0:0:
344,184,140380,1,8,0:0:0:0:
264,208,140602,1,8,0:0:0:0:
224,216,140713,1,8,0:0:0:0:
184,224,140824,1,8,0:0:0:0:
104,208,141047,1,8,0:0:0:0:
48,152,141269,1,8,0:0:0:0:
80,80,141491,1,8,0:0:0:0:
136,24,141713,1,8,0:0:0:0:
216,24,141936,1,8,0:0:0:0:
296,48,142158,1,8,0:0:0:0:
352,112,142380,1,8,0:0:0:0:
376,144,142491,1,8,0:0:0:0:
408,176,142602,1,8,0:0:0:0:
424,216,142713,1,8,0:0:0:0:
408,248,142824,1,8,0:0:0:0:
368,264,142936,1,8,0:0:0:0:
464,272,143047,2,8,B|393:285|393:285|355:337|288:336,1,180
304,256,143714,2,8,P|259:240|200:240,1,90
152,296,144158,1,8,0:0:0:0:
56,168,144381,1,8,0:0:0:0:
72,256,144603,1,8,0:0:0:0:
144,208,144825,2,8,B|136:140|136:140|96:56|160:8,1,180
208,88,145492,2,8,P|256:80|312:80,1,90
368,32,145936,1,8,0:0:0:0:
368,32,146158,2,8,L|440:112,1,90
472,208,146603,2,8,L|376:184,1,90
384,186,147047,1,8,0:0:0:0:
336,248,147269,2,8,L|264:334,1,90
400,296,147713,1,8,0:0:0:0:
328,256,147936,2,8,L|224:216,2,90
208,72,149492,6,8,L|304:96,1,90
295,93,149936,1,8,0:0:0:0:
295,93,150158,1,8,0:0:0:0:
344,248,150602,1,8,0:0:0:0:
344,208,150713,1,8,0:0:0:0:
368,176,150824,1,8,0:0:0:0:
400,144,150936,1,8,0:0:0:0:
432,112,151047,1,8,0:0:0:0:
304,312,151269,6,8,L|216:290,1,90
216,290,151713,1,8,0:0:0:0:
216,290,151935,1,8,0:0:0:0:
120,160,152380,1,8,0:0:0:0:
88,144,152491,1,8,0:0:0:0:
72,184,152602,1,8,0:0:0:0:
64,224,152713,1,8,0:0:0:0:
48,264,152824,1,8,0:0:0:0:
40,160,153047,1,8,0:0:0:0:
40,160,153269,1,8,0:0:0:0:
40,160,153492,2,8,B|56:120|120:128|144:192|240:144,1,180
336,56,154158,1,8,0:0:0:0:
248,80,154381,1,8,0:0:0:0:
424,72,154603,1,8,0:0:0:0:
472,256,154825,1,8,0:0:0:0:
400,176,155047,1,8,0:0:0:0:
416,360,155269,1,8,0:0:0:0:
416,360,155492,2,8,B|392:328|328:384|240:344,1,180
241,344,156047,1,8,0:0:0:0:
241,344,156158,1,8,0:0:0:0:
72,296,156381,1,8,0:0:0:0:
176,272,156603,1,8,0:0:0:0:
72,296,156825,1,8,0:0:0:0:
72,296,156936,1,8,0:0:0:0:
72,296,157047,1,8,0:0:0:0:
72,296,157158,1,8,0:0:0:0:
72,296,157269,2,8,P|40:216|64:120,2,180
208,56,158603,1,8,0:0:0:0:
388,225,159047,2,8,P|408:138|376:56,2,180
96,72,160381,1,8,0:0:0:0:
96,72,160825,1,8,0:0:0:0:
96,72,161269,1,8,0:0:0:0:
128,120,161492,1,8,0:0:0:0:
128,120,161936,1,8,0:0:0:0:
128,120,162158,1,8,0:0:0:0:
128,120,162381,1,8,0:0:0:0:
128,120,162603,1,8,0:0:0:0:
128,120,163047,1,8,0:0:0:0:
128,120,163492,1,8,0:0:0:0:
128,120,164381,1,8,0:0:0:0:
128,120,165269,1,8,0:0:0:0:
128,120,166158,1,8,0:0:0:0:
128,120,167047,1,8,0:0:0:0:
128,120,167936,1,8,0:0:0:0:
128,120,168381,1,8,0:0:0:0:
128,120,168825,1,8,0:0:0:0:
128,120,169269,1,8,0:0:0:0:
256,192,169714,12,8,171492,0:0:0:0:
120,176,173269,1,8,0:0:0:0:
120,176,173936,1,8,0:0:0:0:
120,176,174603,1,8,0:0:0:0:
120,176,175047,1,8,0:0:0:0:
120,176,175714,1,8,0:0:0:0:
120,176,176381,1,8,0:0:0:0:
120,176,176825,1,8,0:0:0:0:
120,176,177269,1,8,0:0:0:0:
120,176,177714,1,8,0:0:0:0:
272,128,178158,1,8,0:0:0:0:
120,176,178603,1,8,0:0:0:0:
120,176,178825,1,8,0:0:0:0:
120,176,178936,1,8,0:0:0:0:
120,176,179047,1,8,0:0:0:0:
120,176,179269,1,8,0:0:0:0:
120,176,179492,1,8,0:0:0:0:
120,176,179714,1,8,0:0:0:0:
120,176,179825,1,8,0:0:0:0:
120,176,179936,1,8,0:0:0:0:
120,176,180158,1,8,0:0:0:0:
120,176,180381,1,8,0:0:0:0:
120,176,181047,1,8,0:0:0:0:
192,144,181269,1,8,0:0:0:0:
120,184,181714,1,8,0:0:0:0:
120,184,182158,1,8,0:0:0:0:
272,128,182602,1,8,0:0:0:0:
120,184,182825,1,8,0:0:0:0:
272,144,183269,1,8,0:0:0:0:
120,184,183492,1,8,0:0:0:0:
120,184,183936,1,8,0:0:0:0:
120,184,184381,1,8,0:0:0:0:
120,184,184825,1,8,0:0:0:0:
120,192,185269,1,8,0:0:0:0:
120,192,185936,1,8,0:0:0:0:
120,192,186381,1,8,0:0:0:0:
120,192,186603,1,8,0:0:0:0:
120,192,186936,1,8,0:0:0:0:
120,192,187047,1,8,0:0:0:0:
120,192,187269,1,8,0:0:0:0:
120,192,187492,1,8,0:0:0:0:
120,192,188158,1,8,0:0:0:0:
136,216,188825,1,8,0:0:0:0:
136,216,189269,1,8,0:0:0:0:
136,216,189714,1,8,0:0:0:0:
136,216,189936,1,8,0:0:0:0:
144,232,190380,1,8,0:0:0:0:
144,232,190603,1,8,0:0:0:0:
96,224,191047,1,8,0:0:0:0:
160,160,191492,1,8,0:0:0:0:
248,128,191936,1,8,0:0:0:0:
264,200,192381,1,8,0:0:0:0:
120,256,192825,1,8,0:0:0:0:
120,256,193047,1,8,0:0:0:0:
120,256,193158,1,8,0:0:0:0:
120,256,193269,1,8,0:0:0:0:
120,256,193492,1,8,0:0:0:0:
120,256,193714,1,8,0:0:0:0:
120,256,193936,1,8,0:0:0:0:
120,248,194047,1,8,0:0:0:0:
120,256,194158,1,8,0:0:0:0:
120,248,194381,1,8,0:0:0:0:
120,248,194603,1,8,0:0:0:0:
376,168,195269,1,8,0:0:0:0:
200,208,195936,1,8,0:0:0:0:
288,120,196381,1,8,0:0:0:0:
128,144,196824,1,8,0:0:0:0:
280,256,197047,1,8,0:0:0:0:
160,152,197491,1,8,0:0:0:0:
104,208,197714,1,8,0:0:0:0:
320,128,198158,1,8,0:0:0:0:
400,224,198603,1,8,0:0:0:0:
160,272,199047,1,8,0:0:0:0:
240,136,199492,1,8,0:0:0:0:
192,72,199936,1,8,0:0:0:0:
272,64,200158,1,8,0:0:0:0:
312,56,200269,1,8,0:0:0:0:
352,48,200381,1,8,0:0:0:0:
392,120,200603,1,8,0:0:0:0:
344,184,200825,1,8,0:0:0:0:
264,208,201047,1,8,0:0:0:0:
224,216,201158,1,8,0:0:0:0:
184,224,201269,1,8,0:0:0:0:
104,208,201492,1,8,0:0:0:0:
48,152,201714,1,8,0:0:0:0:
80,80,201936,1,8,0:0:0:0:
112,104,202047,1,8,0:0:0:0:
136,24,202158,1,8,0:0:0:0:
216,24,202381,1,8,0:0:0:0:
296,48,202603,1,8,0:0:0:0:
264,120,202824,1,8,0:0:0:0:
272,200,203047,1,8,0:0:0:0:
192,184,203269,1,8,0:0:0:0:
128,232,203491,1,8,0:0:0:0:
312,168,237269,6,8,L|216:224,2,90
168,312,237936,2,8,B|136:256|136:176|136:176|184:112,1,180
32,48,238602,1,8,0:0:0:0:
136,64,238825,1,8,0:0:0:0:
224,24,239047,2,8,B|248:96|248:96|288:144|376:144,1,180
392,80,239713,1,8,0:0:0:0:
456,136,239936,2,8,L|488:256,1,90
360,272,240380,2,8,L|384:176,1,90
248,200,240825,1,8,0:0:0:0:
264,280,241047,1,8,0:0:0:0:
64,288,241269,1,8,0:0:0:0:
168,328,241491,1,8,0:0:0:0:
160,232,241713,1,8,0:0:0:0:
88,152,241936,1,8,0:0:0:0:
256,72,242158,1,8,0:0:0:0:
144,56,242380,1,8,0:0:0:0:
144,56,242602,2,8,B|88:32|88:32|24:64|16:120,1,180
200,200,243269,1,8,0:0:0:0:
256,328,243491,2,8,B|312:352|312:352|376:320|384:264,1,180
384,263,244158,1,8,0:0:0:0:
384,263,244380,2,8,P|384:176|448:112,1,180
376,64,245047,2,8,L|264:40,1,90
184,192,245491,1,8,0:0:0:0:
192,88,245713,1,8,0:0:0:0:
96,32,245936,1,8,0:0:0:0:
96,32,246158,2,8,P|88:128|32:208,1,180
44,197,246713,1,8,0:0:0:0:
44,197,246825,2,8,L|72:304,1,90
144,248,247269,2,8,L|192:344,1,90
256,296,247713,1,8,0:0:0:0:
256,296,247936,2,8,P|344:296|440:352,1,180
352,200,248602,1,8,0:0:0:0:
448,104,248825,2,8,P|360:104|264:48,1,180
200,88,249491,1,8,0:0:0:0:
144,168,249713,1,8,0:0:0:0:
144,168,249825,1,8,0:0:0:0:
56,144,250047,1,8,0:0:0:0:
56,144,250158,1,8,0:0:0:0:
96,336,250380,1,8,0:0:0:0:
96,336,250491,1,8,0:0:0:0:
32,256,250713,1,8,0:0:0:0:
32,256,250825,1,8,0:0:0:0:
160,256,251047,1,8,0:0:0:0:
240,352,251269,1,8,0:0:0:0:
240,352,251491,2,8,L|432:304,1,180
496,184,252158,2,8,B|465:160|465:160|385:160|329:192,1,180
136,256,252824,1,8,0:0:0:0:
224,192,253047,1,8,0:0:0:0:
136,144,253269,2,8,B|112:72|112:72|72:24|-16:24,1,180
40,136,253935,1,8,0:0:0:0:
24,232,254158,2,8,L|56:352,1,90
136,368,254602,2,8,L|160:272,1,90
264,256,255047,1,8,0:0:0:0:
344,312,255269,1,8,0:0:0:0:
496,184,255491,1,8,0:0:0:0:
392,216,255713,1,8,0:0:0:0:
336,48,255935,1,8,0:0:0:0:
392,128,256158,1,8,0:0:0:0:
208,88,256380,1,8,0:0:0:0:
288,152,256602,1,8,0:0:0:0:
88,96,256824,2,8,B|56:136|56:136|48:208|88:256,1,180
192,192,257491,1,8,0:0:0:0:
280,264,257713,2,8,B|344:256|344:256|400:288|408:368,1,180
464,264,258380,1,8,0:0:0:0:
464,264,258602,2,8,P|480:168|400:88,1,180
392,32,259269,2,8,L|304:64,1,90
208,176,259713,1,8,0:0:0:0:
232,96,259935,1,8,0:0:0:0:
184,32,260158,1,8,0:0:0:0:
184,32,260380,2,8,B|120:40|120:40|72:72|56:152,1,180
88,296,261047,2,8,P|74:344|44:395,1,90
136,208,261491,2,8,P|178:200|232:200,1,90
420,354,262158,2,8,P|336:344|256:296,1,180
352,200,262824,1,8,0:0:0:0:
448,104,263047,2,8,P|368:56|264:48,1,180
120,56,263936,1,8,0:0:0:0:
96,176,264269,1,8,0:0:0:0:
64,296,264602,1,8,0:0:0:0:
128,248,264825,1,8,0:0:0:0:
240,304,265158,1,8,0:0:0:0:
352,360,265491,1,8,0:0:0:0:
320,288,265713,1,8,0:0:0:0:
312,168,266046,1,8,0:0:0:0:
304,48,266379,1,8,0:0:0:0:
304,48,266602,1,8,0:0:0:0:
304,48,266824,1,8,0:0:0:0:
304,48,267047,1,8,0:0:0:0:
304,48,267269,1,8,0:0:0:0:
304,48,267491,1,8,0:0:0:0:
