osu file format v12

[General]
AudioFilename: 04 - .mp3
AudioLeadIn: 1500
PreviewTime: -1
Countdown: 0
SampleSet: Soft
StackLeniency: 0.5
Mode: 0
LetterboxInBreaks: 0
WidescreenStoryboard: 1

[Editor]
Bookmarks: 99713
DistanceSpacing: 0.9
BeatDivisor: 4
GridSize: 8

[Metadata]
Title:Kobore Sakura
TitleUnicode:零れ桜
Artist:Senya
ArtistUnicode:Senya
Creator:Tonoko
Version:EZ
Source:touhou
Tags:Yuuhei Satellite
BeatmapID:318728
BeatmapSetID:125179

[Difficulty]
HPDrainRate:5
CircleSize:4
OverallDifficulty:5
ApproachRate:7
SliderMultiplier:1.8
SliderTickRate:1

[Events]
//Background and Video events
0,0,"uuk_2.jpg",0,0
//Break Periods
2,29246,35480
//Storyboard Layer 0 (Background)
//Storyboard Layer 1 (Fail)
//Storyboard Layer 2 (Pass)
//Storyboard Layer 3 (Foreground)
//Storyboard Sound Samples
//Background Colour Transformations
3,100,163,162,255

[TimingPoints]
825,444.444444444444,4,2,0,40,1,0
105618,-133.333333333333,4,2,0,100,0,0
106824,-100,4,2,0,100,0,0

[Colours]
Combo1 : 255,209,70
Combo2 : 15,255,15
Combo3 : 89,164,255
Combo4 : 248,129,147

[HitObjects]
80,72,824,2,8,L|192:64,1,90
176,144,1269,2,8,B|232:168|232:168|272:240|216:304,1,180
168,336,1935,1,8,0:0:0:0:
312,320,2158,2,8,P|360:328|408:360,1,90
368,96,2602,2,8,B|360:160|360:160|376:224|472:240,1,180
456,136,3269,1,8,0:0:0:0:
368,96,3491,1,8,0:0:0:0:
280,56,3685,2,8,P|236:69|176:72,1,90
48,176,4380,2,8,P|96:176|176:192,1,90
272,176,4824,2,8,P|246:218|200:256,1,90
144,368,5269,2,8,P|130:323|128:272,2,90
296,320,6158,2,8,P|384:288|448:320,1,135
456,320,6602,2,8,L|464:224,1,90
416,72,7046,2,8,L|408:176,1,90
376,184,7380,1,8,0:0:0:0:
336,200,7491,2,8,L|328:312,1,90
248,304,7935,2,8,P|192:256|120:280,1,135
104,288,8380,2,8,P|56:288|16:272,1,90
32,104,9019,2,8,L|104:208,1,90
192,96,9713,2,8,B|240:72|240:72|296:72|344:88,1,135
344,112,10158,2,8,P|390:109|432:96,1,90
368,288,10796,2,8,L|464:304,1,90
208,344,11491,1,8,0:0:0:0:
160,280,11935,1,8,0:0:0:0:
112,216,12380,1,8,0:0:0:0:
64,152,12824,1,8,0:0:0:0:
64,152,13269,2,8,P|96:80|128:64,1,90
360,80,13713,2,8,L|232:96,1,90
360,304,14158,2,8,L|352:200,1,90
120,320,14602,2,8,P|176:336|224:304,1,90
16,232,15046,2,8,L|176:176,1,135
176,208,15491,1,8,0:0:0:0:
184,96,15713,2,8,P|208:48|264:24,1,90
320,48,16158,2,8,P|344:104|320:160,1,90
392,328,16602,1,8,0:0:0:0:
392,328,16824,2,8,L|432:176,1,135
464,176,17269,1,8,0:0:0:0:
320,184,17491,2,8,P|288:224|248:232,1,90
192,168,17935,2,8,P|216:112|264:96,1,90
120,64,18491,1,8,0:0:0:0:
120,64,18602,2,8,P|48:104|40:208,1,180
48,336,19380,1,8,0:0:0:0:
48,336,19491,2,8,P|120:296|128:192,1,180
256,96,20380,1,8,0:0:0:0:
320,48,20602,1,8,0:0:0:0:
496,128,20824,1,8,0:0:0:0:
384,144,21046,1,8,0:0:0:0:
456,224,21269,1,8,0:0:0:0:
256,336,21491,1,8,0:0:0:0:
384,328,21713,1,8,0:0:0:0:
160,256,21935,1,8,0:0:0:0:
32,288,22158,2,8,L|64:144,1,135
48,120,22602,1,8,0:0:0:0:
128,96,22824,2,8,P|168:80|208:24,1,90
216,160,23269,2,8,P|232:208|216:272,1,90
144,312,23713,1,8,0:0:0:0:
144,312,23935,2,8,L|312:344,1,135
312,320,24380,1,8,0:0:0:0:
432,280,24602,2,8,P|424:328|392:368,1,90
464,200,25046,2,8,P|472:144|496:104,1,90
344,40,25713,1,8,0:0:0:0:
368,120,25935,1,8,0:0:0:0:
240,184,26158,1,8,0:0:0:0:
240,184,26602,1,8,0:0:0:0:
112,240,26824,1,8,0:0:0:0:
136,320,27046,1,8,0:0:0:0:
296,320,27491,1,8,0:0:0:0:
376,320,27713,1,8,0:0:0:0:
480,208,27935,1,8,0:0:0:0:
384,224,28158,1,8,0:0:0:0:
208,152,28380,1,8,0:0:0:0:
312,144,28602,1,8,0:0:0:0:
128,216,28824,1,8,0:0:0:0:
16,200,29046,1,8,0:0:0:0:
336,40,36380,6,8,L|440:192,1,180
424,272,37047,1,8,0:0:0:0:
344,248,37269,2,8,P|264:296|240:296,1,90
304,176,37714,1,8,0:0:0:0:
304,176,37936,2,8,L|112:160,1,180
64,208,38602,1,8,0:0:0:0:
64,352,38824,2,8,P|104:312|112:256,2,90
216,288,39713,1,8,0:0:0:0:
216,288,39936,2,8,P|296:264|336:280,2,90
400,256,40602,2,8,P|376:200|336:176,2,90
480,336,41269,1,8,0:0:0:0:
480,336,41491,2,8,L|488:128,1,180
464,80,42158,1,8,0:0:0:0:
384,72,42380,2,8,P|312:48|264:64,2,90
344,144,43047,1,8,0:0:0:0:
256,152,43269,1,8,0:0:0:0:
256,152,43491,2,8,L|72:104,1,180
40,176,44158,1,8,0:0:0:0:
40,176,44380,2,8,P|96:240|96:280,2,90
304,272,45047,2,8,L|104:344,1,180
368,352,45713,1,8,0:0:0:0:
368,352,45936,2,8,P|416:312|472:320,2,90
464,216,46824,1,8,0:0:0:0:
464,216,47046,2,8,P|384:192|368:168,1,90
400,112,47491,2,8,P|432:64|480:40,1,90
312,128,47936,2,8,P|288:200|304:248,1,90
224,64,48602,1,8,0:0:0:0:
224,64,48824,2,8,P|168:72|120:64,1,90
48,144,49269,2,8,P|40:208|56:248,1,90
232,224,49713,2,8,P|192:192|128:184,1,90
88,328,50380,1,8,0:0:0:0:
88,328,50602,1,8,0:0:0:0:
120,304,50713,1,8,0:0:0:0:
160,296,50824,1,8,0:0:0:0:
200,304,50936,1,8,0:0:0:0:
240,320,51047,1,8,0:0:0:0:
272,344,51158,1,8,0:0:0:0:
312,360,51269,1,8,0:0:0:0:
352,368,51380,1,8,0:0:0:0:
392,360,51491,1,8,0:0:0:0:
424,344,51602,1,8,0:0:0:0:
448,312,51713,1,8,0:0:0:0:
456,272,51824,1,8,0:0:0:0:
448,232,51936,1,8,0:0:0:0:
424,200,52047,1,8,0:0:0:0:
392,176,52158,1,8,0:0:0:0:
352,168,52269,1,8,0:0:0:0:
312,168,52380,2,8,L|216:224,2,90
168,312,53047,2,8,B|136:256|136:176|136:176|184:112,1,180
32,48,53713,1,8,0:0:0:0:
136,64,53936,1,8,0:0:0:0:
224,24,54158,2,8,B|248:96|248:96|288:144|376:144,1,180
392,80,54824,1,8,0:0:0:0:
456,136,55047,2,8,L|488:256,1,90
360,272,55491,2,8,L|384:176,1,90
248,200,55936,1,8,0:0:0:0:
264,280,56158,1,8,0:0:0:0:
64,288,56380,1,8,0:0:0:0:
168,328,56602,1,8,0:0:0:0:
160,232,56824,1,8,0:0:0:0:
88,152,57047,1,8,0:0:0:0:
256,72,57269,1,8,0:0:0:0:
144,56,57491,1,8,0:0:0:0:
144,56,57713,2,8,B|88:32|88:32|24:64|16:120,1,180
200,200,58380,1,8,0:0:0:0:
256,328,58602,2,8,B|312:352|312:352|376:320|384:264,1,180
384,263,59269,1,8,0:0:0:0:
384,263,59491,2,8,P|384:176|448:112,1,180
376,64,60158,2,8,L|264:40,1,90
184,192,60602,1,8,0:0:0:0:
192,88,60824,1,8,0:0:0:0:
96,32,61047,1,8,0:0:0:0:
96,32,61269,2,8,P|88:128|32:208,1,180
44,197,61824,1,8,0:0:0:0:
44,197,61936,2,8,L|72:304,1,90
144,248,62380,2,8,L|192:344,1,90
256,296,62824,1,8,0:0:0:0:
256,296,63047,2,8,P|344:296|440:352,1,180
352,200,63713,1,8,0:0:0:0:
448,104,63936,2,8,P|360:104|264:48,1,180
200,88,64602,1,8,0:0:0:0:
144,168,64824,1,8,0:0:0:0:
144,168,64936,1,8,0:0:0:0:
56,144,65158,1,8,0:0:0:0:
56,144,65269,1,8,0:0:0:0:
96,336,65491,1,8,0:0:0:0:
96,336,65602,1,8,0:0:0:0:
32,256,65824,1,8,0:0:0:0:
32,256,65936,1,8,0:0:0:0:
160,256,66158,1,8,0:0:0:0:
240,352,66380,1,8,0:0:0:0:
240,352,66602,2,8,L|432:304,1,180
496,184,67269,2,8,B|465:160|465:160|385:160|329:192,1,180
136,256,67935,1,8,0:0:0:0:
224,192,68158,1,8,0:0:0:0:
136,144,68380,2,8,B|112:72|112:72|72:24|-16:24,1,180
40,136,69046,1,8,0:0:0:0:
24,232,69269,2,8,L|56:352,1,90
136,368,69713,2,8,L|160:272,1,90
264,256,70158,1,8,0:0:0:0:
344,312,70380,1,8,0:0:0:0:
496,184,70602,1,8,0:0:0:0:
392,216,70824,1,8,0:0:0:0:
336,48,71046,1,8,0:0:0:0:
392,128,71269,1,8,0:0:0:0:
208,88,71491,1,8,0:0:0:0:
288,152,71713,1,8,0:0:0:0:
88,96,71935,2,8,B|56:136|56:136|48:208|88:256,1,180
192,192,72602,1,8,0:0:0:0:
280,264,72824,2,8,B|344:256|344:256|400:288|408:368,1,180
464,264,73491,1,8,0:0:0:0:
464,264,73713,2,8,P|480:168|400:88,1,180
392,32,74380,2,8,L|304:64,1,90
208,176,74824,1,8,0:0:0:0:
232,96,75046,1,8,0:0:0:0:
184,32,75269,1,8,0:0:0:0:
184,32,75491,2,8,B|120:40|120:40|72:72|56:152,1,180
88,296,76158,2,8,P|74:344|44:395,1,90
136,208,76602,2,8,P|178:200|232:200,1,90
420,354,77269,2,8,P|336:344|256:296,1,180
352,200,77935,1,8,0:0:0:0:
448,104,78158,2,8,P|368:56|264:48,1,180
120,56,79047,1,8,0:0:0:0:
96,176,79380,1,8,0:0:0:0:
64,296,79713,1,8,0:0:0:0:
128,248,79936,1,8,0:0:0:0:
240,304,80269,1,8,0:0:0:0:
352,360,80602,1,8,0:0:0:0:
320,288,80824,1,8,0:0:0:0:
312,168,81157,1,8,0:0:0:0:
304,48,81490,1,8,0:0:0:0:
304,48,81713,1,8,0:0:0:0:
344,40,81824,1,8,0:0:0:0:
384,48,81936,1,8,0:0:0:0:
416,72,82047,1,8,0:0:0:0:
432,112,82158,1,8,0:0:0:0:
440,152,82269,1,8,0:0:0:0:
448,192,82380,1,8,0:0:0:0:
456,232,82491,1,8,0:0:0:0:
464,272,82602,2,8,B|393:285|393:285|355:337|288:336,1,180
304,256,83269,2,8,P|259:240|200:240,1,90
152,296,83713,1,8,0:0:0:0:
56,168,83936,1,8,0:0:0:0:
72,256,84158,1,8,0:0:0:0:
144,208,84380,2,8,B|136:140|136:140|96:56|160:8,1,180
208,88,85047,2,8,P|256:80|312:80,1,90
368,32,85491,1,8,0:0:0:0:
368,32,85713,2,8,L|440:112,1,90
472,208,86158,2,8,L|376:184,1,90
384,186,86602,1,8,0:0:0:0:
336,248,86824,2,8,L|264:334,2,90
400,296,87491,1,8,0:0:0:0:
256,192,87713,12,8,88824,0:0:0:0:
208,72,89047,6,8,L|304:96,1,90
295,93,89491,1,8,0:0:0:0:
295,93,89713,1,8,0:0:0:0:
304,312,90824,6,8,L|216:290,1,90
216,290,91268,1,8,0:0:0:0:
216,290,91490,1,8,0:0:0:0:
40,160,92602,1,8,0:0:0:0:
40,160,92824,1,8,0:0:0:0:
40,160,93047,2,8,B|56:120|120:128|144:192|240:144,1,180
336,56,93713,1,8,0:0:0:0:
248,80,93936,1,8,0:0:0:0:
424,72,94158,1,8,0:0:0:0:
472,256,94380,1,8,0:0:0:0:
400,176,94602,1,8,0:0:0:0:
416,360,94824,1,8,0:0:0:0:
416,360,95047,2,8,B|392:328|328:384|240:344,1,180
241,344,95602,1,8,0:0:0:0:
241,344,95713,1,8,0:0:0:0:
72,296,95936,1,8,0:0:0:0:
176,272,96158,1,8,0:0:0:0:
72,296,96380,1,8,0:0:0:0:
72,296,96491,1,8,0:0:0:0:
72,296,96602,1,8,0:0:0:0:
72,296,96713,1,8,0:0:0:0:
72,296,96824,2,8,P|40:216|64:120,2,180
208,56,98158,1,8,0:0:0:0:
388,225,98602,2,8,P|408:138|376:56,2,180
248,312,99936,2,8,B|168:320|88:304|56:352,2,180
256,232,101047,2,8,P|232:160|304:80,1,180
360,40,101713,1,8,0:0:0:0:
400,136,101936,1,8,0:0:0:0:
440,232,102158,1,8,0:0:0:0:
88,304,102602,1,8,0:0:0:0:
16,120,103047,1,8,0:0:0:0:
56,128,103158,1,8,0:0:0:0:
96,144,103269,1,8,0:0:0:0:
128,168,103380,1,8,0:0:0:0:
152,200,103491,1,8,0:0:0:0:
248,272,103936,2,8,P|384:288|432:184,1,270
280,128,104824,2,8,P|373:227|477:178,1,270
392,32,105713,2,8,P|399:168|510:197,1,270
440,344,107047,2,8,P|368:320|312:320,2,90
280,328,107936,1,8,0:0:0:0:
232,176,108380,1,8,0:0:0:0:
112,288,108824,1,8,0:0:0:0:
256,192,109269,12,8,111047,0:0:0:0:
176,152,111491,1,0,0:0:0:0:
168,112,111602,1,0,0:0:0:0:
208,120,111713,1,0,0:0:0:0:
330,142,111936,1,0,0:0:0:0:
369,155,112047,1,0,0:0:0:0:
342,186,112158,1,0,0:0:0:0:
261,281,112380,1,0,0:0:0:0:
230,308,112491,1,0,0:0:0:0:
217,269,112602,1,0,0:0:0:0:
256,192,112824,2,8,P|280:96|360:40,1,180
432,152,113491,1,8,0:0:0:0:
136,280,114158,1,8,0:0:0:0:
352,208,114602,2,8,P|328:304|248:360,1,180
232,224,115269,1,8,0:0:0:0:
144,72,115936,1,8,0:0:0:0:
144,72,116380,2,8,P|176:144|128:216,1,135
120,184,116824,2,8,P|64:216|40:296,1,135
72,304,117269,2,8,L|224:288,1,135
240,312,117713,2,8,L|400:296,1,135
400,272,118158,1,8,0:0:0:0:
296,104,118380,1,8,0:0:0:0:
312,144,118491,1,8,0:0:0:0:
328,184,118602,1,8,0:0:0:0:
176,272,118824,1,8,0:0:0:0:
192,88,119047,1,8,0:0:0:0:
24,144,119269,1,8,0:0:0:0:
64,160,119380,1,8,0:0:0:0:
96,176,119491,1,8,0:0:0:0:
8,240,119713,1,8,0:0:0:0:
208,184,119936,1,8,0:0:0:0:
