osu file format v14

[General]
AudioFilename: Senritsu & Xinely - Nagi.mp3
AudioLeadIn: 1000
PreviewTime: 59127
Countdown: 0
SampleSet: Soft
StackLeniency: 0.7
Mode: 2
LetterboxInBreaks: 1
WidescreenStoryboard: 0

[Editor]
Bookmarks: 639,15522,30406,45290,63894,78778,93662,108545,123429,142034,156918,171801,184592,207150,222034,236918,251801,266685
DistanceSpacing: 0.5
BeatDivisor: 4
GridSize: 16
TimelineZoom: 1.9

[Metadata]
Title:Nagi-nagi-
TitleUnicode:凪‐nagi‐
Artist:Senritsu & Xinely
ArtistUnicode:Senritsu & Xinely
Creator:Xinely
Version:Collab Rain
Source:凪のあすから
Tags:Ray Nagi no Asukara m1ng mochi senritsu scanter momochikun gero mingmichael PV Version wendao2000 wendao Harez Anais
BeatmapID:641051
BeatmapSetID:272797

[Difficulty]
HPDrainRate:7
CircleSize:4
OverallDifficulty:9
ApproachRate:9
SliderMultiplier:1.86
SliderTickRate:1

[Events]
//Background and Video events
0,0,"BG Nagi 2.jpg",0,0
//Break Periods
2,172117,182480
2,205606,208294
//Storyboard Layer 0 (Background)
//Storyboard Layer 1 (Fail)
//Storyboard Layer 2 (Pass)
//Storyboard Layer 3 (Foreground)
//Storyboard Sound Samples

[TimingPoints]
755,465.116279069767,4,2,1,30,1,0
755,-125,4,2,1,30,0,0
14475,-100,4,2,1,30,0,0
15638,-100,4,2,1,50,0,0
15696,-100,4,2,1,30,0,0
30522,-100,4,2,1,25,0,0
30638,-100,4,2,1,30,0,0
43545,-100,4,2,2,40,0,0
43778,-100,4,2,1,30,0,0
44475,-100,4,2,2,40,0,0
44941,-100,4,2,1,30,0,0
45522,-100,4,2,2,40,0,0
49127,-100,4,2,2,30,0,0
49243,-100,4,2,2,40,0,0
52848,-100,4,2,2,30,0,0
52964,-100,4,2,2,40,0,0
57615,-100,4,2,2,30,0,0
57848,-100,4,2,2,40,0,0
59359,-100,4,2,2,30,0,0
59475,-100,4,2,2,40,0,0
60522,-100,4,2,2,20,0,0
61220,-100,4,2,2,40,0,0
64010,-100,4,2,1,60,0,1
64475,-100,4,2,1,45,0,1
64708,-100,4,2,1,60,0,1
65406,-100,4,2,1,45,0,1
65638,-100,4,2,1,60,0,1
66336,-100,4,2,1,45,0,1
66568,-100,4,2,1,60,0,1
67266,-100,4,2,1,45,0,1
67499,-100,4,2,1,60,0,1
68196,-100,4,2,1,45,0,1
68429,-100,4,2,1,60,0,1
69127,-100,4,2,1,60,0,1
70057,-100,4,2,1,45,0,1
70289,-100,4,2,1,60,0,1
70987,-100,4,2,1,45,0,1
71220,-100,4,2,1,60,0,1
71917,-100,4,2,1,45,0,1
72150,-100,4,2,1,60,0,1
72848,-100,4,2,1,45,0,1
73080,-100,4,2,1,60,0,1
73778,-100,4,2,1,45,0,1
74010,-100,4,2,1,60,0,1
74708,-100,4,2,1,45,0,1
74941,-100,4,2,1,60,0,1
75173,-100,4,2,1,30,0,1
75406,-100,4,2,1,20,0,1
75638,-100,4,2,1,30,0,1
75871,-100,4,2,1,60,0,1
76568,-100,4,2,1,45,0,1
76801,-100,4,2,1,50,0,1
77499,-100,4,2,1,45,0,1
77731,-100,4,2,1,60,0,1
78196,-100,4,2,1,45,0,1
78661,-100,4,2,1,60,0,1
79359,-100,4,2,1,45,0,1
79824,-100,4,2,1,60,0,1
80289,-100,4,2,1,45,0,1
80522,-100,4,2,1,60,0,1
81220,-100,4,2,1,45,0,1
81452,-100,4,2,1,60,0,1
82150,-100,4,2,1,45,0,1
82382,-100,4,2,1,60,0,1
83080,-100,4,2,1,45,0,1
83313,-100,4,2,1,60,0,1
84010,-100,4,2,1,45,0,1
84243,-100,4,2,1,60,0,1
84941,-100,4,2,1,45,0,1
85173,-100,4,2,1,60,0,1
85871,-100,4,2,1,45,0,1
86103,-100,4,2,1,50,0,1
86568,-100,4,2,1,60,0,1
86801,-100,4,2,1,45,0,1
87034,-100,4,2,1,60,0,1
87731,-100,4,2,1,45,0,1
87964,-100,4,2,1,60,0,1
88429,-100,4,2,1,60,0,1
88661,-100,4,2,1,45,0,1
88894,-100,4,2,1,60,0,1
89592,-100,4,2,1,45,0,1
89824,-100,4,2,1,60,0,1
90522,-100,4,2,1,45,0,1
90754,-100,4,2,1,60,0,1
91452,-100,4,2,1,45,0,1
91685,-100,4,2,1,60,0,1
91917,-100,4,2,2,35,0,1
92382,-100,4,2,1,45,0,1
92848,-100,4,2,1,60,0,1
93313,-100,4,2,1,45,0,1
93545,-100,4,2,1,60,0,1
93778,-100,4,2,1,50,0,0
94475,-100,4,2,1,60,0,0
95173,-100,4,2,1,50,0,0
95406,-100,4,2,1,60,0,0
96103,-100,4,2,1,50,0,0
96336,-100,4,2,1,60,0,0
97034,-100,4,2,1,50,0,0
97266,-100,4,2,1,60,0,0
97964,-100,4,2,1,50,0,0
98196,-100,4,2,1,60,0,0
98894,-100,4,2,1,50,0,0
99127,-100,4,2,1,60,0,0
99824,-100,4,2,1,50,0,0
100057,-100,4,2,1,60,0,0
100754,-100,4,2,1,50,0,0
100987,-100,4,2,1,60,0,0
101685,-100,4,2,1,50,0,0
101917,-100,4,2,1,60,0,0
102615,-100,4,2,1,50,0,0
102848,-100,4,2,1,60,0,0
103545,-100,4,2,1,50,0,0
103778,-100,4,2,1,60,0,0
104475,-100,4,2,1,50,0,0
104708,-100,4,2,1,60,0,0
105406,-100,4,2,1,50,0,0
105638,-100,4,2,1,60,0,0
106336,-100,4,2,1,50,0,0
106568,-100,4,2,1,60,0,0
106801,-100,4,2,1,50,0,0
107266,-100,4,2,1,60,0,0
107499,-100,4,2,1,50,0,0
108196,-100,4,2,1,60,0,0
108429,-100,4,2,2,30,0,0
108661,-100,4,2,1,40,0,0
123545,-100,4,2,1,30,0,0
123661,-100,4,2,2,40,0,0
135406,-100,4,2,2,20,0,0
135871,-100,4,2,2,30,0,0
136103,-100,4,2,2,40,0,0
138661,-100,4,2,2,20,0,0
139359,-100,4,2,2,40,0,0
141220,-100,4,3,0,25,0,0
141685,-100,4,2,2,40,0,0
142150,-100,4,2,1,60,0,1
142615,-100,4,2,1,45,0,1
142848,-100,4,2,1,60,0,1
143545,-100,4,2,1,45,0,1
143778,-100,4,2,1,60,0,1
144475,-100,4,2,1,45,0,1
144708,-100,4,2,1,60,0,1
145406,-100,4,2,1,45,0,1
145638,-100,4,2,1,60,0,1
146336,-100,4,2,1,45,0,1
146568,-100,4,2,1,60,0,1
147266,-100,4,2,1,45,0,1
147382,-100,4,2,1,60,0,1
148196,-100,4,2,1,45,0,1
148429,-100,4,2,1,60,0,1
149127,-100,4,2,1,45,0,1
149359,-100,4,2,1,60,0,1
150057,-100,4,2,1,45,0,1
150289,-100,4,2,1,60,0,1
150987,-100,4,2,1,45,0,1
151220,-100,4,2,1,60,0,1
151917,-100,4,2,1,45,0,1
152150,-100,4,2,1,60,0,1
152848,-100,4,2,1,45,0,1
153080,-100,4,2,1,60,0,1
153545,-100,4,2,1,30,0,1
154010,-100,4,2,1,60,0,1
154708,-100,4,2,1,45,0,1
154941,-100,4,2,1,50,0,1
155057,-100,4,2,1,60,0,1
155638,-100,4,2,1,45,0,1
155871,-100,4,2,1,60,0,1
156336,-100,4,2,1,45,0,1
157034,-100,4,2,1,60,0,1
157499,-100,4,2,1,45,0,1
157964,-100,4,2,1,60,0,1
158429,-100,4,2,1,45,0,1
158661,-100,4,2,1,60,0,1
159359,-100,4,2,1,45,0,1
159592,-100,4,2,1,60,0,1
160289,-100,4,2,1,45,0,1
160522,-100,4,2,1,60,0,1
161220,-100,4,2,1,45,0,1
161452,-100,4,2,1,60,0,1
162150,-100,4,2,1,45,0,1
162382,-100,4,2,1,60,0,1
163080,-100,4,2,1,45,0,1
163313,-100,4,2,1,60,0,1
164010,-100,4,2,1,45,0,1
164243,-100,4,2,1,50,0,1
164708,-100,4,2,1,60,0,1
164941,-100,4,2,1,45,0,1
165173,-100,4,2,1,60,0,1
165871,-100,4,2,1,45,0,1
166103,-100,4,2,1,60,0,1
166568,-100,4,2,1,60,0,1
166801,-100,4,2,1,45,0,1
167034,-100,4,2,1,60,0,1
167731,-100,4,2,1,45,0,1
167964,-100,4,2,1,60,0,1
168196,-100,4,2,1,50,0,1
168429,-100,4,2,1,60,0,1
168661,-100,4,2,1,45,0,1
168894,-100,4,2,1,60,0,1
169592,-100,4,2,1,45,0,1
169824,-100,4,2,1,60,0,1
170057,-100,4,2,2,35,0,1
170522,-100,4,2,1,45,0,1
170987,-100,4,2,1,60,0,1
171452,-100,4,2,1,45,0,1
171685,-100,4,2,1,60,0,1
171917,-100,4,2,1,50,0,0
185173,-100,4,2,2,50,0,0
188894,-100,4,2,1,50,0,0
189010,-100,4,2,2,50,0,0
192615,-100,4,2,1,50,0,0
192731,-100,4,2,2,50,0,0
194941,-100,4,2,1,50,0,0
195057,-100,4,2,2,50,0,0
195871,-100,4,2,1,50,0,0
195987,-100,4,2,2,50,0,0
196336,-100,4,2,1,50,0,0
196452,-100,4,2,2,50,0,0
198661,-100,4,2,2,30,0,0
198894,-100,4,2,2,50,0,0
199127,-100,4,2,2,40,0,0
199359,-100,4,2,2,50,0,0
199592,-100,4,2,2,45,0,0
199708,-100,4,2,2,50,0,0
202382,-100,4,2,1,50,0,0
202499,-100,4,2,2,50,0,0
203661,-100,4,2,1,50,0,0
207034,-100,4,2,1,20,0,0
210522,-100,4,2,2,30,0,0
210987,-100,4,2,1,60,0,1
211452,-100,4,2,1,45,0,1
211685,-100,4,2,1,60,0,1
212382,-100,4,2,1,45,0,1
212499,-100,4,2,1,60,0,1
213313,-100,4,2,1,45,0,1
213545,-100,4,2,1,60,0,1
214243,-100,4,2,1,45,0,1
214475,-100,4,2,1,60,0,1
215173,-100,4,2,1,45,0,1
215406,-100,4,2,1,60,0,1
216103,-100,4,2,1,45,0,1
216336,-100,4,2,1,60,0,1
217034,-100,4,2,1,45,0,1
217266,-100,4,2,1,60,0,1
217964,-100,4,2,1,45,0,1
218196,-100,4,2,1,60,0,1
218661,-100,4,2,1,30,0,1
218894,-100,4,2,1,40,0,1
219127,-100,4,2,1,60,0,1
219824,-100,4,2,1,45,0,1
220057,-100,4,2,1,60,0,1
220754,-100,4,2,1,45,0,1
220987,-100,4,2,1,60,0,1
221685,-100,4,2,1,45,0,1
221917,-100,4,2,1,60,0,1
222615,-100,4,2,1,45,0,1
222848,-100,4,2,1,60,0,1
223545,-100,4,2,1,45,0,1
223778,-100,4,2,1,60,0,1
224475,-100,4,2,1,45,0,1
224708,-100,4,2,1,60,0,1
225406,-100,4,2,1,45,0,1
225638,-100,4,2,1,60,0,1
226336,-100,4,2,1,45,0,1
226568,-100,4,2,1,60,0,1
227266,-100,4,2,1,45,0,1
227499,-100,4,2,1,30,0,1
227731,-100,4,2,1,60,0,1
227964,-100,4,2,1,40,0,1
228196,-100,4,2,1,45,0,1
228429,-100,4,2,1,60,0,1
229127,-100,4,2,1,45,0,1
229359,-100,4,2,1,50,0,1
229824,-100,4,2,1,60,0,1
230057,-100,4,2,1,45,0,1
230289,-100,4,2,1,60,0,1
230987,-100,4,2,1,45,0,1
231220,-100,4,2,1,60,0,1
231917,-100,4,2,1,45,0,1
232150,-100,4,2,1,60,0,1
232848,-100,4,2,1,45,0,1
233080,-100,4,2,1,60,0,1
233778,-100,4,2,1,45,0,1
234010,-100,4,2,1,60,0,1
234708,-100,4,2,1,45,0,1
234941,-100,4,2,1,60,0,1
235173,-100,4,2,2,30,0,1
235638,-100,4,2,1,60,0,1
236568,-100,4,2,2,60,0,1
237034,-100,4,2,1,60,0,0
240289,-100,4,2,1,40,0,0
240406,-100,4,2,1,60,0,0
241220,-100,4,2,1,40,0,0
241452,-100,4,2,1,60,0,0
242150,-100,4,2,1,40,0,0
242382,-100,4,2,1,60,0,0
243080,-100,4,2,1,40,0,0
243196,-100,4,2,1,60,0,0
244010,-100,4,2,1,50,0,0
244127,-100,4,2,1,60,0,0
244941,-100,4,2,1,40,0,0
245057,-100,4,2,1,60,0,0
245871,-100,4,2,1,40,0,0
246103,-100,4,2,1,60,0,0
246801,-100,4,2,1,40,0,0
247034,-100,4,2,1,60,0,0
247731,-100,4,2,1,40,0,0
247964,-100,4,2,1,60,0,0
248429,-100,4,2,1,30,0,0
248661,-100,4,2,1,40,0,0
248894,-100,4,2,1,60,0,0
250522,-100,4,2,1,40,0,0
250754,-100,4,2,1,60,0,0
251452,-100,4,2,1,40,0,0
251685,-100,4,2,1,60,0,0
252382,-100,4,2,1,40,0,0
252615,-100,4,2,1,60,0,0
253313,-100,4,2,1,40,0,0
253545,-100,4,2,1,60,0,0
254243,-100,4,2,1,40,0,0
254475,-100,4,2,1,60,0,0
255173,-100,4,2,1,40,0,0
255406,-100,4,2,1,60,0,0
256103,-100,4,2,1,40,0,0
256336,-100,4,2,1,60,0,0
257034,-100,4,2,1,40,0,0
257266,-100,4,2,1,60,0,0
257964,-100,4,2,1,40,0,0
258196,-100,4,2,1,60,0,0
258894,-100,4,2,1,40,0,0
259127,-100,4,2,1,60,0,0
259824,-100,4,2,1,40,0,0
260289,-100,4,2,1,60,0,0
260754,-100,4,2,1,40,0,0
260987,-100,4,2,1,60,0,0
261685,-100,4,2,1,40,0,0
261917,-100,4,2,1,60,0,0
262615,-100,4,2,1,40,0,0
262848,-100,4,2,1,60,0,0
263545,-100,4,2,1,40,0,0
263778,-100,4,2,1,60,0,0
264475,-100,4,2,1,40,0,0
264708,-100,4,2,1,60,0,0
264941,-100,4,2,2,45,0,0
266801,-100,4,2,1,30,0,0

[Colours]
Combo1 : 117,210,255
Combo2 : 187,175,254
Combo3 : 0,128,255
Combo4 : 128,128,192

[HitObjects]
248,180,755,5,2,0:0:0:0:
368,264,987,1,0,0:0:0:0:
444,148,1220,1,0,0:0:0:0:
216,72,1452,2,0,P|148:120|148:212,1,148.8,2|0,0:0|0:0,0:0:0:0:
208,288,2150,1,0,0:0:0:0:
336,208,2382,6,0,L|516:192,1,148.8,2|2,0:0|0:0,0:0:0:0:
404,316,3080,1,0,0:0:0:0:
76,216,3313,1,2,0:0:0:0:
172,272,4243,1,0,0:0:0:0:
76,216,4475,6,0,L|0:220,2,74.4,2|0|0,0:0|0:0|0:0,0:0:0:0:
388,152,5173,2,0,L|240:152,1,148.8,2|0,0:0|0:0,0:0:0:0:
120,156,5871,1,0,0:0:0:0:
444,224,6103,6,0,L|306:279,1,148.8,2|0,0:0|0:0,0:0:0:0:
456,212,6801,1,2,0:0:0:0:
256,168,7034,1,0,0:0:0:0:
348,296,8196,5,2,0:0:0:0:
220,272,8429,2,0,L|146:281,1,74.4,0|0,0:0|0:0,0:0:0:0:
500,304,8894,2,0,L|336:336,1,148.8,2|0,0:0|0:0,0:0:0:0:
220,344,9592,1,0,0:0:0:0:
76,128,9824,6,0,P|40:188|68:264,1,148.8,2|2,0:0|0:0,0:0:0:0:
180,332,10522,1,0,0:0:0:0:
284,224,10754,1,2,0:0:0:0:
380,232,11452,1,0,0:0:0:0:
180,256,11917,5,2,0:0:0:0:
312,264,12150,1,0,0:0:0:0:
128,300,12382,1,0,0:0:0:0:
388,312,12615,2,0,L|224:328,1,148.8,2|0,0:0|0:0,0:0:0:0:
88,336,13313,1,0,0:0:0:0:
336,96,13545,2,0,P|372:168|336:236,1,148.8,2|0,0:0|0:0,0:0:0:0:
256,192,14475,12,2,15406,0:0:0:0:
356,264,15638,6,0,L|268:232,1,93,2|0,0:0|0:0,0:0:0:0:
160,308,16103,1,0,0:0:0:0:
288,256,16336,2,0,L|384:220,1,93,2|0,0:0|0:0,0:0:0:0:
208,184,16801,2,0,L|116:216,1,93,2|0,0:0|0:0,0:0:0:0:
492,276,17266,6,0,P|420:320|308:276,1,186,2|0,0:0|0:0,0:0:0:0:
192,248,17964,2,0,P|116:220|20:272,2,186,2|2|2,0:0|0:0|0:0,0:0:0:0:
328,332,19127,1,0,0:0:0:0:
28,256,19359,6,0,L|72:144,1,93,2|0,0:0|0:0,0:0:0:0:
192,88,19824,1,0,0:0:0:0:
328,144,20057,2,0,P|380:168|476:64,1,186,2|0,0:0|0:0,0:0:0:0:
376,52,20754,1,0,0:0:0:0:
28,243,20987,6,0,L|216:276,1,186,2|0,0:0|0:0,0:0:0:0:
376,196,21685,2,0,L|192:163,1,186,2|2,0:0|0:0,0:0:0:0:
380,196,22615,2,0,L|480:172,1,93,2|0,0:0|0:0,0:0:0:0:
148,280,23080,6,0,P|72:304|-4:212,1,186,2|2,0:0|0:0,0:0:0:0:
112,128,23778,1,0,0:0:0:0:
240,196,24010,2,0,L|344:188,1,93,2|0,0:0|0:0,0:0:0:0:
200,308,24475,1,0,0:0:0:0:
512,260,24708,6,0,L|300:272,1,186,2|0,0:0|0:0,0:0:0:0:
184,296,25406,1,2,0:0:0:0:
96,240,25638,1,0,0:0:0:0:
184,296,25871,1,0,0:0:0:0:
76,336,26103,1,0,0:0:0:0:
240,352,26336,1,0,0:0:0:0:
136,288,26568,1,0,0:0:0:0:
472,104,26801,6,0,P|408:80|312:168,1,186,2|0,0:0|0:0,0:0:0:0:
92,208,27499,2,0,P|151:273|236:247,1,186,2|0,0:0|0:0,0:0:0:0:
364,312,28196,1,2,0:0:0:0:
120,336,28429,1,0,0:0:0:0:
464,84,28661,5,2,0:0:0:0:
336,88,28894,1,0,0:0:0:0:
476,176,29127,1,2,0:0:0:0:
116,276,29359,2,0,P|180:335|261:300,1,186,2|0,0:0|0:0,0:0:0:0:
456,224,30057,2,0,L|363:224,1,93,2|0,0:0|0:0,0:0:0:0:
36,164,30522,6,0,P|132:144|220:176,1,186,4|0,0:0|0:0,0:0:0:0:
384,244,31220,2,0,L|492:220,1,93,2|0,0:0|0:0,0:0:0:0:
280,232,31685,2,0,L|176:264,1,93,2|0,0:0|0:0,0:0:0:0:
388,324,32150,6,0,P|432:252|368:156,1,186,2|0,0:0|0:0,0:0:0:0:
140,128,32848,1,2,0:0:0:0:
312,160,33080,1,0,0:0:0:0:
152,284,33313,1,0,0:0:0:0:
392,196,33545,1,0,0:0:0:0:
232,180,33778,2,0,L|132:176,1,93
500,268,34243,6,0,P|443:337|354:334,1,186,2|0,0:0|0:0,0:0:0:0:
176,284,34941,2,0,P|233:215|322:218,1,186,2|0,0:0|0:0,0:0:0:0:
436,280,35638,1,0,0:0:0:0:
44,196,35871,6,0,L|232:228,1,186,2|0,0:0|0:0,0:0:0:0:
392,264,36568,2,0,L|172:292,1,186,2|0,0:0|0:0,0:0:0:0:
48,328,37266,1,0,0:0:0:0:
324,360,37499,1,2,0:0:0:0:
456,312,37731,1,0,0:0:0:0:
114,223,37964,6,0,L|96:132,1,93,2|0,0:0|0:0,0:0:0:0:
248,108,38429,2,0,P|312:88|436:140,1,186,2|0,0:0|0:0,0:0:0:0:
508,220,39127,1,0,0:0:0:0:
400,284,39359,1,0,0:0:0:0:
40,208,39592,6,0,P|-4:124|56:52,1,186,2|0,0:0|0:0,0:0:0:0:
212,88,40289,2,0,P|277:146|358:112,2,186,2|0|0,0:0|0:0|0:0,0:0:0:0:
340,32,41452,1,0,0:0:0:0:
120,112,41685,6,0,L|40:296,1,186,2|0,0:0|0:0,0:0:0:0:
204,288,42382,2,0,P|274:342|355:306,1,186,0|0,0:0|0:0,0:0:0:0:
180,192,43080,2,0,L|60:184,1,93,2|0,0:0|0:0,0:0:0:0:
488,88,43545,5,2,0:0:0:0:
360,120,43778,1,0,0:0:0:0:
184,72,44010,1,2,0:0:0:0:
480,184,44243,1,2,0:0:0:0:
176,164,44475,2,0,P|121:232|169:305,1,186,2|2,0:0|0:0,0:0:0:0:
416,148,45173,1,0,0:0:0:0:
460,148,45289,1,0,0:0:0:0:
500,152,45406,6,0,L|400:156,1,93,4|0,0:0|0:0,0:0:0:0:
179,188,45871,2,0,L|272:188,1,93,2|0,0:0|0:0,0:0:0:0:
112,280,46336,1,2,0:0:0:0:
256,336,46568,1,0,0:0:0:0:
48,280,46801,1,8,0:0:0:0:
416,192,47034,6,0,L|230:205,1,186,2|0,0:1|0:0,0:0:0:0:
80,200,47731,1,2,0:0:0:0:
288,284,47964,2,0,L|388:276,1,93,2|2,0:1|0:0,0:0:0:0:
500,204,48429,1,0,0:0:0:0:
156,176,48661,2,0,L|108:76,1,93,8|0,0:0|0:0,0:0:0:0:
432,292,49127,6,0,P|460:256|468:211,1,93,4|0,0:0|0:0,0:0:0:0:
316,148,49592,1,2,0:0:0:0:
224,280,49824,1,0,0:0:0:0:
396,192,50057,2,0,L|512:184,1,93,2|0,0:0|0:0,0:0:0:0:
368,292,50522,1,8,0:0:0:0:
32,192,50754,1,2,0:1:0:0:
224,280,50987,5,0,0:1:0:0:
32,192,51220,1,0,0:0:0:0:
264,80,51452,1,2,0:0:0:0:
100,160,51685,2,0,L|232:168,1,93,2|0,0:1|0:0,0:0:0:0:
368,172,52150,1,2,0:1:0:0:
56,272,52382,2,0,P|102:267|148:261,1,93,8|0,0:0|0:0,0:0:0:0:
492,244,52848,6,0,L|364:240,1,93,4|0,0:0|0:0,0:0:0:0:
272,224,53313,1,2,0:0:0:0:
160,280,53545,1,0,0:0:0:0:
332,328,53778,1,2,0:0:0:0:
124,288,54010,2,0,L|16:316,1,93,0|8,0:0|0:0,0:0:0:0:
356,328,54475,6,0,L|447:310,1,93,2|0,0:1|0:0,0:0:0:0:
280,240,54941,1,0,0:0:0:0:
180,344,55173,1,2,0:0:0:0:
344,252,55406,2,0,L|272:184,1,93,2|0,0:1|0:0,0:0:0:0:
412,176,55871,5,0,0:0:0:0:
116,212,56103,1,8,0:0:0:0:
280,304,56336,1,0,0:0:0:0:
332,320,56452,1,0,0:0:0:0:
384,320,56568,6,0,L|508:304,1,93,4|0,0:0|0:0,0:0:0:0:
352,204,57034,1,2,0:0:0:0:
40,260,57266,2,0,L|124:336,1,93,4|0,0:0|0:0,0:0:0:0:
304,328,57731,5,4,0:0:0:0:
136,204,57964,1,2,0:0:0:0:
212,196,58080,1,0,0:0:0:0:
296,200,58196,1,2,0:1:0:0:
384,224,58313,1,0,0:0:0:0:
176,272,58429,6,0,L|83:272,1,93,0|0,0:0|0:0,0:0:0:0:
476,176,58894,1,2,0:0:0:0:
368,232,59127,1,0,0:0:0:0:
24,148,59359,2,0,L|144:136,1,93,4|0,0:0|0:0,0:0:0:0:
232,208,59708,2,0,L|139:220,1,93,2|0,0:1|0:0,0:0:0:0:
28,304,60057,2,0,L|73:297,1,46.5,2|0,0:1|0:0,0:0:0:0:
312,284,60289,6,0,L|222:308,1,93,2|4,0:0|0:0,0:0:0:0:
80,296,60754,1,4,0:0:0:0:
232,208,60987,1,0,0:0:0:0:
120,300,61220,2,0,L|132:368,1,46.5,2|2,0:0|0:0,0:0:0:0:
352,184,61568,2,0,L|336:120,1,46.5,2|2,0:0|0:0,0:0:0:0:
8,228,61917,6,0,P|32:308|132:328,1,186,4|0,0:0|0:0,0:0:0:0:
476,244,62615,1,4,0:0:0:0:
276,308,62848,2,0,L|356:316,1,46.5,2|2,0:0|0:0,0:0:0:0:
416,316,63080,5,0,0:0:0:0:
392,308,63138,1,0,0:0:0:0:
360,320,63196,1,0,0:0:0:0:
328,336,63254,1,0,0:0:0:0:
296,344,63313,1,0,0:0:0:0:
268,344,63371,1,0,0:0:0:0:
236,336,63429,1,0,0:0:0:0:
212,324,63487,1,0,0:0:0:0:
32,324,63545,5,8,0:0:0:0:
184,244,63778,2,0,L|248:232,1,46.5
416,192,64010,6,0,L|424:304,1,93,4|0,0:0|0:0,0:0:0:0:
224,64,64475,2,0,L|160:144,1,93,8|0,0:0|0:0,0:0:0:0:
416,192,64941,1,2,0:0:0:0:
256,192,65173,1,0,0:0:0:0:
96,192,65406,1,8,0:0:0:0:
320,192,65638,6,0,L|304:304,1,93,2|0,0:0|0:0,0:0:0:0:
128,64,66103,2,0,L|144:176,1,93,2|8,0:0|0:0,0:0:0:0:
368,64,66568,2,0,P|420:64|368:128,1,186,2|0,0:0|0:0,0:0:0:0:
224,64,67266,1,8,0:0:0:0:
80,64,67499,1,0,0:0:0:0:
400,64,67731,6,0,L|416:256,1,186,2|8,0:0|0:0,0:0:0:0:
176,64,68429,2,0,L|160:256,1,186,2|0,0:0|0:0,0:0:0:0:
352,192,69127,1,8,0:0:0:0:
176,192,69359,1,0,0:0:0:0:
368,192,69592,6,0,L|336:320,1,93,2|0,0:0|0:0,0:0:0:0:
176,64,70057,1,8,0:0:0:0:
384,64,70289,2,0,L|464:112,2,93,2|0|0,0:0|0:0|0:0,0:0:0:0:
48,192,70987,1,8,0:0:0:0:
160,192,71220,6,0,L|224:192,1,46.5,0|0,0:0|0:0,0:0:0:0:
432,192,71452,6,0,L|416:304,1,93,4|0,0:0|0:0,0:0:0:0:
224,64,71917,1,8,0:0:0:0:
432,64,72150,2,0,L|448:176,1,93,2|0,0:0|0:0,0:0:0:0:
80,64,72615,6,0,L|64:176,1,93,2|8,0:0|0:0,0:0:0:0:
432,64,73080,6,0,L|464:272,1,186,2|0,0:0|0:0,0:0:0:0:
384,192,73778,1,8,0:0:0:0:
80,64,74010,2,0,L|48:256,1,186,2|0,0:0|0:0,0:0:0:0:
432,192,74708,5,8,0:0:0:0:
432,192,74941,2,0,L|480:240,1,46.5,0|0,0:0|0:0,0:0:0:0:
432,192,75173,6,0,L|360:256,1,93,4|4,0:0|0:0,0:0:0:0:
160,64,75638,2,0,L|232:128,1,93,4|0,0:0|0:0,0:0:0:0:
432,64,76103,1,2,0:0:0:0:
256,64,76336,1,0,0:0:0:0:
80,64,76568,1,8,0:0:0:0:
400,64,76801,6,0,L|432:256,1,186,6|0,0:0|0:0,0:0:0:0:
112,64,77499,6,0,L|80:256,1,186,8|0,0:0|0:0,0:0:0:0:
320,64,78196,1,0,3:0:0:0:
256,64,78313,1,0,3:0:0:0:
192,64,78429,1,8,0:0:0:0:
384,192,78661,1,0,0:0:0:0:
64,192,78894,6,0,L|48:320,1,93,4|0,0:0|0:0,0:0:0:0:
272,64,79359,2,0,L|304:176,1,93,8|0,0:0|0:0,0:0:0:0:
96,64,79824,2,0,L|80:160,1,93,2|0,0:0|0:0,0:0:0:0:
256,192,80289,1,8,0:0:0:0:
432,192,80522,6,0,L|336:240,1,93,2|0,0:0|0:0,0:0:0:0:
96,64,80987,2,0,L|192:96,1,93,2|8,0:0|0:0,0:0:0:0:
416,64,81452,2,0,P|468:64|416:128,1,186,2|0,0:0|0:0,0:0:0:0:
256,192,82150,1,8,0:0:0:0:
96,192,82382,1,0,0:0:0:0:
448,192,82615,6,0,L|416:384,1,186,4|8,0:0|0:0,0:0:0:0:
208,192,83313,2,0,L|240:288,1,93,2|0,0:0|0:0,0:0:0:0:
400,192,83778,2,0,L|368:96,1,93,2|8,0:0|0:0,0:0:0:0:
48,192,84243,6,0,L|80:304,1,93,4|2,0:0|0:0,0:0:0:0:
464,192,84708,6,0,L|432:304,1,93,4|8,0:0|0:0,0:0:0:0:
256,80,85173,2,0,L|352:80,1,93,2|0,0:0|0:0,0:0:0:0:
48,80,85638,6,0,L|64:192,1,93,4|8,0:0|0:0,0:0:0:0:
464,80,86103,6,0,L|432:288,1,186,4|2,0:0|0:0,0:0:0:0:
256,192,86801,1,8,0:0:0:0:
64,192,87034,2,0,L|80:288,1,93,0|2,0:0|0:0,0:0:0:0:
288,80,87499,1,0,0:0:0:0:
112,80,87731,1,8,0:0:0:0:
288,80,87964,2,0,L|400:96,1,93,2|0,0:0|0:0,0:0:0:0:
64,192,88429,6,0,L|80:288,1,93,0|8,0:0|0:0,0:0:0:0:
256,192,88894,2,0,L|96:304,1,186,2|0,0:0|0:0,0:0:0:0:
256,304,89592,1,8,0:0:0:0:
409,298,89824,1,0,0:0:0:0:
112,192,90057,6,0,L|96:320,1,93,4|0,0:0|0:0,0:0:0:0:
400,192,90522,6,0,L|416:320,1,93,8|0,0:0|0:0,0:0:0:0:
168,56,90987,6,0,L|136:176,1,93,0|2,0:0|0:0,0:0:0:0:
344,56,91452,2,0,L|376:176,1,93,8|2,0:0|0:0,0:0:0:0:
168,192,91917,5,2,0:0:0:0:
344,192,92150,1,2,0:0:0:0:
144,192,92382,2,0,L|128:240,1,46.5,8|0,0:0|0:0,0:0:0:0:
208,272,92615,2,0,L|216:328,1,46.5,0|0,0:0|0:0,0:0:0:0:
304,328,92848,6,0,L|336:368,1,46.5,2|0,0:0|0:0,0:0:0:0:
416,312,93080,2,0,L|424:256,1,46.5,0|0,0:0|0:0,0:0:0:0:
320,192,93313,2,0,L|312:144,1,46.5,8|0,0:0|0:0,0:0:0:0:
448,104,93545,2,0,L|464:48,1,46.5,0|0,0:0|0:0,0:0:0:0:
256,40,93778,6,0,L|272:136,1,93,4|0,0:0|0:0,0:0:0:0:
424,40,94243,1,8,0:0:0:0:
208,40,94475,2,0,L|240:240,1,186,2|0,0:0|0:0,0:0:0:0:
392,192,95173,1,8,0:0:0:0:
176,192,95406,6,0,L|184:304,1,93,2|0,0:0|0:0,0:0:0:0:
312,192,95871,1,0,0:0:0:0:
96,80,96103,2,8,L|104:184,1,93,8|0,0:0|0:0,0:0:0:0:
304,80,96568,2,0,L|296:184,1,93,2|0,0:0|0:0,0:0:0:0:
80,256,97034,2,0,L|48:368,1,93,8|0,0:0|0:0,0:0:0:0:
384,192,97499,6,0,L|368:312,1,93,2|0,0:0|0:0,0:0:0:0:
216,192,97964,1,8,0:0:0:0:
448,192,98196,2,0,L|416:384,1,186,2|0,0:0|0:0,0:0:0:0:
256,64,98894,1,8,0:0:0:0:
448,64,99127,6,0,L|416:264,1,186,2|0,0:0|0:0,0:0:0:0:
256,192,99824,1,8,0:0:0:0:
416,248,100057,1,0,0:0:0:0:
232,240,100289,2,0,L|264:144,1,93,2|0,0:0|0:0,0:0:0:0:
456,192,100754,2,0,L|424:96,1,93,8|0,0:0|0:0,0:0:0:0:
112,112,101220,6,0,L|128:232,1,93,2|0,0:0|0:0,0:0:0:0:
256,112,101685,1,8,0:0:0:0:
64,112,101917,2,0,L|96:304,1,186,2|0,0:0|0:0,0:0:0:0:
256,192,102615,1,8,0:0:0:0:
448,112,102848,6,0,L|416:304,1,186,2|0,0:0|0:0,0:0:0:0:
256,112,103545,1,8,0:0:0:0:
64,112,103778,1,0,0:0:0:0:
248,192,104010,2,0,L|312:296,1,93,2|0,0:0|0:0,0:0:0:0:
480,112,104475,2,0,L|416:216,1,93,8|0,0:0|0:0,0:0:0:0:
128,192,104941,6,0,L|48:240,2,93,4|0|8,0:0|0:0|0:0,0:0:0:0:
352,80,105638,2,0,L|384:272,1,186,2|0,0:0|0:0,0:0:0:0:
256,192,106336,1,8,0:0:0:0:
128,192,106568,1,0,0:0:0:0:
320,80,106801,5,2,0:0:0:0:
192,80,107034,1,0,0:0:0:0:
384,192,107266,2,0,L|360:304,1,93,8|0,0:0|0:0,0:0:0:0:
128,192,107731,2,0,L|152:304,1,93,2|0,0:0|0:0,0:0:0:0:
320,80,108196,2,0,L|328:160,1,46.5,8|0,0:0|0:0,0:0:0:0:
184,192,108429,2,0,L|176:264,1,46.5,2|0,0:0|0:0,0:0:0:0:
392,192,108661,6,0,L|376:312,1,93,6|0,0:0|0:0,0:0:0:0:
256,192,109127,1,0,0:0:0:0:
464,72,109359,2,0,L|448:184,1,93,2|0,0:0|0:0,0:0:0:0:
256,192,109824,2,0,L|280:96,1,93,2|0,0:0|0:0,0:0:0:0:
472,312,110289,6,0,L|256:312,1,186,2|0,0:0|0:0,0:0:0:0:
72,192,110987,2,0,L|208:48,1,186,2|0,0:0|0:0,0:0:0:0:
456,72,111917,2,0,L|432:192,1,93,2|0,0:0|0:0,0:0:0:0:
72,192,112382,6,0,L|104:392,1,186,2|0,0:0|0:0,0:0:0:0:
256,64,113080,2,0,L|40:64,1,186,2|0,0:0|0:0,0:0:0:0:
184,192,113778,1,0,0:0:0:0:
488,192,114010,6,0,L|288:192,1,186,2|0,0:0|0:0,0:0:0:0:
128,80,114708,2,0,L|328:80,1,186,2|0,0:0|0:0,0:0:0:0:
96,80,115638,2,0,L|128:176,1,93,2|0,0:0|0:0,0:0:0:0:
424,80,116103,6,0,L|384:288,1,186,2|2,0:0|0:0,0:0:0:0:
256,192,116801,1,0,0:0:0:0:
104,80,117034,2,0,L|216:80,1,93,2|0,0:0|0:0,0:0:0:0:
352,80,117499,1,2,0:0:0:0:
48,80,117731,6,0,L|32:272,1,186,2|0,0:0|0:0,0:0:0:0:
256,192,118429,2,0,L|288:384,1,186,2|0,0:0|0:0,0:0:0:0:
456,192,119359,1,0,0:0:0:0:
88,192,119824,6,0,L|64:256,1,46.5,2|0,0:0|0:0,0:0:0:0:
144,280,120057,2,0,L|168:352,1,46.5,0|0,0:0|0:0,0:0:0:0:
232,224,120289,2,0,L|280:256,1,46.5,2|0,0:0|0:0,0:0:0:0:
344,192,120522,2,0,L|368:128,1,46.5,0|0,0:0|0:0,0:0:0:0:
448,96,120754,6,0,L|440:32,1,46.5,2|0,0:0|0:0,0:0:0:0:
384,280,120987,2,0,L|344:232,1,46.5,0|0,0:0|0:0,0:0:0:0:
272,88,121220,2,0,L|208:88,1,46.5,2|0,0:0|0:0,0:0:0:0:
152,136,121452,2,0,L|128:192,1,46.5,0|0,0:0|0:0,0:0:0:0:
320,232,121685,6,0,L|336:288,1,46.5,2|0,0:0|0:0,0:0:0:0:
216,288,121917,2,0,L|200:352,1,46.5,4|0,0:0|0:0,0:0:0:0:
312,136,122150,2,0,L|328:192,1,46.5,2|0,0:0|0:0,0:0:0:0:
104,152,122382,6,0,L|80:224,1,46.5,2|0,0:0|0:0,0:0:0:0:
16,256,122615,2,0,L|24:312,1,46.5
104,256,122848,2,0,L|152:288,1,46.5,0|0,0:0|0:0,0:0:0:0:
432,192,123080,2,0,L|416:80,1,93,8|0,0:0|0:0,0:0:0:0:
56,80,123545,6,0,L|152:128,1,93,4|0,0:0|0:0,0:0:0:0:
312,208,124010,2,0,L|216:176,1,93,2|0,0:0|0:0,0:0:0:0:
32,256,124475,1,2,0:0:0:0:
200,256,124708,1,0,0:0:0:0:
352,256,124941,1,8,0:0:0:0:
120,72,125173,6,0,L|80:280,1,186,2|0,0:1|0:0,0:0:0:0:
256,192,125871,1,2,0:0:0:0:
416,192,126103,1,2,0:1:0:0:
272,80,126336,2,0,L|280:184,1,93,2|0,0:0|0:0,0:0:0:0:
464,192,126801,2,0,L|448:296,1,93,8|0,0:0|0:0,0:0:0:0:
56,192,127266,6,0,L|144:112,1,93,4|0,0:0|0:0,0:0:0:0:
272,80,127731,1,2,0:0:0:0:
96,80,127964,1,2,0:1:0:0:
304,192,128196,2,0,L|280:312,1,93,2|0,0:0|0:0,0:0:0:0:
128,192,128661,1,8,0:0:0:0:
336,80,128894,6,0,L|408:280,1,186,2|0,0:1|0:0,0:0:0:0:
200,80,129592,1,2,0:0:0:0:
408,80,129824,2,0,L|384:288,1,186,2|0,0:1|0:0,0:0:0:0:
48,192,130522,6,0,L|72:296,1,93,8|0,0:0|0:0,0:0:0:0:
440,192,130987,6,0,L|352:120,2,93,4|0|2,0:0|0:0|0:0,0:0:0:0:
272,192,131685,1,0,0:0:0:0:
96,88,131917,2,0,L|128:200,1,93,2|0,0:0|0:0,0:0:0:0:
296,88,132382,1,8,0:0:0:0:
472,312,132615,6,0,L|264:320,1,186,2|0,0:1|0:0,0:0:0:0:
112,192,133313,1,2,0:0:0:0:
328,88,133545,2,0,L|176:200,1,186,2|0,0:1|0:0,0:0:0:0:
408,192,134243,1,8,0:0:0:0:
408,192,134475,6,0,L|360:240,1,46.5,0|0,0:0|0:0,0:0:0:0:
184,88,134708,1,4,0:0:0:0:
48,88,134941,6,0,L|72:208,1,93,0|2,0:0|0:0,0:0:0:0:
456,192,135406,6,0,L|432:328,1,93,4|0,0:0|0:0,0:0:0:0:
96,192,135871,6,0,L|176:120,1,93,4|8,0:0|0:0,0:0:0:0:
456,192,136336,6,0,L|256:192,1,186,0|0,0:0|0:0,0:0:0:0:
136,192,137034,1,2,0:0:0:0:
368,88,137499,6,0,L|232:96,1,93,4|0,0:0|0:0,0:0:0:0:
184,192,137848,2,0,L|304:184,1,93,2|0,0:1|0:0,0:0:0:0:
384,288,138196,2,0,L|272:304,1,93,2|2,0:1|0:0,0:0:0:0:
136,192,138661,5,4,0:0:0:0:
456,192,138894,2,0,L|352:192,1,93,4|0,0:0|0:0,0:0:0:0:
144,80,139359,2,0,L|160:152,1,46.5,2|2,0:0|0:0,0:0:0:0:
272,192,139592,2,0,L|256:256,1,46.5,0|2,0:0|0:0,0:0:0:0:
160,304,139824,1,2,0:0:0:0:
472,304,140057,1,4,0:0:0:0:
160,192,140522,5,0,0:0:0:0:
472,192,140755,1,4,0:0:0:0:
304,80,140987,6,0,L|240:80,1,46.5,2|2,0:0|0:0,0:0:0:0:
136,80,141220,2,0,L|96:96,1,23.25,0|0,0:0|0:0,0:0:0:0:
88,120,141336,2,0,L|72:152,1,23.25,0|0,0:0|0:0,0:0:0:0:
80,192,141452,2,0,L|90:212,1,23.25,0|0,0:0|0:0,0:0:0:0:
116,244,141568,2,0,L|137:252,1,23.25,0|0,0:0|0:0,0:0:0:0:
344,256,141685,1,8,0:0:0:0:
344,184,141917,6,0,L|288:160,1,46.5,0|0,0:0|0:0,0:0:0:0:
88,120,142150,2,0,L|173:83,1,93,4|0,0:0|0:0,0:0:0:0:
352,48,142615,1,8,0:0:0:0:
484,136,142848,1,0,0:0:0:0:
192,288,143080,2,0,L|296:288,1,93,2|0,0:0|0:0,0:0:0:0:
92,348,143545,1,8,0:0:0:0:
384,176,143778,6,0,L|500:204,1,93,2|0,0:0|0:0,0:0:0:0:
296,284,144243,2,0,L|210:320,1,93,2|8,0:0|0:0,0:0:0:0:
32,184,144708,2,0,L|117:146,1,93,2|0,0:0|0:0,0:0:0:0:
332,152,145173,1,0,0:0:0:0:
132,144,145406,2,0,L|20:140,1,93,8|0,0:0|0:0,0:0:0:0:
352,252,145871,6,0,P|433:290|511:246,1,186,2|8,0:0|0:0,0:0:0:0:
328,152,146568,2,0,P|280:148|224:168,1,93,2|0,0:0|0:0,0:0:0:0:
416,252,147034,2,0,P|468:256|520:232,2,93,2|8|0,0:0|0:0|0:0,0:0:0:0:
116,288,147731,6,0,L|148:180,1,93,2|0,0:0|0:0,0:0:0:0:
280,240,148196,1,8,0:0:0:0:
72,316,148429,2,0,L|120:220,1,93,2|0,0:0|0:0,0:0:0:0:
344,264,148894,1,0,0:0:0:0:
28,324,149127,1,8,0:0:0:0:
216,344,149359,2,0,L|278:338,1,46.5,0|0,0:0|0:0,0:0:0:0:
464,240,149592,6,0,L|352:248,1,93,4|0,0:0|0:0,0:0:0:0:
160,244,150057,1,8,0:0:0:0:
352,320,150289,2,0,L|436:244,1,93,2|0,0:0|0:0,0:0:0:0:
244,240,150754,2,0,L|176:316,1,93,2|8,0:0|0:0,0:0:0:0:
496,140,151220,6,0,P|420:100|324:144,1,186,2|0,0:0|0:0,0:0:0:0:
456,228,151917,1,8,0:0:0:0:
280,208,152150,2,0,P|256:148|276:84,1,93,2|0,0:0|0:0,0:0:0:0:
452,152,152615,1,0,0:0:0:0:
144,316,152848,2,0,L|44:264,1,93,8|0,0:0|0:0,0:0:0:0:
20,208,153196,1,0,0:0:0:0:
92,228,153313,5,2,0:0:0:0:
484,216,153545,2,0,L|372:232,1,93,4|4,0:0|0:0,0:0:0:0:
192,224,154010,1,0,0:0:0:0:
380,120,154243,1,2,0:0:0:0:
408,128,154359,1,0,0:0:0:0:
428,148,154475,1,0,0:0:0:0:
444,172,154592,1,0,0:0:0:0:
428,196,154708,1,8,0:0:0:0:
124,264,154941,6,0,P|76:232|56:172,1,93,4|0,0:0|0:0,0:0:0:0:
244,104,155406,1,0,0:0:0:0:
348,256,155638,1,8,0:0:0:0:
28,300,155871,2,0,L|112:256,1,93,2|0,0:0|0:0,0:0:0:0:
272,160,156336,1,0,3:0:0:0:
244,156,156452,1,0,3:0:0:0:
216,148,156568,2,0,L|112:144,1,93,8|0,0:0|0:0,0:0:0:0:
484,88,157034,6,0,L|391:91,1,93,4|0,0:0|0:0,0:0:0:0:
232,156,157499,2,0,L|352:168,1,93,8|0,0:0|0:0,0:0:0:0:
24,176,157964,2,0,P|88:204|184:120,1,186,2|8,0:0|0:0,0:0:0:0:
328,88,158661,6,0,L|351:177,1,93,2|0,0:0|0:0,0:0:0:0:
196,280,159127,2,0,L|164:168,1,93,2|8,0:0|0:0,0:0:0:0:
476,328,159592,2,0,P|429:331|386:316,1,93,2|0,0:0|0:0,0:0:0:0:
500,228,160057,1,0,0:0:0:0:
320,220,160289,1,8,0:0:0:0:
480,328,160522,1,0,0:0:0:0:
120,204,160754,6,0,P|200:168|228:176,1,93,4|0,0:0|0:0,0:0:0:0:
336,204,161220,1,8,0:0:0:0:
104,248,161452,2,0,L|64:152,1,93,2|0,0:0|0:0,0:0:0:0:
264,340,161917,2,0,L|292:252,1,93,2|8,0:0|0:0,0:0:0:0:
132,272,162382,1,0,0:0:0:0:
428,68,162615,6,0,L|512:136,2,93,2|0|8,0:0|0:0|0:0,0:0:0:0:
292,128,163313,2,0,P|220:156|120:80,1,186,2|0,0:0|0:0,0:0:0:0:
28,152,164010,1,8,0:0:0:0:
448,272,164243,1,4,0:0:0:0:
448,272,164708,6,0,L|332:264,1,93,2|8,0:0|0:0,0:0:0:0:
224,252,165173,1,0,0:0:0:0:
20,256,165406,2,0,L|136:248,1,93,2|0,0:0|0:0,0:0:0:0:
224,252,165871,1,8,0:0:0:0:
456,68,166103,2,0,P|411:78|378:110,1,93,2|0,0:0|0:0,0:0:0:0:
260,160,166568,5,0,0:0:0:0:
140,116,166801,1,8,0:0:0:0:
488,248,167034,2,0,P|408:296|328:236,1,186,2|0,0:0|0:0,0:0:0:0:
212,200,167731,1,8,0:0:0:0:
396,176,167964,1,0,0:0:0:0:
56,140,168196,6,0,L|124:216,1,93,4|2,0:0|0:0,0:0:0:0:
300,160,168661,1,8,0:0:0:0:
140,200,168894,1,0,0:0:0:0:
284,280,169127,2,0,P|336:288|408:272,1,93,2|2,0:0|0:0,0:0:0:0:
256,196,169592,1,8,0:0:0:0:
424,172,169824,1,2,0:0:0:0:
216,216,170057,1,2,0:0:0:0:
308,152,170289,1,2,0:0:0:0:
100,216,170522,6,0,L|80:160,1,46.5,8|0,0:0|0:0,0:0:0:0:
188,172,170754,2,0,L|205:216,1,46.5,0|0,0:0|0:0,0:0:0:0:
304,112,170987,2,0,L|280:48,1,46.5,2|0,0:0|0:0,0:0:0:0:
160,272,171220,2,0,L|184:311,1,46.5,0|0,0:0|0:0,0:0:0:0:
408,136,171452,2,0,L|368:84,1,46.5,8|0,0:0|0:0,0:0:0:0:
84,344,171685,2,0,L|168:352,1,46.5,0|0,0:0|0:0,0:0:0:0:
472,256,171917,1,4,0:0:0:0:
256,192,183080,12,2,184708,0:0:0:0:
392,276,185173,6,0,L|444:268,2,46.5,2|2|2,0:0|0:0|0:0,0:0:0:0:
216,248,185638,1,2,0:0:0:0:
416,160,185871,2,0,L|488:144,1,46.5,2|2,0:0|0:0,0:0:0:0:
272,168,186220,2,0,L|200:152,1,46.5,2|2,0:0|0:0,0:0:0:0:
424,272,186568,2,0,L|472:268,1,46.5,2|0,0:1|0:0,0:0:0:0:
284,312,186801,6,0,P|240:324|180:292,1,93,4|0,0:0|0:0,0:0:0:0:
36,244,187266,1,2,0:0:0:0:
228,232,187499,1,0,0:0:0:0:
64,152,187731,2,0,L|164:148,1,93,2|0,0:0|0:0,0:0:0:0:
436,184,188196,1,8,0:0:0:0:
288,136,188429,1,0,0:0:0:0:
68,256,188661,6,0,L|157:282,1,93,2|2,0:0|0:0,0:0:0:0:
344,312,189127,1,0,0:0:0:0:
168,332,189359,1,0,0:0:0:0:
480,144,189592,2,0,L|372:144,1,93,2|0,0:0|0:0,0:0:0:0:
220,164,190057,1,8,0:0:0:0:
76,148,190289,1,0,0:0:0:0:
448,236,190522,6,0,P|386:300|298:285,1,186,4|8,0:0|0:0,0:0:0:0:
188,236,191220,1,0,0:0:0:0:
396,120,191452,2,0,P|412:168|404:216,1,93,2|0,0:0|0:0,0:0:0:0:
104,168,191917,1,8,0:0:0:0:
308,176,192150,1,0,0:0:0:0:
180,76,192382,5,2,0:0:0:0:
396,180,192615,2,0,L|488:172,1,93,2|0,0:0|0:0,0:0:0:0:
408,308,193080,1,0,0:0:0:0:
236,232,193313,2,0,L|180:200,2,46.5,2|0|0,0:0|0:0|0:0,0:0:0:0:
408,272,193778,2,0,P|456:284|504:260,1,93,8|0,0:0|0:0,0:0:0:0:
192,156,194243,6,0,P|124:156|80:200,1,93,4|0,0:0|0:0,0:0:0:0:
16,232,194708,1,2,0:0:0:0:
308,216,194941,2,0,L|404:188,2,93,2|2|0,0:0|0:0|0:0,0:0:0:0:
148,212,195638,1,2,0:0:0:0:
364,136,195871,6,0,L|432:220,1,93,2|0,0:0|0:0,0:0:0:0:
192,252,196336,2,0,L|53:129,1,186,2|0,0:0|0:0,0:0:0:0:
196,88,197034,1,2,0:0:0:0:
72,116,197266,1,0,0:0:0:0:
260,224,197499,1,2,0:0:0:0:
68,272,197731,1,0,0:0:0:0:
424,128,197964,6,0,P|344:96|248:148,1,186,4|0,0:0|0:0,0:0:0:0:
80,188,198661,2,0,L|28:92,1,93,4|0,0:0|0:0,0:0:0:0:
274,304,199127,2,0,L|304:216,1,93,4|0,0:0|0:0,0:0:0:0:
132,336,199592,2,0,P|76:348|24:332,1,93,4|0,0:0|0:0,0:0:0:0:
356,80,200057,5,2,0:0:0:0:
240,172,200289,1,10,0:0:0:0:
428,192,200522,1,2,0:0:0:0:
101,273,200754,2,0,L|216:176,2,139.5,2|0|0,0:0|0:0|0:0,0:0:0:0:
460,200,201685,6,0,L|367:207,1,93,4|0,0:0|0:0,0:0:0:0:
160,212,202150,2,0,L|252:202,1,93,6|2,0:0|0:0,0:0:0:0:
476,164,202615,2,0,L|352:164,1,93,2|0,0:0|0:0,0:0:0:0:
136,264,203080,2,0,L|232:284,1,93,2|0,0:0|0:0,0:0:0:0:
377,255,203545,6,0,L|424:252,1,46.5,2|0,0:0|0:0,0:0:0:0:
336,220,203778,2,0,L|280:224,1,46.5,0|0,0:0|0:0,0:0:0:0:
408,272,204010,2,0,L|454:268,1,46.5,0|0,0:0|0:0,0:0:0:0:
256,288,204243,2,0,L|209:291,1,46.5,2|0,0:0|0:0,0:0:0:0:
32,280,204475,6,0,L|16:240,5,23.25,0|0|0|0|0|0,0:0|0:0|0:0|0:0|0:0|0:0,0:0:0:0:
80,256,204824,6,0,L|64:216,5,23.25,0|0|2|0|0|0,0:0|0:0|0:0|0:0|0:0|0:0,0:0:0:0:
132,252,205173,6,0,L|144:292,3,23.25
64,344,205406,1,2,0:0:0:0:
228,344,208894,6,0,L|348:328,1,93,2|0,0:0|0:0,0:0:0:0:
384,252,209359,2,0,L|504:236,1,93,2|0,0:0|0:0,0:0:0:0:
296,200,209824,2,0,L|196:192,1,93,2|0,0:0|0:0,0:0:0:0:
96,224,210289,1,0,0:0:0:0:
272,292,210522,2,0,L|364:295,1,93,8|0,0:0|0:0,0:0:0:0:
4,248,210987,6,0,P|85:286|163:242,1,186,4|8,0:0|0:0,0:0:0:0:
364,136,211684,2,0,P|316:132|260:152,1,93,2|0,0:0|0:0,0:0:0:0:
456,240,212150,1,0,0:0:0:0:
276,304,212382,1,8,0:0:0:0:
476,352,212615,1,0,0:0:0:0:
116,288,212847,6,0,L|148:180,1,93,2|0,0:0|0:0,0:0:0:0:
280,240,213313,1,8,0:0:0:0:
72,316,213545,2,0,L|48:204,1,93,2|0,0:0|0:0,0:0:0:0:
280,240,214010,1,0,0:0:0:0:
72,316,214243,1,8,0:0:0:0:
216,344,214475,2,0,L|278:338,1,46.5,0|0,0:0|0:0,0:0:0:0:
464,240,214708,6,0,L|352:248,1,93,4|0,0:0|0:0,0:0:0:0:
160,244,215173,1,8,0:0:0:0:
352,320,215405,2,0,L|468:320,1,93,2|0,0:0|0:0,0:0:0:0:
244,240,215870,2,0,L|144:240,1,93,2|8,0:0|0:0,0:0:0:0:
496,140,216336,6,0,P|420:100|324:144,1,186,2|0,0:0|0:0,0:0:0:0:
456,228,217033,1,8,0:0:0:0:
260,196,217266,2,0,P|236:136|256:72,1,93,2|0,0:0|0:0,0:0:0:0:
452,152,217731,1,0,0:0:0:0:
144,316,217964,2,0,L|44:264,1,93,10|0,0:0|0:0,0:0:0:0:
20,208,218312,1,0,0:0:0:0:
92,228,218429,5,2,0:0:0:0:
484,216,218661,2,0,B|444:236|444:236|372:232,1,93,4|4,0:0|0:0,0:0:0:0:
192,224,219126,1,0,0:0:0:0:
352,144,219359,2,0,L|416:144,1,46.5,2|0,0:0|0:0,0:0:0:0:
328,236,219592,2,0,L|280:208,1,46.5,0|0,0:0|0:0,0:0:0:0:
420,220,219824,1,8,0:0:0:0:
124,264,220057,6,0,B|72:232|72:232|56:172,1,93,6|0,0:0|0:0,0:0:0:0:
244,104,220522,1,0,0:0:0:0:
348,256,220754,1,8,0:0:0:0:
0,324,220987,2,0,L|100:328,1,93,2|0,0:0|0:0,0:0:0:0:
224,168,221452,1,0,0:0:0:0:
252,176,221568,1,0,0:0:0:0:
284,184,221684,2,0,L|180:192,1,93,8|0,0:0|0:0,0:0:0:0:
484,88,222150,6,0,L|391:91,1,93,4|0,0:0|0:0,0:0:0:0:
240,112,222615,2,0,L|327:147,1,93,8|0,0:0|0:0,0:0:0:0:
160,184,223080,2,0,P|91:241|6:214,1,186,2|8,0:0|0:0,0:0:0:0:
364,112,223777,6,0,L|476:124,1,93,2|0,0:0|0:0,0:0:0:0:
248,216,224243,2,0,L|124:188,1,93,2|8,0:0|0:0,0:0:0:0:
476,328,224708,2,0,P|429:331|386:316,1,93,2|0,0:0|0:0,0:0:0:0:
500,228,225173,1,0,0:0:0:0:
360,220,225405,1,8,0:0:0:0:
480,328,225638,1,0,0:0:0:0:
120,204,225870,6,0,P|200:168|228:176,1,93,4|0,0:0|0:0,0:0:0:0:
336,204,226336,1,8,0:0:0:0:
104,248,226568,2,0,L|64:152,1,93,2|0,0:0|0:0,0:0:0:0:
264,340,227033,2,0,L|292:252,1,93,2|8,0:0|0:0,0:0:0:0:
96,280,227498,1,4,0:0:0:0:
452,108,227731,6,0,L|380:50,2,93,2|4|8,0:0|0:0|0:0,0:0:0:0:
292,128,228429,2,0,P|220:156|120:80,1,186,2|0,0:0|0:0,0:0:0:0:
352,56,229126,1,8,0:0:0:0:
24,208,229359,1,4,0:0:0:0:
24,208,229824,6,0,L|116:214,1,93,2|8,0:0|0:0,0:0:0:0:
296,248,230289,1,0,0:0:0:0:
476,200,230522,2,0,L|383:206,1,93,2|0,0:0|0:0,0:0:0:0:
208,252,230987,1,8,0:0:0:0:
36,124,231219,6,0,P|69:92|113:82,1,93,2|0,0:0|0:0,0:0:0:0:
260,160,231684,1,0,0:0:0:0:
100,196,231917,1,8,0:0:0:0:
488,248,232150,2,0,B|404:284|404:284|296:228,1,186,2|0,0:0|0:0,0:0:0:0:
212,200,232847,1,8,0:0:0:0:
396,176,233080,1,0,0:0:0:0:
20,156,233312,6,0,L|88:232,1,93,4|2,0:0|0:0,0:0:0:0:
300,160,233777,1,8,0:0:0:0:
168,204,234010,1,0,0:0:0:0:
308,272,234243,2,0,P|360:280|432:264,1,93,2|2,0:0|0:0,0:0:0:0:
508,196,234708,1,8,0:0:0:0:
352,156,234940,1,2,0:0:0:0:
224,256,235173,1,2,0:0:0:0:
388,332,235405,1,2,0:0:0:0:
28,204,235638,6,0,L|8:148,1,46.5,8|0,0:0|0:0,0:0:0:0:
144,184,235870,2,0,L|161:228,1,46.5,0|0,0:0|0:0,0:0:0:0:
272,88,236103,2,0,L|248:24,1,46.5,2|0,0:0|0:0,0:0:0:0:
104,244,236336,2,0,L|128:283,1,46.5,0|0,0:0|0:0,0:0:0:0:
396,144,236568,2,0,L|356:92,1,46.5,8|0,0:0|0:0,0:0:0:0:
12,332,236801,2,0,L|96:340,1,46.5,0|0,0:0|0:0,0:0:0:0:
256,192,237034,12,0,239824,0:0:0:0:
192,64,240057,5,0,0:0:0:0:
400,64,240289,2,0,L|384:160,1,93,8|0,0:0|0:0,0:0:0:0:
80,64,240754,6,0,L|112:256,1,186,2|8,0:0|0:0,0:0:0:0:
256,64,241452,1,0,0:0:0:0:
448,192,241685,2,0,L|384:288,1,93,2|0,0:0|0:0,0:0:0:0:
224,64,242150,1,8,0:0:0:0:
368,64,242382,1,0,0:0:0:0:
144,64,242615,6,0,L|112:160,1,93,2|0,0:0|0:0,0:0:0:0:
320,192,243080,2,0,L|352:304,1,93,8|0,0:0|0:0,0:0:0:0:
128,320,243545,2,0,L|160:224,1,93,2|0,0:0|0:0,0:0:0:0:
464,192,244010,6,0,L|432:96,1,93,12|0,0:0|0:0,0:0:0:0:
48,192,244475,6,0,L|224:96,1,186,4|8,0:0|0:0,0:0:0:0:
448,48,245173,6,0,L|400:256,1,186,2|0,0:0|0:0,0:0:0:0:
256,192,245871,1,8,0:0:0:0:
48,336,246103,6,0,L|96:144,1,186,2|0,0:0|0:0,0:0:0:0:
256,192,246801,1,8,0:0:0:0:
464,48,247034,6,0,L|352:224,1,186,2|0,0:0|0:0,0:0:0:0:
144,192,247731,6,0,L|192:112,1,93,8|0,0:0|0:0,0:0:0:0:
320,192,248196,5,2,0:0:0:0:
144,192,248429,1,4,0:0:0:0:
464,192,248661,1,4,0:0:0:0:
288,48,248894,1,2,0:0:0:0:
432,48,249127,2,0,L|416:144,1,93,0|0,0:0|0:0,0:0:0:0:
256,192,249592,1,2,0:0:0:0:
64,320,249824,6,0,L|272:320,1,186,4|0,0:0|0:0,0:0:0:0:
432,320,250522,1,8,0:0:0:0:
256,48,250754,1,0,0:0:0:0:
416,48,250987,2,0,L|448:176,1,93,2|0,0:0|0:0,0:0:0:0:
304,192,251336,2,0,L|288:288,1,93,2|0,0:0|0:0,0:0:0:0:
400,240,251685,1,2,0:0:0:0:
80,48,251917,6,0,L|48:240,1,186,4|8,0:0|0:0,0:0:0:0:
272,48,252615,2,0,L|384:208,1,186,0|0,0:0|0:0,0:0:0:0:
256,192,253313,1,8,0:0:0:0:
64,320,253545,6,0,L|144:128,1,186,0|0,0:0|0:0,0:0:0:0:
256,192,254243,1,8,0:0:0:0:
448,192,254475,1,0,0:0:0:0:
272,48,254708,2,0,L|320:144,1,93,2|0,0:0|0:0,0:0:0:0:
480,192,255173,2,0,L|432:288,1,93,8|0,0:0|0:0,0:0:0:0:
48,64,255638,6,0,L|176:224,1,186,4|8,0:0|0:0,0:0:0:0:
400,48,256336,6,0,L|368:176,1,93,0|2,0:0|0:0,0:0:0:0:
160,320,256801,2,0,L|192:208,1,93,0|8,0:0|0:0,0:0:0:0:
480,192,257266,6,0,L|464:288,1,93,4|0,0:0|0:0,0:0:0:0:
32,192,257731,6,0,L|48:96,1,93,0|8,0:0|0:0,0:0:0:0:
208,48,258196,2,0,L|112:48,1,93,2|0,0:0|0:0,0:0:0:0:
416,48,258661,6,0,L|448:144,1,93,6|8,0:0|0:0,0:0:0:0:
96,48,259127,6,0,L|32:240,1,186,4|0,0:0|0:0,0:0:0:0:
192,192,259824,1,8,0:0:0:0:
368,192,260057,1,0,0:0:0:0:
176,48,260289,2,0,L|208:160,1,93,2|0,0:0|0:0,0:0:0:0:
368,192,260754,2,0,L|288:256,1,93,8|2,0:0|0:0,0:0:0:0:
160,192,261220,5,0,0:0:0:0:
480,192,261452,2,0,L|448:64,1,93,4|8,0:0|0:0,0:0:0:0:
304,48,261917,1,2,0:0:0:0:
96,48,262150,1,0,0:0:0:0:
272,48,262382,2,0,L|256:160,1,93,0|8,0:0|0:0,0:0:0:0:
432,48,262848,1,0,0:0:0:0:
96,192,263080,6,0,L|112:304,1,93,4|0,0:0|0:0,0:0:0:0:
416,192,263545,6,0,L|400:96,1,93,8|2,0:0|0:0,0:0:0:0:
256,48,264010,1,0,0:0:0:0:
96,192,264243,2,0,L|128:96,1,93,2|8,0:0|0:0,0:0:0:0:
320,192,264708,1,0,0:0:0:0:
192,192,264941,5,2,0:0:0:0:
320,192,265173,1,2,0:0:0:0:
176,192,265406,2,0,L|128:160,2,46.5,8|0|2,0:0|0:0|0:0,0:0:0:0:
336,192,265754,2,0,L|384:160,2,46.5,0|2|0,0:0|0:0|0:0,0:0:0:0:
144,192,266103,6,0,L|128:240,1,46.5,2|0,0:0|0:0,0:0:0:0:
368,192,266336,2,0,L|384:240,1,46.5,8|0,0:0|0:0,0:0:0:0:
112,192,266568,2,0,L|80:256,1,46.5,2|0,0:0|0:0,0:0:0:0:
416,192,266801,6,0,L|480:288,2,93,2|0|0,0:0|0:0|0:0,0:0:0:0:
288,48,267499,1,2,0:0:0:0:
112,48,267964,5,2,0:0:0:0:
32,48,268196,1,0,0:0:0:0:
192,48,268429,1,2,0:0:0:0:
400,48,268894,5,2,0:0:0:0:
480,48,269126,1,0,0:0:0:0:
320,48,269359,1,0,0:0:0:0:
192,48,269592,5,2,0:0:0:0:
128,48,270057,1,0,0:0:0:0:
64,48,270522,6,0,L|160:96,2,93,2|0|0,0:0|0:0|0:0,0:0:0:0:
208,192,271220,1,2,0:0:0:0:
352,192,271685,5,0,0:0:0:0:
208,48,271917,1,0,0:0:0:0:
368,48,272150,1,2,0:0:0:0:
