osu file format v6

[General]
AudioFilename: Selena Gomez and The Scene - Falling Down.mp3
AudioLeadIn: 0
PreviewTime: -1
Countdown: 1
SampleSet: Soft
StackLeniency: 0.7
Mode: 0
LetterboxInBreaks: 1

[Editor]
DistanceSpacing: 0.800000011920929
BeatDivisor: 4
GridSize: 32

[Metadata]
Title:Falling Down
Artist:Selena Gomez and The Scene
Creator:ushio
Version:Normal
Source:
Tags:

[Difficulty]
HPDrainRate:5
CircleSize:5
OverallDifficulty:5
SliderMultiplier:1.4
SliderTickRate:3

[Events]
//Background and Video events
0,0,"1543299_640px.jpg"
//Break Periods
//Storyboard Layer 0 (Background)
//Storyboard Layer 1 (Fail)
//Storyboard Layer 2 (Pass)
//Storyboard Layer 3 (Foreground)
//Storyboard Sound Samples
//Background Colour Transformations
3,100,255,128,255

[TimingPoints]
1047.20738192055,431.654676258993,4,2,0,100,1,0

[HitObjects]
139,76,759,1,0
139,76,1334,1,0
362,100,2342,1,0
362,100,2773,1,0
341,269,3637,1,0
224,263,4068,1,0
188,126,4500,1,0
259,130,5795,5,0
351,216,6227,1,0
193,224,6658,1,0
184,114,7090,1,0
327,112,7378,1,0
327,112,7953,1,0
327,112,8241,1,0
329,252,9248,1,0
232,255,9680,1,0
193,122,10111,1,0
316,96,10399,1,0
459,147,10831,5,0
349,265,11263,1,0
349,265,11694,1,0
188,247,12126,1,0
217,132,12557,1,0
330,119,12989,1,0
348,213,13421,1,0
271,282,13852,1,0
271,282,14284,1,0
116,68,15147,1,0
298,82,15579,1,0
321,179,16011,1,0
288,244,16442,1,0
199,228,16874,1,0
140,136,17306,1,0
201,54,17737,1,0
256,208,19176,12,0,20040
104,166,20759,5,0
280,139,21191,1,0
298,56,21622,1,0
178,50,22054,1,0
228,177,22342,1,0
228,177,22773,1,0
393,192,23349,1,0
393,192,23637,1,0
361,92,24212,1,0
276,180,24500,1,0
286,317,24932,1,0
109,300,25363,1,0
118,148,25795,1,0
200,241,26227,1,0
356,111,26658,1,0
355,256,27090,1,0
204,134,27522,1,0
248,79,28097,1,0
308,217,28385,1,0
213,316,28816,1,0
498,272,29248,1,0
440,256,29680,1,0
150,45,30831,6,8,C|311:64|298:79,3,186.666666666667
104,115,33852,1,8
318,102,34428,1,8
315,250,34860,1,8
191,270,35291,1,8
210,116,36155,1,8
305,159,36586,1,8
280,252,36874,1,8
165,237,37450,1,8
138,151,37881,1,8
308,53,38313,1,8
410,101,38745,1,8
392,204,39176,1,8
312,278,39608,1,8
284,190,40040,1,8
161,212,40471,1,8
256,208,41047,12,8,41766
152,161,42198,6,8,C|219:164,5,46.6666666666667
124,171,43781,2,8,C|197:175,7,46.6666666666667
157,83,45363,1,4
310,83,45795,1,4
298,260,46227,1,4
162,256,46658,1,4
123,172,47090,1,4
246,153,47665,1,4
210,218,48097,1,4
283,262,48529,1,4
314,194,48960,1,4
314,194,49392,1,4
296,55,49824,1,4
180,102,50255,1,4
219,222,50687,1,4
327,188,51119,1,4
245,133,51550,1,4
108,182,51982,1,4
202,24,52414,5,4
316,112,52845,1,4
160,153,53133,1,4
331,213,53565,1,4
233,100,54140,1,4
231,210,54572,1,4
146,254,54860,1,4
119,124,55291,1,4
308,160,55723,1,4
256,49,56011,1,4
209,165,56586,1,4
287,248,56874,1,4
382,149,57450,1,4
191,116,57881,1,4
256,208,58745,12,4,59464
148,140,60040,5,4
344,126,60471,1,4
352,291,60903,1,4
191,273,61334,1,4
228,136,61766,1,4
280,222,62342,1,4
389,96,62773,1,4
384,248,63205,1,4
202,224,63637,1,4
208,86,63924,1,4
332,126,64356,1,4
170,176,65219,1,4
170,176,65363,1,4
414,210,66083,1,4
356,93,66514,1,4
276,237,66946,1,4
149,99,67378,1,4
322,132,67953,1,4
128,107,69104,1,2
323,112,69536,1,2
129,247,70687,1,2
323,253,71263,1,2
276,101,71694,1,2
159,78,72126,1,2
