osu file format v12

[General]
AudioFilename: Short.mp3
AudioLeadIn: 0
PreviewTime: 76222
Countdown: 0
SampleSet: Normal
StackLeniency: 0.7
Mode: 0
LetterboxInBreaks: 0
WidescreenStoryboard: 0

[Editor]
Bookmarks: 20032,26843,32114,37059,42330,47600,52708,57897,62924,68195,70789,81411,86519,91789
DistanceSpacing: 0.8
BeatDivisor: 4
GridSize: 4

[Metadata]
Title:Mishaguji-Empire
TitleUnicode:ミシャグジ・エンパイア
Artist:Sekken-ya
ArtistUnicode:石鹸屋
Creator:RandomEffect
Version:Easy
Source:Touhou
Tags:TOHOHUM moriya suwako kero Mountain of Faith
BeatmapID:229988
BeatmapSetID:83235

[Difficulty]
HPDrainRate:2
CircleSize:3
OverallDifficulty:2
ApproachRate:3
SliderMultiplier:0.8
SliderTickRate:1

[Events]
//Background and Video events
0,0,"back1.jpg",0,0
//Break Periods
//Storyboard Layer 0 (Background)
//Storyboard Layer 1 (Fail)
//Storyboard Layer 2 (Pass)
//Storyboard Layer 3 (Foreground)
//Storyboard Sound Samples
//Background Colour Transformations
3,100,0,0,0

[TimingPoints]
1060,324.324324324324,4,1,1,40,1,0
35924,-100,4,1,2,40,0,0
37384,-100,4,1,1,40,0,0
41114,-100,4,1,2,40,0,0
42573,-100,4,1,1,40,0,0
56681,-100,4,1,2,40,0,0
58141,-100,4,1,1,40,0,0
61870,-100,4,1,2,40,0,0
63330,-100,4,1,1,30,0,0
71762,-100,4,1,1,40,0,0
72411,-100,4,1,1,50,0,0
73059,-100,4,1,1,60,0,0
73708,-100,4,1,1,70,0,0
75005,-100,4,1,1,80,0,0
76303,-100,4,1,1,40,0,1
85384,-100,4,1,1,50,0,1
86032,-100,4,1,1,60,0,1
86681,-100,4,1,1,40,0,1
94951,-100,4,1,2,40,0,1
95600,-100,4,1,1,40,0,1
99330,-100,4,1,1,40,0,0

[Colours]
Combo1 : 0,218,236
Combo2 : 18,244,0
Combo3 : 253,152,0
Combo4 : 255,102,167
SliderBorder : 255,255,255

[HitObjects]
440,56,21816,1,4,0:0:0:0:
440,184,22465,1,0,0:0:0:0:
312,184,23114,2,0,P|285:123|224:101,1,120,0|8,0:0|0:0,0:0:0:0:
80,112,24411,6,0,B|81:191|81:191|160:192|160:192|160:279,1,240,0|8,0:0|0:0,0:0:0:0:
160,338,25708,2,0,P|273:328|314:285,1,160,0|0,0:0|0:0,0:0:0:0:
396,212,27005,5,4,0:0:0:0:
396,84,27654,1,0,0:0:0:0:
284,148,28303,2,0,P|257:208|192:208,1,120,0|8,0:0|0:0,0:0:0:0:
84,316,29600,6,8,B|141:259|141:259|85:202|85:202|141:146,1,240,0|8,0:0|0:0,0:0:0:0:
188,104,30897,2,0,P|256:68|328:108,1,160,0|0,0:0|0:0,0:0:0:0:
424,184,32195,6,0,P|380:293|253:316,1,240,4|8,0:0|0:0,0:0:0:0:
208,304,33492,2,0,L|296:72,1,240,0|8,0:0|0:0,0:0:0:0:
232,56,34789,2,0,P|122:84|79:194,1,240,4|8,0:0|0:0,0:0:0:0:
208,188,36411,5,0,0:0:0:0:
272,176,36735,2,8,P|296:136|296:88,1,80,8|8,0:0|0:0,0:0:0:0:
256,56,37384,6,0,L|32:160,1,240,4|8,0:0|0:0,0:0:0:0:
38,226,38681,2,0,L|256:328,1,240,0|8,0:0|0:0,0:0:0:0:
316,328,39978,2,0,L|316:88,1,240,4|8,0:0|0:0,0:0:0:0:
236,188,41600,5,0,0:0:0:0:
176,164,41924,2,8,P|152:124|152:76,1,80,8|8,0:0|0:0,0:0:0:0:
212,72,42573,5,4,0:0:0:0:
340,72,43222,1,0,0:0:0:0:
436,156,43870,1,0,0:0:0:0:
436,252,44357,2,0,L|436:332,1,80
340,332,45168,6,0,P|284:252|212:340,1,240,0|8,0:0|0:0,0:0:0:0:
146,334,46465,2,0,P|72:320|48:168,1,240,0|8,0:0|0:0,0:0:0:0:
76,124,47762,5,4,0:0:0:0:
196,80,48411,1,0,0:0:0:0:
184,208,49059,1,0,0:0:0:0:
184,304,49546,2,0,L|272:304,1,80
360,304,50357,6,0,P|462:272|406:184,1,240,0|8,0:0|0:0,0:0:0:0:
347,185,51654,2,0,B|267:185|267:185|232:112,1,160,0|0,0:0|0:0,0:0:0:0:
104,112,52951,5,4,0:0:0:0:
64,164,53276,2,0,B|18:228|18:228|63:294,1,160,0|8,0:0|0:0,0:0:0:0:
191,295,54573,2,0,B|255:341|255:341|321:295,1,160,0|8,0:0|0:0,0:0:0:0:
372,253,55546,5,4,0:0:0:0:
412,201,55870,2,0,B|347:154|347:154|281:200,1,160,0|8,0:0|0:0,0:0:0:0:
160,244,57168,6,0,L|80:244,1,80,0|8,0:0|0:0,0:0:0:0:
44,192,57816,1,8,0:0:0:0:
80,140,58141,5,4,0:0:0:0:
128,96,58465,2,0,B|193:50|193:50|258:96,1,160,0|8,0:0|0:0,0:0:0:0:
382,132,59762,2,0,B|427:197|427:197|381:262,1,160,0|8,0:0|0:0,0:0:0:0:
328,300,60735,5,4,0:0:0:0:
264,300,61059,2,0,B|198:345|198:345|128:295,1,160,0|8,0:0|0:0,0:0:0:0:
36,212,62357,6,0,L|36:132,1,80,0|8,0:0|0:0,0:0:0:0:
99,132,63005,1,8,0:0:0:0:
152,168,63330,6,0,B|192:128|192:128|232:168|232:168|265:134,1,160,4|0,0:0|0:0,0:0:0:0:
348,40,64627,2,0,B|444:40,2,80,0|8|0,0:0|0:0|0:0,0:0:0:0:
219,40,65924,6,0,P|147:116|234:205,1,240,0|8,0:0|0:0,0:0:0:0:
272,240,67222,2,0,B|328:296|328:296|385:240|385:240|328:183,1,240,0|8,0:0|0:0,0:0:0:0:
328,120,68519,6,0,P|264:80|200:128,1,160,4|8,0:0|0:0,0:0:0:0:
75,126,69816,2,0,P|139:166|203:118,1,160,0|8,0:0|0:0,0:0:0:0:
256,240,71114,5,4,0:0:0:0:
376,192,71762,1,4,0:0:0:0:
256,144,72411,1,4,0:0:0:0:
136,192,73059,1,4,0:0:0:0:
256,192,73708,12,4,75492,0:0:0:0:
68,48,76303,6,0,B|148:48|148:48|184:124,1,160,4|0,0:0|0:0,0:0:0:0:
184,216,77438,2,0,B|240:212|276:180|280:120|280:120|336:120,1,200,0|4,0:0|0:0,0:0:0:0:
444,48,78897,6,0,B|364:48|364:48|328:124,1,160,4|0,0:0|0:0,0:0:0:0:
328,216,80032,2,0,B|272:212|236:180|232:120|232:120|176:120,1,200,0|4,0:0|0:0,0:0:0:0:
56,108,81492,6,0,P|9:171|31:244,1,160,4|0,0:0|0:0,0:0:0:0:
132,324,82789,2,0,P|210:332|262:277,1,160,4|4,0:0|0:0,0:0:0:0:
240,148,84087,2,0,P|292:93|370:101,1,160,4|4,0:0|0:0,0:0:0:0:
448,208,85384,2,0,L|448:128,2,80,8|8|8,0:0|0:0|0:0,0:0:0:0:
448,272,86357,1,0,0:0:0:0:
444,336,86681,6,0,B|364:336|364:336|328:260,1,160,4|0,0:0|0:0,0:0:0:0:
328,168,87816,2,0,B|272:172|236:204|232:264|232:264|176:264,1,200,0|4,0:0|0:0,0:0:0:0:
68,336,89276,6,0,B|148:336|148:336|184:260,1,160,4|0,0:0|0:0,0:0:0:0:
184,168,90411,2,0,B|240:172|276:204|280:264|280:264|336:264,1,200,0|4,0:0|0:0,0:0:0:0:
452,272,91870,6,0,P|412:144|308:120,2,240,4|0|0,0:0|0:0|0:0,0:0:0:0:
320,272,94465,6,0,L|232:272,1,80,0|8,0:0|0:0,0:0:0:0:
180,252,95114,1,8,0:0:0:0:
128,212,95438,1,8,0:0:0:0:
100,156,95762,6,2,P|116:84|256:104,1,240,2|6,0:0|0:0,0:0:0:0:
256,192,97059,12,4,99330,0:0:0:0:
