osu file format v8

[General]
AudioFilename: Sekirei.mp3
AudioLeadIn: 0
PreviewTime: 57271
Countdown: 0
SampleSet: Soft
StackLeniency: 0.7
Mode: 0
LetterboxInBreaks: 1

[Editor]
DistanceSpacing: 1
BeatDivisor: 4
GridSize: 8

[Metadata]
Title:Sekirei
Artist:Sekirei Cast
Creator:KanaRin
Version:Kana
Source:Sekirei
Tags:Joon wmfchris aabc271 karenying saori hayami marina inoue kana hanazawa aya endou musubi tsukiumi matsu kusano

[Difficulty]
HPDrainRate:8
CircleSize:4
OverallDifficulty:7
ApproachRate:8
SliderMultiplier:1.6
SliderTickRate:1

[Events]
//Background and Video events
0,0,"BG.jpg"
//Break Periods
2,13687,15831
2,85039,93669
2,164093,172723
//Storyboard Layer 0 (Background)
//Storyboard Layer 1 (Fail)
//Storyboard Layer 2 (Pass)
//Storyboard Layer 3 (Foreground)
//Storyboard Sound Samples
//Background Colour Transformations
3,100,163,162,255

[TimingPoints]
515,405.405405405405,4,2,1,75,1,0
515,-100,4,2,1,75,0,0
57170,-100,4,2,1,85,0,1
84839,-100,4,2,1,75,0,0
135109,-100,4,2,1,85,0,1
159332,-100,4,2,1,50,0,1
160143,-100,4,2,1,75,0,1
164298,-100,4,2,1,75,0,0
173623,-200,4,2,1,65,0,0
188623,-200,4,2,1,50,0,0
211224,-100,4,2,1,80,0,0
221055,-100,4,2,1,95,0,1
248623,-100,4,2,1,72,0,0

[Colours]
Combo1 : 141,72,174
Combo2 : 40,111,215
Combo3 : 249,128,191
Combo4 : 234,130,53

[HitObjects]
256,192,3960,12,0,6596
96,96,7001,6,0,B|64:136|96:168,1,80,2|0
176,184,7406,2,0,B|208:224|160:280,1,80,2|0
120,320,7812,1,0
120,320,7913,1,0
120,320,8014,1,0
200,320,8217,2,0,B|312:336|344:240,1,160,4|0
416,256,8825,5,0
416,176,9028,1,0
416,96,9231,1,0
376,96,9332,1,0
336,96,9433,2,0,B|336:144,4,40
176,200,10244,5,0
176,200,10447,1,0
240,200,10650,1,0
240,200,10852,1,0
304,200,11055,1,0
304,200,11258,1,0
368,200,11460,1,0
368,200,11663,1,0
200,136,11866,6,4,B|128:208|200:280,1,160,4|0
312,136,12677,2,4,B|376:208|312:280,1,160,4|0
256,192,13487,12,0,15920
56,192,16528,5,0
96,192,16629,1,0
136,192,16731,1,0
216,192,16933,2,0,B|312:192,1,80,2|0
376,200,17339,2,0,B|416:200|440:240,1,80,2|0
392,304,17744,2,0,B|360:336|320:320,1,80,2|0
240,320,18150,2,0,B|152:320,1,80,2|0
160,160,18758,1,4
320,160,19163,1,4
80,160,19771,5,0
160,160,19974,1,2
240,160,20177,2,0,B|280:192|256:248,1,80
256,312,20582,2,0,B|168:312,1,80,0|2
168,232,20987,2,0,B|88:232,1,80,0|2
16,88,21596,1,0
176,88,22001,1,0
336,88,22406,1,0
408,184,22812,6,0,B|432:224,2,40
328,168,23217,2,0,B|368:240,1,80,8|0
288,264,23623,2,0,B|248:192,1,80,8|0
176,224,24028,2,0,B|216:296,1,80,8|0
144,328,24433,2,0,B|104:256,1,80,8|0
56,192,24839,1,0
56,352,25244,1,0
216,352,25650,1,2
280,40,26055,6,0,B|200:200,1,160
208,184,26866,2,0,B|288:328,1,160
440,312,27677,1,0
440,312,27778,1,0
440,312,27879,1,0
440,312,27981,1,0
440,312,28082,1,0
280,312,28487,1,0
120,312,28893,1,0
256,168,29298,6,0,B|256:216,2,40
320,120,29704,2,8,B|256:168|256:168,1,80,8|0
192,120,30109,2,8,B|256:168,1,80,8|0
192,216,30514,2,8,B|256:168|256:168,1,80,8|0
320,216,30919,2,8,B|256:168,1,80,8|0
256,248,31325,6,2,B|255:296,8,40,2|0|2|0|2|0|2|0|2
256,88,32542,1,4
256,248,32947,6,0,B|90:248,1,160
256,248,33758,2,0,B|440:248,1,160
416,88,34569,1,0
256,88,34974,1,0
96,88,35379,1,0
88,248,35785,6,0,B|48:280|88:320,1,80
168,320,36190,1,8
248,320,36393,2,8,B|328:320,1,80,8|0
384,264,36798,2,0,B|416:240|392:192,1,80,8|0
368,112,37204,1,8
312,56,37406,2,8,B|208:56,1,80,8|0
152,56,37812,1,4
264,168,38217,1,4
152,280,38623,1,4
16,192,39028,5,0
96,192,39231,1,0
184,192,39433,2,0,B|184:152,6,40,2|0|2|0|2|0|2
184,272,40244,6,0,B|224:296|256:264,1,80
328,232,40650,2,0,B|368:216|360:160,1,80
376,80,41055,2,0,B|352:40|312:40,1,80
232,56,41460,2,0,B|200:80,4,40,2|0|2|0|2
96,192,42271,5,0
176,192,42474,1,0
256,192,42677,1,0
496,192,43285,5,2
456,192,43386,1,2
416,192,43487,1,2
360,344,43893,5,2
320,344,43995,1,0
280,344,44096,1,2
240,344,44197,1,0
200,344,44299,1,2
192,264,44501,6,0,B|256:216,1,80,2|0
320,264,44906,2,0,B|256:216,1,80,2|0
256,136,45312,2,0,B|256:216,1,80,2|0
168,96,45920,6,0,B|56:256,1,160
328,96,46731,2,0,B|432:240,1,160
256,120,47542,5,0
184,192,47744,1,0
256,272,47947,1,0
328,192,48150,1,0
184,192,48352,5,0
328,192,48555,1,0
184,192,48758,1,0
328,192,48960,1,0
256,312,49163,5,0
256,272,49264,1,0
256,232,49366,1,0
256,152,49569,2,0,B|176:152,1,80,8|0
256,152,49974,2,0,B|344:152,1,80,8|0
176,88,50379,5,4
336,88,50582,1,4
336,168,50785,6,8,B|416:168,1,80,8|0
176,168,51190,2,8,B|80:168|80:168,1,80,8|0
296,240,51596,2,8,B|376:240,1,80,8|0
216,240,52001,2,8,B|120:240|120:240,1,80,8|0
96,312,52406,5,2
136,312,52508,1,0
176,312,52609,1,2
216,312,52710,1,0
256,312,52812,1,2
296,312,52913,1,0
336,312,53014,1,2
416,312,53217,1,0
496,312,53420,6,0,B|496:224,2,80
256,192,54028,12,0,56460
200,192,56866,5,0
240,192,56967,1,0
280,192,57069,1,0
320,192,57170,1,0
360,192,57271,2,0,B|360:96,2,80,8|0|0
360,272,57879,1,0
360,352,58082,1,8
440,352,58285,1,8
360,352,58487,1,8
304,184,58893,5,8
264,184,58994,1,0
224,184,59096,1,0
184,184,59197,1,0
144,184,59298,2,0,B|144:88,2,80,0|0|8
144,264,59906,1,8
144,344,60109,1,8
288,352,60514,6,0,B|376:352,1,80,8|0
328,280,60920,2,0,B|248:280,1,80,2|0
288,208,61325,2,0,B|376:208,1,80,8|0
336,136,61731,2,0,B|248:136,1,80,2|0
176,136,62136,6,0,B|288:136,1,80,8|0
216,208,62542,2,0,B|120:208,1,80,2|0
176,280,62947,2,0,B|264:280,1,80,8|0
216,352,63353,2,0,B|120:352,1,80,8|8
216,352,63758,5,8
312,280,64062,1,0
192,280,64366,2,2,B|152:280,2,40,2|2|10
152,208,64771,1,0
152,208,64974,1,0
232,208,65177,2,2,B|280:208,2,40,2|2|10
352,208,65683,6,0,B|392:240|392:240|448:184,1,120,2|0
440,112,66190,1,8
360,112,66393,2,0,B|256:112,1,80,2|0
336,352,67001,5,8
256,344,67204,2,0,B|224:304|256:272,1,80
256,192,67609,1,0
256,192,67710,1,0
256,192,67812,1,12
216,120,68014,6,0,B|256:192,1,80,2|0
296,120,68420,2,0,B|256:192,1,80,0|8
104,192,68825,2,0,B|208:192,1,80,2|0
408,192,69231,2,0,B|312:192,1,80,0|8
256,152,69636,2,0,B|256:240,1,80,8|8
256,312,70042,5,0
256,312,70143,1,0
256,312,70244,1,8
176,312,70447,6,0,B|280:312,1,80,0|8
336,312,70852,2,0,B|240:312,1,80
256,232,71258,2,0,B|256:152,1,80,0|8
256,72,71663,1,0
328,104,71866,6,0,B|360:64|328:32,1,80
256,72,72272,1,10
184,104,72474,2,0,B|160:64|192:32,1,80
112,32,72879,5,0
112,32,72981,1,0
112,32,73083,1,12
16,192,73487,5,0
136,192,73792,1,0
256,192,74096,1,0
256,192,74298,1,0
256,192,74501,1,0
256,192,74704,6,0,B|304:320|368:168,1,160,10|0
440,192,75312,1,0
440,192,75413,1,0
440,192,75514,1,8
440,272,75717,1,0
360,272,75920,1,0
360,352,76123,2,4,B|256:352,1,80,4|4
256,192,76731,5,8
256,192,77035,1,0
256,192,77339,1,0
184,168,77542,2,0,B|152:200|184:248,1,80,8|0
328,240,77947,2,8,B|352:200|328:160,1,80
256,192,78352,5,4
256,192,78758,1,12
256,192,79163,1,4
192,336,79569,6,0,B|96:336,1,80,8|0
112,256,79974,1,2
112,216,80075,1,2
112,176,80177,1,2
192,176,80379,1,8
272,176,80582,1,0
272,256,80785,5,0
272,336,80987,1,0
352,336,81190,1,10
352,336,81292,1,2
352,336,81393,1,2
352,256,81596,5,4
192,256,82001,1,12
192,96,82406,1,4
352,96,82812,1,4
256,192,83217,12,4,84839
128,40,94366,5,2
160,64,94467,1,2
192,88,94569,2,0,B|224:128|184:160,1,80
112,184,94974,2,0,B|72:216|104:256,1,80
152,320,95379,2,0,B|192:344|248:304,1,80
288,264,95785,1,0
336,200,95987,1,0
368,128,96190,1,0
256,16,96596,5,0
256,16,96697,1,0
256,16,96798,1,0
256,16,96900,1,0
256,16,97001,1,4
96,16,97406,1,4
96,96,97609,5,0
96,136,97710,1,0
96,176,97812,2,0,B|32:248|104:320,1,160
184,320,98420,1,0
264,320,98623,2,0,B|296:352|344:312,1,80
400,272,99028,2,0,B|440:248|416:200,1,80
400,128,99433,1,2
240,128,99838,1,0
80,128,100244,1,0
256,192,100650,6,0,B|256:232,4,40
256,272,101258,1,2
256,352,101460,2,0,B|344:352,1,80,0|2
256,352,101866,2,0,B|160:352,1,80,0|2
112,128,102271,6,0,B|48:200|104:288,1,160
416,128,103081,2,0,B|480:200|408:288,1,160
176,152,103893,6,0,B|176:192|208:248,1,80,2|0
312,152,104298,2,0,B|336:192|344:248,1,80,2|0
96,152,104704,2,0,B|96:192|128:248,1,80,2|0
392,152,105109,2,0,B|416:192|424:248,1,80,2|0
192,192,105514,6,0,B|112:192,1,80,2|0
328,192,105920,2,0,B|408:192,1,80,2|0
256,144,106325,2,4,B|256:256,1,80,2|0
256,304,106731,1,2
56,192,107339,6,2,B|16:192,2,40
136,192,107744,1,0
216,192,107947,1,2
296,192,108150,1,0
376,192,108352,1,2
376,32,108758,1,0
376,32,109163,1,0
197,36,109569,5,2
197,36,109670,1,0
197,36,109771,1,2
197,36,109873,1,0
197,36,109974,1,6
40,36,110379,1,4
120,176,110785,6,0,B|192:248|264:216,1,160
264,216,111393,1,2
264,216,111596,2,0,B|336:200|336:88,1,160
336,88,112204,1,2
336,88,112406,2,0,B|336:40|280:32,4,80
104,16,113825,5,0
104,56,113927,1,0
104,96,114028,2,0,B|104:208,1,80,2|0
24,192,114433,1,0
104,216,114636,2,0,B|104:312,1,80,2|0
104,376,115041,1,0
104,376,115244,1,0
256,320,115650,5,4
256,160,116055,1,4
416,160,116460,1,4
320,352,116866,6,0,B|488:352,1,160
184,32,117677,2,0,B|24:32,1,160
256,192,118487,12,0,119704
392,192,120109,6,0,B|488:192,2,80,2|0|2
312,192,120717,2,0,B|312:296,2,80,0|2|0
232,192,121325,2,0,B|232:96,1,80,2|0
232,32,121731,1,0
152,32,121933,1,2
152,112,122136,1,2
72,112,122339,6,0,B|32:144|64:184,1,80
64,264,122744,1,0
64,344,122947,2,0,B|152:344,1,80,2|0
224,336,123352,2,0,B|256:312|232:264,1,80
232,184,123758,6,0,B|416:184,1,160
232,184,124366,1,0
232,184,124569,2,0,B|192:256,2,80
152,184,125177,1,0
216,40,125582,5,0
296,40,125785,1,0
184,112,125987,1,0
328,112,126190,1,0
152,184,126393,1,0
360,184,126596,1,0
256,120,126798,1,0
256,192,127001,12,8,128217
256,192,128623,12,8,129839
256,192,130244,12,4,134704
448,64,135109,5,8
376,160,135413,1,0
312,56,135717,2,0,B|280:24|240:56,1,80,0|8
160,56,136123,2,0,B|160:8,3,40,2|0|2|0
48,56,136731,5,8
128,144,137035,1,0
48,232,137339,2,0,B|8:264|48:312,1,80,0|8
120,304,137744,2,2,B|184:304,3,40,2|0|2|0
288,320,138352,5,8
416,320,138656,1,0
416,200,138961,1,0
336,200,139163,2,0,B|336:112,1,80,8|0
256,120,139569,2,0,B|256:216,1,80,8|8
176,192,139974,6,0,B|144:280|192:376,2,160,8|0|0
96,192,140987,1,4
96,192,141190,1,4
176,56,141596,5,8
296,56,141900,1,0
416,56,142204,2,0,B|448:96|416:136,1,80,0|8
416,208,142609,1,0
416,288,142812,1,0
336,296,143014,6,0,B|336:360,2,40,0|0|8
256,296,143420,1,0
184,272,143623,2,0,B|144:248|168:192,1,80
184,120,144028,1,8
224,48,144231,2,0,B|248:8|296:40,1,80
408,152,144839,6,0,B|448:176|416:224,4,80,8|0|0|0|8
360,88,145852,1,2
288,56,146055,1,8
216,88,146258,1,2
160,144,146460,1,8
152,224,146663,1,2
168,264,146764,1,0
192,296,146866,1,0
272,320,147069,2,0,B|312:336|368:312,1,80
408,264,147474,5,0
418,225,147575,1,0
414,184,147677,1,0
405,144,147778,1,0
385,109,147879,1,0
304,88,148082,5,8
184,88,148386,1,0
64,88,148690,2,0,B|64:200,1,80,0|8
64,248,149096,2,2,B|128:248,3,40,2|0|2|0
224,248,149704,5,8
344,248,150008,1,0
464,240,150312,2,0,B|504:208|488:168,1,80,0|8
480,88,150717,2,8,B|488:32|432:24,1,80
408,200,151325,6,0,B|344:152|232:200,1,160,8|0
256,192,151933,1,0
256,192,152136,2,0,B|184:240|80:192,1,160,8|0
192,32,152947,6,0,B|248:144|304:24,1,160,8|0
128,32,153555,1,4
360,32,153758,1,12
256,192,153960,2,2,B|256:240,3,40,2|0|2|0
256,192,154569,5,8
256,192,154873,1,0
256,192,155177,1,0
256,112,155379,2,0,B|296:80|344:104,1,80,8|0
408,128,155785,2,0,B|440:168|408:216,1,80
392,280,156190,1,4
232,280,156596,1,4
72,280,157001,1,4
312,48,157406,5,8
232,48,157608,1,0
152,48,157811,1,2
152,48,157912,1,2
152,48,158014,1,2
72,48,158217,2,0,B|32:32|8:80,1,80,8|0
8,160,158623,2,0,B|24:200|80:192,1,80
152,192,159027,1,10
152,192,159129,1,2
152,192,159230,1,2
232,192,159433,5,4
232,32,159839,1,4
232,192,160244,1,4
232,352,160650,1,4
256,192,161055,12,0,164298
200,56,173623,5,2
152,120,174028,2,0,B|120:160|160:208,1,80
216,240,174839,1,2
256,264,175042,1,2
304,272,175245,1,2
352,264,175447,1,0
384,240,175650,1,0
448,176,176055,1,4
256,72,176460,5,2
208,72,176663,1,2
168,72,176866,1,0
128,72,177069,1,0
80,72,177271,2,0,B|80:112|80:152,3,80
80,208,178690,5,0
80,232,178792,1,0
80,256,178893,1,0
80,304,179096,2,0,B|128:304,2,40,2|0|2
80,368,179704,2,0,B|24:368,2,40,0|2|0
192,368,180514,1,4
472,352,180920,6,0,B|392:352,1,80
344,352,181528,1,0
344,312,181731,1,0
344,272,181933,1,0
344,232,182136,1,0
88,160,182542,6,0,B|128:80,1,80
200,88,183352,1,0
280,88,183758,2,0,B|320:160,1,80
320,200,184366,1,0
320,248,184569,2,0,B|232:248,1,80
256,192,185379,12,0,188217
176,192,188623,5,2
120,192,188927,1,2
64,192,189231,2,2,B|8:192,1,40
24,112,189839,1,4
336,192,190244,5,2
392,192,190548,1,2
448,192,190852,2,2,B|496:192,1,40
488,272,191460,1,4
40,336,191866,6,2,B|72:288,1,40
88,272,192271,2,2,B|137:257,1,40
160,240,192677,2,2,B|179:196,1,40
200,168,193082,6,2,B|251:161,1,40
272,136,193487,2,0,B|355:102,1,80
376,80,194096,1,0
408,56,194298,1,0
480,200,194704,1,4
344,272,195109,6,0,B|376:280|400:240,2,60
296,272,195920,2,2,B|240:272|232:216,1,80
184,232,196528,5,2
160,232,196629,1,2
136,232,196731,1,2
80,232,196933,2,0,B|32:232|24:296,1,80
24,336,197542,1,2
136,336,197947,1,4
256,24,198352,6,2,B|232:64|256:104,1,80
280,144,198960,1,2
312,184,199163,2,2,B|336:224|312:264,1,80,0|0
272,288,199771,1,2
224,296,199974,2,0,B|160:320|112:280,1,120
80,240,200785,1,0
48,144,201190,1,4
312,240,201596,6,2,B|312:304|200:304|200:240,1,160,2|2
256,192,202812,1,8
200,136,203217,2,0,B|200:72|312:72|312:144,1,160
256,192,204433,1,8
64,64,204839,5,2
176,64,205244,1,2
288,64,205650,2,2,B|384:64,1,80
368,64,206460,2,2,B|368:160,1,80
368,144,207069,1,8
368,144,207271,2,2,B|312:144,2,40
488,272,208082,6,0,B|488:344,2,60
440,272,208893,1,2
392,272,209096,1,2
352,272,209298,1,2
304,272,209501,1,2
224,272,209704,5,4
88,192,210109,1,4
88,352,210514,1,4
256,192,210920,5,0
256,192,211123,1,0
256,192,211325,1,4
256,352,211731,5,0
256,272,211933,1,0
256,32,212542,5,0
256,112,212744,1,0
256,192,212947,1,4
96,192,213352,5,4
256,192,213758,1,4
416,192,214163,1,4
256,192,214569,1,4
256,192,215177,5,0
256,192,215379,1,0
96,192,215785,5,2
176,192,215987,1,2
256,192,216190,1,6
416,192,216596,5,0
336,192,216798,1,0
256,192,217001,1,4
256,352,217406,1,4
256,192,217812,12,0,220650
64,136,221055,5,8
184,136,221359,1,0
304,136,221663,1,0
384,136,221865,1,8
464,136,222069,2,2,B|424:104,3,40,2|0|2|0
472,224,222677,5,8
352,224,222981,1,0
232,224,223285,1,0
152,224,223487,1,8
72,224,223690,2,2,B|120:264,3,40,2|0|2|0
128,136,224298,6,0,B|224:136,1,80,8|0
384,136,224704,2,0,B|304:136,1,80,2|0
80,208,225109,2,0,B|176:208,1,80,8|0
440,208,225515,2,0,B|360:208,1,80,2|0
184,288,225920,6,0,B|96:288,1,80,8|0
328,288,226325,2,0,B|440:288,1,80,2|0
160,216,226731,2,0,B|56:216,1,80,8|0
360,216,227137,2,0,B|440:216,1,80,8|8
256,216,227542,5,4
160,288,227846,1,0
40,288,228150,2,2,B|0:288,2,40,2|2|8
40,208,228555,5,8
120,208,228758,1,8
200,208,228960,2,0,B|200:168,2,40,2|2|8
320,184,229467,6,0,B|392:200|416:128,1,120,0|2
416,56,229974,1,8
336,56,230177,2,8,B|240:56,1,80,8|8
152,192,230785,6,0,B|256:192,1,80,8|0
312,192,231190,1,0
392,192,231393,1,0
392,192,231494,1,0
392,192,231596,1,12
392,272,231798,6,8,B|296:272,1,80,2|0
344,344,232204,2,0,B|248:344,1,80,2|8
240,272,232609,2,8,B|136:272,1,80,2|0
200,344,233015,2,0,B|104:344,1,80,2|8
88,272,233420,2,8,B|8:272,1,80,8|8
96,144,234028,5,10
216,144,234332,1,0
336,144,234636,2,0,B|432:144,1,80,2|8
416,224,235042,2,2,B|416:280,3,40,2|0|2|0
304,304,235650,6,8,B|216:304,1,80,10|0
144,304,236055,1,0
144,224,236258,2,0,B|144:144,1,80,2|8
144,64,236663,1,4
144,64,236866,1,4
440,192,237271,5,8
320,192,237576,1,0
200,192,237880,1,0
200,192,238082,1,8
200,192,238285,1,0
200,192,238487,6,2,B|184:120|104:120|96:192,1,160,2|2
16,192,239096,1,2
16,192,239197,1,2
16,192,239298,1,2
16,272,239501,1,4
16,272,239704,1,12
16,352,239906,2,0,B|104:352,1,80
256,192,240514,5,8
256,192,240819,1,0
136,184,241123,5,0
184,248,241325,1,8
256,280,241528,1,0
328,248,241730,1,0
376,184,241933,1,0
416,112,242136,5,12
256,112,242542,1,4
96,112,242947,1,12
456,192,243352,5,0
376,192,243555,1,0
296,192,243757,1,10
296,192,243858,1,2
296,192,243960,1,2
216,192,244162,1,0
216,192,244365,1,0
136,192,244568,5,8
136,192,244770,1,0
56,192,244973,1,2
56,192,245075,1,2
56,192,245176,1,2
56,272,245379,5,12
216,272,245785,1,4
376,272,246190,1,12
216,272,246596,1,4
256,192,247001,12,4,248623
