osu file format v9

[General]
AudioFilename: Sekirei ~Pure Engagement~ OP "Hakuyoku no Seiyaku ~Pure Engagement~".mp3
AudioLeadIn: 0
PreviewTime: 53102
Countdown: 0
SampleSet: Soft
StackLeniency: 0.7
Mode: 0
LetterboxInBreaks: 1

[Editor]
DistanceSpacing: 0
BeatDivisor: 2
GridSize: 8

[Metadata]
Title:Hakuyoku no Seiyaku ~Pure Engagement~ (TV Size)
Artist:Sekirei Cast
Creator:Ashikabi
Version:Matsu
Source:Sekirei ~Pure Engagement~
Tags:aniplex seven arcs saori hayami aya endo marina inoue kana hanazawa

[Difficulty]
HPDrainRate:0
CircleSize:3
OverallDifficulty:0
ApproachRate:0
SliderMultiplier:1.4
SliderTickRate:2

[Events]
//Background and Video events
0,0,"sekirei_wp_ac_c.jpg"
Video,0,"Sekirei Pure Engagement OP HD OP2 1080P.flv"
//Break Periods
//Storyboard Layer 0 (Background)
//Storyboard Layer 1 (Fail)
//Storyboard Layer 2 (Pass)
//Storyboard Layer 3 (Foreground)
//Storyboard Sound Samples
//Background Colour Transformations
3,100,163,162,255

[TimingPoints]
936,434.782608695652,4,2,0,84,1,0
53102,-100,4,2,0,84,0,1
66145,-100,4,2,0,84,0,0
67014,-100,4,2,0,84,0,1
87883,-100,4,2,0,84,0,0

[Colours]
Combo1 : 98,255,255
Combo2 : 43,255,149
Combo3 : 120,120,252
Combo4 : 255,121,188
Combo5 : 255,255,138

[HitObjects]
56,120,7892,6,0,B|128:40|384:40|456:128,1,420
448,216,9631,2,0,B|376:296|120:296|48:208,1,420
56,120,11370,6,0,B|128:40|384:40|456:128,1,420
496,184,12892,1,2
496,184,13109,1,2
440,312,13762,1,0
440,312,13979,1,0
256,256,14849,6,0,B|96:248|128:72|320:112,2,280
448,256,17457,6,0,B|448:64|224:64,1,280
136,64,18979,1,8
136,64,19196,1,8
256,192,20066,1,0
360,288,20718,2,2,B|408:248|336:216,1,70
256,152,21588,5,0
320,96,21805,2,0,B|296:48|200:48|168:120,2,140,0|8|0
256,232,23327,1,0
320,288,23544,2,0,B|296:336|200:336|168:264,2,140,0|8|0
480,216,25066,5,0
440,144,25283,2,0,B|440:8|16:8|16:160,1,490
16,216,27022,1,0
136,304,27675,2,2,B|168:360|200:272,1,70
352,240,28762,6,0,B|488:160|336:88,1,210
264,96,29631,2,0,B|128:176|280:248,1,210
352,240,30501,1,0
448,96,31370,6,8,B|256:96,2,140
448,248,32892,1,2
448,328,33109,2,0,B|328:328|232:184|24:336,1,420
0,232,34849,1,4
0,136,35283,1,2
96,136,35718,6,0,B|152:328|288:176|320:40|504:200,1,490
488,280,37457,1,2
400,176,38109,1,0
400,176,38327,1,0
256,128,39196,6,0,B|96:200|280:256|328:336|136:344,2,280
344,240,41588,1,8
344,240,41805,1,8
344,48,42675,6,0,B|72:120|408:160,1,280
344,336,44414,2,0,B|72:264|408:224,2,280
472,272,46805,1,8
472,192,47022,2,0,B|480:40|224:40,1,280
96,40,48762,6,0,B|96:280,1,210
96,328,49631,2,8,B|400:328,2,280
256,96,53109,5,2
472,256,53979,2,8,B|472:320|336:320,2,140
472,136,55283,2,8,B|472:32|344:32,2,140
392,136,56370,1,0
312,136,56588,2,0,B|-8:136,2,280
432,328,60066,5,2
224,328,60935,2,0,B|64:328|64:160,2,210
312,328,62457,1,8
312,328,62675,1,8
232,184,63327,5,0
312,160,63544,2,8,B|264:48|120:112|160:208,2,210
304,288,65283,1,0
456,288,65935,1,4
456,288,66153,1,4
456,104,67022,5,2
256,104,67892,2,0,B|16:104,1,210
8,176,68762,1,8
152,208,69414,1,0
152,288,69631,2,0,B|256:288|256:128,1,210
176,128,70501,2,0,B|24:128|24:328,2,280,2|2|2
472,208,73979,5,2
472,40,74849,2,0,B|32:40,1,420
48,120,76370,1,8
48,120,76588,1,8
200,120,77240,5,0
280,120,77457,2,0,B|280:352,1,210
200,328,78327,2,0,B|40:328,1,140
64,208,79196,5,4
216,208,79849,1,8
216,208,80066,1,8
384,208,80718,1,2
384,208,80935,1,2
256,192,81370,12,2,86153
