osu file format v9

[General]
AudioFilename: Sekirei ~Pure Engagement~ OP "Hakuyoku no Seiyaku ~Pure Engagement~".mp3
AudioLeadIn: 0
PreviewTime: 53102
Countdown: 0
SampleSet: Soft
StackLeniency: 0.7
Mode: 0
LetterboxInBreaks: 1

[Editor]
DistanceSpacing: 0
BeatDivisor: 4
GridSize: 8

[Metadata]
Title:Hakuyoku no Seiyaku ~Pure Engagement~ (TV Size)
Artist:Sekirei Cast
Creator:Ashikabi
Version:Homura
Source:Sekirei ~Pure Engagement~
Tags:aniplex seven arcs saori hayami aya endo marina inoue kana hanazawa

[Difficulty]
HPDrainRate:5
CircleSize:4
OverallDifficulty:5
ApproachRate:5
SliderMultiplier:1.4
SliderTickRate:2

[Events]
//Background and Video events
0,0,"sekirei_wp_ac_c.jpg"
Video,0,"Sekirei Pure Engagement OP HD OP2 1080P.flv"
//Break Periods
//Storyboard Layer 0 (Background)
//Storyboard Layer 1 (Fail)
//Storyboard Layer 2 (Pass)
//Storyboard Layer 3 (Foreground)
//Storyboard Sound Samples
//Background Colour Transformations
3,100,163,162,255

[TimingPoints]
936,434.782608695652,4,2,0,70,1,0
53102,-100,4,2,0,70,0,1
66145,-100,4,2,0,70,0,0
67014,-100,4,2,0,70,0,1
87883,-100,4,2,0,70,0,0

[Colours]
Combo1 : 98,255,255
Combo2 : 43,255,149
Combo3 : 120,120,252
Combo4 : 255,121,188
Combo5 : 255,255,138

[HitObjects]
56,144,7892,1,2
128,240,8327,1,2
200,144,8762,1,2
312,304,9414,5,0
312,304,9631,1,2
424,304,10066,1,0
424,200,10501,1,2
288,64,11370,5,0
216,144,11805,1,0
136,224,12240,1,2
88,304,12566,1,2
176,328,12892,1,2
256,328,13109,2,0,B|464:328,1,210
466,328,13979,1,0
480,104,14849,6,0,B|480:184|400:192,1,105
336,192,15501,1,0
304,112,15718,2,0,B|232:112|240:192,1,105
240,272,16370,1,2
240,272,16588,1,2
48,344,17457,6,0,B|48:208,1,105
48,144,18109,1,0
104,80,18327,2,0,B|136:16|248:16|280:80,1,210
279,79,19196,1,0
128,248,20066,6,0,B|128:304|184:304,1,70
288,304,20718,1,8
288,304,20935,1,8
336,144,21588,5,2
336,144,21805,1,2
336,32,22240,2,2,B|440:32|440:136,1,140
432,248,23327,1,0
432,248,23544,2,0,B|432:344|320:344,1,140
248,264,24414,1,2
96,264,25066,5,0
96,264,25283,2,0,B|96:179|189:179,1,140
272,264,26153,1,2
384,192,26479,1,2
480,88,26805,1,0
480,88,27022,2,0,B|434:28|343:28|300:98,1,210
301,95,27892,1,2
304,304,28762,5,2
216,304,29088,1,2
128,304,29414,1,2
40,304,29631,2,0,B|-16:208|40:96,1,210
36,102,30501,1,0
288,104,31370,6,2,B|400:208,1,140
390,199,32022,1,2
384,288,32240,2,0,B|216:136,1,210
228,147,33109,1,0
128,80,33544,1,0
32,152,33979,1,4
32,272,34414,1,4
128,352,34849,1,4
224,272,35283,1,2
328,352,35718,6,0,B|488:352|488:192,1,245
488,120,36805,1,0
488,120,37022,2,0,B|488:16|384:16,1,140
256,112,38109,1,8
256,112,38327,1,8
256,288,39196,6,0,B|192:352|64:352|0:288,1,280
0,288,40283,1,2
0,288,40501,1,2
0,288,40718,1,2
56,224,40935,2,0,B|88:136|176:136|208:224,1,210
206,219,41805,1,2
192,80,42675,6,0,B|316:153,1,140
384,200,43327,2,8,B|392:216|384:232,1,35
200,272,44414,6,0,B|24:272|24:96,1,280
24,101,45501,1,2
24,101,45718,1,2
24,101,45935,1,2
88,40,46153,2,0,B|240:40,1,140
228,40,46805,1,2
228,40,47022,1,2
320,144,47892,1,4
232,224,48327,1,4
320,304,48762,6,0,B|472:160,1,210
472,159,49631,1,0
392,72,50501,2,0,B|352:32|144:32|120:88,1,280
256,192,51805,12,2,52675
360,96,53109,6,2,B|432:152|352:216,1,140
296,312,53979,2,0,B|248:368|208:312,1,105
128,272,54631,1,0
72,208,54849,2,2,B|16:152|72:96,1,105
128,56,55501,1,0
208,40,55718,2,0,B|256:0|304:40,1,105
376,96,56370,1,0
440,152,56588,2,2,B|488:216|440:288,3,140
336,336,58327,1,2
216,320,58762,2,8,B|176:320|176:272,2,70
304,240,59631,1,4
248,136,60066,6,2,B|112:216,1,140
24,264,60935,1,0
32,352,61262,1,2
120,352,61588,1,2
208,352,61805,2,0,B|416:352,1,210
418,352,62675,1,2
344,88,63327,5,0
344,88,63544,2,2,B|304:8|264:104,1,105
271,179,64196,1,0
256,264,64414,2,2,B|209:366|167:266,1,140
56,224,65283,1,2
56,56,65935,1,2
56,56,66153,1,2
192,272,67022,6,2,B|272:320|368:248,1,140
440,328,67892,2,0,B|488:232|440:112,1,210
444,124,68762,1,0
272,64,69414,1,0
272,64,69631,2,2,B|240:24|168:24|144:72,2,140
256,200,70935,2,8,B|256:288|152:288,1,140
32,288,71805,2,8,B|32:200|120:200,1,140
200,288,72675,1,2
200,288,72892,1,2
200,288,73109,1,2
272,200,73544,1,4
352,288,73979,6,2,B|416:352|496:280,1,140
416,184,74849,2,2,B|416:40|280:40,1,210
297,40,75718,1,2
208,40,76044,1,2
144,104,76370,1,4
144,104,76588,1,4
120,272,77240,5,2
120,272,77457,1,2
184,336,77783,1,2
272,336,78109,1,2
360,336,78327,2,0,B|512:336,1,140
432,224,79196,1,4
432,80,79849,1,8
432,80,80066,1,8
256,24,80718,1,8
256,24,80935,1,8
256,152,81370,5,0
336,240,81805,1,0
256,328,82240,1,0
184,240,82675,1,0
256,192,83109,12,2,86153
