osu file format v7

[General]
AudioFilename: Time to Donald.mp3
AudioLeadIn: 1985
PreviewTime: 39038
Countdown: 0
SampleSet: Normal
StackLeniency: 0.7
Mode: 0
LetterboxInBreaks: 0

[Editor]
Bookmarks: 61656
DistanceSpacing: 1.20000004768372
BeatDivisor: 4
GridSize: 8

[Metadata]
Title:Time to Donald
Artist:Seiryu X Donald
Creator:James
Version:Normal
Source:
Tags:Lesjuh

[Difficulty]
HPDrainRate:3
CircleSize:3
OverallDifficulty:5
SliderMultiplier:0.8
SliderTickRate:1

[Events]
//Background and Video events
0,0,"lovin.png"
Video,0,"smile.flv"
//Break Periods
2,30435,34061
2,60592,64218
//Storyboard Layer 0 (Background)
//Storyboard Layer 1 (Fail)
//Storyboard Layer 2 (Pass)
//Storyboard Layer 3 (Foreground)
//Storyboard Sound Samples
//Background Colour Transformations
3,100,0,0,0

[TimingPoints]
78,314.13612565445,4,1,0,100,1,0

[Colours]
Combo1 : 255,255,0
Combo2 : 255,0,0

[HitObjects]
56,80,78,1,0
56,80,392,1,0
56,80,706,1,0
56,80,1020,2,0,B|464:80,1,400
408,168,2905,1,0
312,168,3219,1,0
216,168,3533,1,0
120,168,3847,2,0,B|96:256,3,80
72,336,5104,5,0
72,336,5418,1,0
72,336,5732,1,0
72,336,6046,2,0,B|408:336,1,320
392,336,7617,1,0
256,192,7931,12,0,10130
136,88,10758,6,0,B|312:88,1,160
344,176,11701,1,0
392,264,12015,1,0
312,312,12329,1,0
256,232,12643,6,0,B|88:232,2,160
352,232,14214,1,0
392,144,14528,1,0
312,96,14842,1,0
272,184,15156,6,0,B|96:184,2,160
368,184,16727,1,0
424,264,17041,1,0
368,344,17355,1,0
272,344,17669,6,0,B|176:344,1,80
96,344,18297,2,0,B|0:344,2,80
128,136,20182,6,0,B|224:136,1,80,0|8
304,136,20810,1,0
400,136,21125,2,8,B|408:192,1,40
416,224,21439,2,0,B|328:248,1,80,0|8
248,264,22067,1,0
152,280,22382,2,8,B|144:224,1,40
136,192,22696,2,0,B|224:168,1,80,0|8
296,216,23324,1,0
224,280,23639,2,8,B|232:336,1,40
280,320,23953,2,0,B|368:320,4,80,0|0|0|0|4
216,248,25523,5,8
272,168,25837,1,0
200,104,26151,1,8
272,40,26465,1,0
360,80,26779,2,0,B|456:80,1,80,8|0
400,168,27407,2,0,B|400:216,2,40,8|8|0
352,184,27879,6,0,B|264:184,1,80
224,272,28507,2,0,B|320:272,1,80
272,184,29135,2,0,B|200:128,1,80
192,232,29763,2,0,B|264:288,1,80
255,281,30235,1,0
416,264,35261,5,0
336,320,35575,1,0
240,312,35889,1,0
160,256,36203,1,0
136,160,36517,1,0
168,72,36831,1,0
248,24,37146,1,0
344,192,37774,5,0
248,192,38088,1,0
152,192,38402,1,0
88,264,38716,1,0
32,344,39030,1,0
448,336,40287,6,0,B|352:336,1,80,0|8
320,336,40758,2,0,B|336:248,1,80
344,208,41229,1,8
248,184,41543,2,0,B|240:240,1,40,8|0
232,272,41858,2,0,B|104:272,1,120,8|0
64,272,42486,2,0,B|64:176,1,80,8|0
152,144,43114,2,0,B|152:200,1,40,8|0
248,160,43585,1,0
248,208,43742,2,8,B|248:304,1,80,8|8
248,336,44214,2,0,B|304:336,1,40,0|8
320,192,44842,6,0,B|272:192,2,40
368,192,45313,2,0,B|392:280,1,80,4|8
400,312,45784,1,0
304,312,46098,1,0
256,312,46256,2,0,B|160:312,1,80,8|8
160,272,46727,1,0
144,224,46884,1,8
280,176,47355,6,0,B|296:224,1,40,0|8
392,216,47826,1,0
360,128,48140,2,0,B|344:80,1,40,8|0
248,88,48612,2,0,B|192:88,1,40,0|8
232,184,49083,2,0,B|312:184,2,60
184,184,49711,2,0,B|176:224,1,40
136,360,50339,5,0
232,360,50653,1,0
328,360,50968,1,0
424,360,51282,1,0
376,280,51596,2,0,B|288:280,3,80
328,192,52852,1,0
232,192,53167,1,0
280,104,53481,1,0
376,104,53795,1,0
472,104,54109,2,0,B|472:152,8,40
376,128,55680,5,0
280,144,55994,2,0,B|280:168,8,20
88,168,57250,6,0,B|88:184,16,10
208,80,58350,5,0
208,80,58507,1,0
256,216,58978,1,0
256,216,59135,1,0
296,304,59449,1,0
208,336,59763,1,0
168,248,60077,1,0
256,216,60392,1,4
112,96,65418,6,0,B|208:96,2,80,8|8|0
88,136,66203,2,0,B|56:216,1,80,8|0
104,216,66674,2,0,B|192:232,1,80,8|8
200,136,67303,1,0
248,136,67460,2,0,B|304:56,1,80,8|0
344,72,67931,2,0,B|432:72,2,80,8|8|0
360,120,68716,2,0,B|384:216,1,80,8|0
392,240,69187,1,0
304,280,69502,1,0
216,248,69816,1,0
128,288,70130,1,0
32,264,70444,6,0,B|32:176,2,80,8|8|0
32,312,71229,2,0,B|120:312,1,80,8|0
160,312,71700,2,0,B|248:312,1,80,8|8
336,312,72329,1,0
336,264,72486,2,0,B|392:184,1,80,8|0
392,152,72957,2,0,B|480:152,2,80,8|8|0
344,152,73742,2,0,B|248:152,1,80,8|0
216,152,74213,1,0
128,184,74528,1,0
184,256,74842,1,0
96,288,75156,1,0
96,288,75470,5,4
256,320,76727,1,4
416,288,77983,5,0
384,200,78297,1,0
344,112,78612,1,0
248,128,78926,1,0
152,152,79240,1,0
64,184,79554,1,0
64,280,79868,1,0
64,280,80025,1,0
64,280,80182,1,0
256,192,80496,12,0,81753
160,120,82224,5,4
160,120,82381,1,0
256,120,82695,1,0
352,120,83009,1,0
304,256,83481,1,0
304,256,83638,1,0
208,256,83952,1,0
112,256,84266,1,0
160,176,84580,5,0
256,176,84894,1,0
352,176,85208,1,0
448,176,85523,2,0,B|480:264,3,80
464,344,86779,6,0,B|336:344,1,120,4|0
296,344,87407,1,0
200,344,87721,1,0
104,344,88036,2,0,B|56:224,1,120
96,208,88664,1,0
184,168,88978,1,0
224,256,89292,5,0
136,296,89606,1,0
96,208,89920,1,0
184,168,90235,1,0
224,256,90549,2,0,B|296:256,2,60
176,256,91177,2,0,B|168:304,3,40
160,344,91805,6,0,B|496:344,2,320,4|0|0
184,248,94632,1,0
280,248,94947,1,0
376,248,95261,1,0
472,248,95575,2,0,B|488:152,3,80
448,80,96831,6,0,B|112:80,2,320,4|0|0
496,160,99659,1,0
416,216,99973,1,0
480,288,100287,1,0
408,344,100601,1,0
64,328,101858,5,0
256,328,102486,1,0
448,328,103114,1,0
256,328,103742,1,0
64,328,104371,5,0
40,232,104685,1,0
64,136,104999,1,0
144,80,105313,1,0
240,96,105627,1,0
280,184,105941,1,0
256,280,106256,1,0
328,344,106570,1,0
424,320,106884,1,0
416,128,107512,6,0,B|416:152,8,20
224,160,108769,6,0,B|224:184,8,20
80,184,109868,5,0
80,184,110025,1,0
72,328,110496,1,0
72,328,110653,1,0
168,328,110968,1,0
264,328,111282,1,0
360,328,111596,1,0
456,328,111910,1,0
