osu file format v7

[General]
AudioFilename: Time to Donald.mp3
AudioLeadIn: 1985
PreviewTime: 39038
Countdown: 0
SampleSet: Normal
StackLeniency: 0.3
Mode: 0
LetterboxInBreaks: 0

[Editor]
Bookmarks: 10130,15156,20182,61656,65418,81753,91805,101858
DistanceSpacing: 0.5
BeatDivisor: 4
GridSize: 8

[Metadata]
Title:Time to Donald
Artist:Seiryu X Donald
Creator:James
Version:Hyper
Source:
Tags:Lesjuh

[Difficulty]
HPDrainRate:2
CircleSize:3
OverallDifficulty:6
SliderMultiplier:1.6
SliderTickRate:0.5

[Events]
//Background and Video events
0,0,"lovin.png"
Video,0,"smile.flv"
//Break Periods
2,60277,64368
//Storyboard Layer 0 (Background)
//Storyboard Layer 1 (Fail)
//Storyboard Layer 2 (Pass)
//Storyboard Layer 3 (Foreground)
//Storyboard Sound Samples
//Background Colour Transformations
3,100,0,0,0

[TimingPoints]
78,314.13612565445,4,1,0,90,1,0
19318,-50,4,1,0,90,0,0
20104,-100,4,1,0,50,0,0
20732,-100,4,1,0,90,0,0
21360,-100,4,1,0,50,0,0
21988,-100,4,1,0,90,0,0
22617,-100,4,1,0,90,0,0
30156,-100,4,2,0,70,0,0
34554,-100,4,1,0,40,0,0
34947,-100,4,1,0,80,0,0
35261,-100,4,1,0,91,0,0
47198,-100,4,1,0,100,0,0
50339,-100,4,1,0,100,0,0
59292,-100,4,2,0,70,0,0
64790,-200,4,2,0,70,0,0
70444,-100,4,1,0,100,0,0
80339,-50,4,1,0,100,0,0
81282,-100,4,1,0,100,0,0
110653,-100,4,1,0,100,0,0
112067,-100,4,1,0,0,0,0

[Colours]
Combo1 : 255,255,0
Combo2 : 255,0,0

[HitObjects]
56,72,78,2,0,B|176:72,1,80,4|0
56,208,549,1,0
136,208,706,2,0,B|264:208,1,120
456,312,1177,1,0
456,312,1334,6,0,B|336:312,1,80,4|0
456,176,1805,1,0
376,176,1962,2,0,B|264:176,1,80,0|0
216,176,2276,2,0,B|168:224,2,40
256,104,2591,5,8
176,104,2748,2,0,B|72:104,1,80,0|8
40,160,3062,1,0
40,240,3219,2,0,B|40:304,2,40
416,264,3690,2,0,B|416:328,2,40
416,104,4161,2,0,B|416:-8,1,80
344,64,4475,2,0,B|344:168,2,80
344,224,5104,6,4,B|176:224,1,160,4|8
112,192,5575,2,0,B|216:192,1,80,0|8
264,160,5889,2,0,B|144:160,1,80,0|8
104,160,6203,1,0
176,128,6360,6,0,B|352:128,1,160,4|8
408,160,6831,2,0,B|312:160,1,80,0|8
256,192,7146,2,0,B|344:192,1,80,0|8
432,312,7617,5,0
352,312,7774,2,4,B|232:312,1,80,0|4
192,312,8088,1,0
152,312,8245,1,0
112,312,8402,1,0
72,312,8559,1,0
32,312,8716,1,0
256,192,8873,12,0,10130
176,64,10444,5,0
48,160,10758,1,0
144,288,11072,1,0
272,200,11386,2,0,B|352:144,3,80
408,183,12015,2,0,B|343:229,4,40
336,312,12643,6,0,B|152:312,1,160,0|0
96,312,13114,2,0,B|16:272,1,80
96,240,13428,2,0,C|192:200,1,80
240,176,13742,1,0
312,144,13899,2,0,B|312:32,2,80
392,144,14371,1,0
472,144,14528,2,0,B|472:40,2,80
472,304,15156,5,0
472,304,15313,1,0
392,288,15470,2,0,B|312:328,1,80
272,256,15784,1,0
272,256,15941,1,0
200,296,16098,2,0,B|88:288,1,80
56,248,16413,6,0,B|16:168,1,80
96,160,16727,2,0,B|120:64,1,80
176,128,17041,2,0,B|224:40,1,80
272,112,17355,2,0,B|344:56,1,80
416,64,17669,5,0
432,144,17826,1,0
432,144,17983,2,0,B|456:248,1,80
368,224,18297,5,0
288,224,18454,1,0
288,224,18612,2,0,B|264:120,1,80
192,136,18926,5,0
152,64,19083,2,0,B|136:0,2,40
152,64,19397,2,0,B|16:16|88:152,4,160
232,64,20182,6,0,B|328:96,1,80
384,112,20496,2,0,B|480:144,1,80,0|0
384,168,20810,2,0,B|308:194,1,80
232,217,21125,2,0,B|156:242,1,80,0|0
80,272,21439,2,0,B|155:297,1,80
232,320,21753,2,0,B|307:345,1,80,0|0
384,368,22067,2,0,B|432:280,1,80
464,232,22381,2,0,B|504:144,1,80
416,136,22695,6,0,B|400:24,3,80
328,80,23324,2,0,B|224:16,3,80
192,80,23952,2,0,B|64:48,1,80
112,176,24266,2,0,B|240:144,1,80
192,272,24580,2,0,B|64:240,1,80
112,360,24894,2,0,B|240:328,1,80
264,320,25208,6,0,C|344:288|384:208,1,160,4|0
296,200,25680,2,0,C|296:152|328:112,1,80
392,144,25994,2,0,C|392:96|360:56,1,80
304,24,26308,1,0
248,80,26465,2,0,C|208:152|224:256,1,160,4|0
240,304,26936,2,0,C|208:336|168:328,1,80
96,304,27250,2,0,C|64:280|16:312,1,80
16,224,27564,1,0
32,144,27721,6,0,C|64:168|104:136,1,80,4|0
160,192,28036,2,0,C|192:168|232:200,1,80
288,144,28350,2,0,C|320:168|360:136,1,80,4|0
416,192,28664,2,0,C|448:168|488:200,1,80
480,272,28978,6,0,C|400:352,1,80,4|0
344,328,29292,2,0,C|272:256,1,80
208,272,29606,2,0,C|128:352,1,80
72,328,29920,2,0,C|0:256,1,80
256,48,30549,5,2
256,48,30706,1,2
336,336,31177,1,2
160,112,31805,1,2
160,112,31962,1,2
392,232,32434,1,2
128,224,33062,1,2
128,224,33219,1,2
352,112,33690,1,2
184,336,34318,1,2
184,336,34475,1,2
256,304,34632,6,0,C|256:232,7,40
256,304,35261,6,0,C|256:352,2,40
336,304,35575,2,0,C|376:344,2,40,0|0|0
176,304,35889,2,0,C|136:344,2,40,0|0|0
256,224,36203,2,0,C|256:160,2,40
336,224,36517,5,0
176,224,36831,1,0
256,112,37146,1,0
256,112,37774,6,0,C|256:40,2,40
176,224,38088,2,0,C|120:280,2,40
336,224,38402,2,0,C|368:256,2,40
256,272,38716,2,0,C|256:344,2,40
176,224,39030,6,0,C|200:96|256:184|312:96|336:240,1,480,4|0
432,352,40287,5,0
472,280,40444,2,0,B|496:224|464:168,1,80,0|8
424,144,40758,1,0
424,144,41072,5,0
368,200,41229,2,0,B|304:272|216:232,1,160,8|0
152,200,41701,1,0
112,128,41858,1,8
112,128,42329,5,0
176,80,42486,2,0,B|224:48|272:80,1,80,8|0
328,80,42800,2,0,B|384:80|408:136,1,80
432,184,43114,1,8
448,264,43271,1,0
448,264,43585,5,0
368,240,43742,2,0,B|288:200|184:240,1,160,8|0
136,256,44214,1,0
72,304,44371,1,8
72,304,44842,6,0,B|144:368,2,80,0|8|0
32,232,45313,6,0,B|120:160,1,80,8|0
152,128,45627,2,0,B|96:56,1,80,8|0
176,24,45941,1,8
248,64,46098,2,8,B|240:176,2,80,0|8|0
320,32,46570,2,0,B|368:120,1,80,8|0
392,176,46884,2,0,B|320:240,1,80,8|0
256,264,47198,1,8
176,232,47355,2,8,B|104:160,2,80,0|8|0
256,176,47826,5,0
256,176,48454,1,0
256,176,48769,1,0
200,104,49083,6,0,B|240:72|272:72|312:104,2,120
256,176,49711,1,0
256,176,49868,1,0
104,272,50339,6,0,B|48:200|88:96,1,160,4|0
152,152,50810,2,0,B|184:192|152:256,1,80
240,256,51125,2,0,B|208:216|240:160,1,80
264,104,51439,1,0
320,48,51596,6,0,B|400:96|392:208,1,160,4|0
312,192,52067,2,0,B|320:248|376:264,1,80
304,312,52381,2,0,B|256:280|208:320,1,80
152,328,52695,1,0
72,344,52852,6,0,B|96:304|32:328|48:272,3,80
112,240,53481,2,0,B|136:200|72:224|88:168,3,80,0|0|0|0
152,136,54109,2,0,B|176:96|112:120|128:64,3,80,0|0|0|0
200,40,54737,2,0,B|240:64|216:0|272:16,3,80,0|0|0|0
344,32,55365,1,0
256,304,55994,6,0,B|256:368,7,40
256,80,57250,6,0,B|256:0,8,40
40,192,58350,1,0
88,256,58507,1,0
312,336,58978,1,0
352,264,59135,1,0
256,136,59449,5,4
160,32,59763,1,4
352,32,60077,1,4
163,41,65418,6,0,B|231:69,1,40,2|0
199,56,65732,2,0,B|267:89,1,40,2|0
234,73,66046,2,0,B|291:97,1,40,0|2
270,88,66360,2,0,B|331:113,1,40
339,121,66674,6,0,B|271:149,1,40,2|0
303,136,66988,2,0,B|235:169,1,40,2|0
268,153,67302,2,0,B|211:177,1,40,0|2
232,168,67616,2,0,B|171:193,1,40
163,201,67931,6,0,B|231:229,1,40,2|0
199,216,68245,2,0,B|267:249,1,40,2|0
234,233,68559,2,0,B|291:257,1,40,0|2
270,248,68873,2,0,B|331:273,1,40
339,281,69187,6,0,B|271:309,1,40,2|0
303,296,69501,2,0,B|235:329,1,40,2|0
268,313,69815,2,0,B|211:337,1,40,0|2
232,328,70129,2,0,B|171:353,1,40
112,344,70444,6,0,B|112:160,1,160,4|0
112,104,70915,2,0,B|216:104,1,80
192,184,71229,2,0,B|192:248,1,40
272,344,71543,5,0
272,264,71701,2,0,B|272:168,1,80
432,184,72172,2,0,B|432:280,1,80
432,344,72486,2,0,B|432:392,4,40
352,344,72957,5,0
352,264,73114,2,0,B|352:72,1,160
272,104,73585,2,0,B|272:32,2,40
272,264,74057,6,0,B|272:312,2,40
112,264,74528,2,0,B|112:72,1,160
192,104,74999,2,0,B|192:200,1,80
256,328,75470,5,4
256,192,75549,12,4,76727
256,192,76805,12,4,77983
256,192,78297,5,4
256,192,78612,1,4
256,192,78926,1,4
256,192,79240,1,4
256,192,79554,1,4
256,192,79868,5,0
256,192,80025,1,0
256,192,80182,1,0
256,192,80496,6,0,C|224:224|256:256|288:224|256:192,4,160
328,64,81753,6,0,B|256:8|152:48,1,160,4|0
208,112,82224,2,0,B|248:144|312:112,1,80
312,200,82539,2,0,B|272:168|216:200,1,80
160,224,82853,1,0
104,280,83010,6,0,B|152:360|264:352,1,160,4|0
248,272,83481,2,0,B|304:280|320:336,1,80
368,264,83795,2,0,B|336:216|376:168,1,80
384,112,84109,1,0
456,152,84266,6,0,B|496:240|440:328,1,160,4|0
384,352,84737,2,0,B|344:320|280:368,1,80
248,296,85051,2,0,B|208:328|144:280,1,80
104,344,85365,1,0
32,304,85523,6,0,B|32:248|96:232,1,80,4|0
144,208,85837,2,0,B|136:112|32:88,1,160,4|0
88,24,86308,2,0,B|128:56|184:40,2,80
49,92,86779,6,0,B|136:112|144:208,1,160,4|0
224,200,87250,2,0,B|224:152|192:96,1,80
287,103,87564,2,0,B|306:133|306:181,1,80
304,264,87879,1,0
384,280,88036,6,0,B|408:192|368:88,1,160,4|0
352,48,88507,2,0,B|448:24,1,80
464,104,88821,2,0,B|480:160|480:208,1,80
480,264,89135,1,0
480,344,89292,6,0,B|400:376|288:344,1,160,4|0
322,352,89763,2,0,B|264:336|216:360,1,80
242,349,90077,2,0,B|256:240,1,80
264,192,90392,1,0
280,112,90549,6,0,B|296:-24,2,120
264,192,91177,1,0
264,192,91334,1,0
48,120,91805,5,0
72,144,91962,1,0
128,200,92119,2,0,B|208:120,1,80
240,88,92434,5,0
264,112,92591,1,0
320,168,92748,2,0,B|263:224,1,80
200,288,93062,5,0
224,312,93219,1,0
288,360,93376,2,0,B|368:280,1,80
400,240,93690,5,0
424,216,93847,1,0
472,152,94004,2,0,B|408:88,1,80
352,40,94318,5,0
328,64,94475,1,0
272,120,94632,2,0,B|192:40,1,80
152,120,94947,5,0
128,144,95104,1,0
64,200,95261,2,0,B|144:280,1,80
200,256,95575,6,0,B|176:368,3,80
264,336,96203,2,0,B|280:240,3,80
360,256,96831,6,0,C|384:288|408:248,1,80
440,184,97146,2,0,C|464:216|488:176,1,80,0|0
480,104,97460,2,0,C|456:136|432:96,1,80,0|0
368,56,97775,2,0,C|344:88|320:48,1,80,0|0
248,88,98088,2,0,C|224:56|200:96,1,80,0|0
168,160,98402,2,0,C|144:128|120:168,1,80,0|0
120,240,98716,2,0,C|144:272|168:232,1,80,0|0
232,280,99030,2,0,C|256:312|280:272,1,80,0|0
280,200,99345,6,0,C|304:168|328:208,3,80,0|0|0|0
344,280,99973,2,0,C|368:312|392:272,3,80,0|0|0|0
384,200,100601,6,0,B|384:40|296:40|264:136|264:136|240:40|152:40|152:208,1,480,4|0
48,296,101858,5,0
48,296,102015,1,0
48,296,102172,1,0
48,296,102329,1,0
120,320,102486,2,0,B|200:352,1,80
272,352,102800,2,0,B|360:320,1,80
416,288,103114,5,0
416,288,103271,1,0
416,288,103428,1,0
416,288,103585,1,0
400,208,103742,2,0,B|384:112,1,80
320,168,104057,2,0,B|304:48,1,80
256,32,104371,5,0
256,32,104528,1,0
256,32,104685,1,0
256,32,104842,1,0
200,88,104999,2,0,B|190:168,1,80
120,128,105314,2,0,B|106:207,1,80
96,288,105628,5,0
96,288,105785,1,0
96,288,105942,1,0
96,288,106099,1,0
168,312,106256,2,0,B|256:344,1,80
296,280,106570,2,0,B|208:248,1,80
280,200,106884,1,0
80,192,107512,6,0,B|32:192,8,40
432,192,108769,6,0,B|480:192,8,40
352,192,109554,1,0
320,216,109711,1,0
288,192,109868,1,0
256,216,110025,1,0
224,192,110182,1,0
192,216,110339,1,0
160,192,110496,1,0
128,216,110653,6,0,B|96:272,2,40
104,184,110968,6,0,B|88:112,2,40
80,216,111282,6,0,B|48:272,2,40
56,184,111596,6,0,B|32:120,2,40
256,192,111910,12,0,114109
