osu file format v7

[General]
AudioFilename: Time to Donald.mp3
AudioLeadIn: 1985
PreviewTime: 39038
Countdown: 0
SampleSet: Normal
StackLeniency: 0.7
Mode: 0
LetterboxInBreaks: 0

[Editor]
Bookmarks: 61656
DistanceSpacing: 2
BeatDivisor: 4
GridSize: 8

[Metadata]
Title:Time to Donald
Artist:Seiryu X Donald
Creator:James
Version:Beginner
Source:
Tags:Lesjuh

[Difficulty]
HPDrainRate:2
CircleSize:3
OverallDifficulty:3
SliderMultiplier:0.5
SliderTickRate:1

[Events]
//Background and Video events
0,0,"lovin.png"
Video,0,"smile.flv"
//Break Periods
2,30434,33821
2,60591,63978
//Storyboard Layer 0 (Background)
//Storyboard Layer 1 (Fail)
//Storyboard Layer 2 (Pass)
//Storyboard Layer 3 (Foreground)
//Storyboard Sound Samples
//Background Colour Transformations
3,100,0,0,0

[TimingPoints]
78,314.13612565445,4,1,0,100,1,0

[Colours]
Combo1 : 255,255,0
Combo2 : 255,0,0

[HitObjects]
128,120,78,2,0,B|336:120,3,200
280,208,4161,1,0
184,208,4475,1,0
88,208,4790,1,0
136,296,5104,6,0,B|344:296,3,200
336,296,10130,5,0
136,272,10758,2,0,B|136:328,2,50
336,232,12015,2,0,B|336:288,2,50
160,144,13271,6,0,B|160:200,1,50
256,168,13899,2,0,B|256:224,1,50
352,184,14528,2,0,B|352:240,1,50
448,208,15156,6,0,B|448:368,1,150
352,328,16413,2,0,B|352:168,1,150
256,200,17669,2,0,B|256:256,4,50
208,56,20182,6,0,B|96:56,3,100
304,104,22695,2,0,B|416:104,3,100
208,160,25208,2,0,B|96:160,3,100
304,192,27721,6,0,B|304:224,1,25
200,224,28193,2,0,B|200:280,5,50
104,280,30077,2,0,B|104:312,1,25
48,144,35261,5,0
120,72,35575,1,0
192,144,35889,1,0
256,72,36203,1,0
320,144,36517,1,0
392,72,36831,1,0
464,144,37146,1,0
448,336,37774,5,0
352,336,38088,1,0
256,336,38402,1,0
160,336,38716,1,0
64,336,39030,1,0
48,48,40287,6,0,B|160:48,1,100
344,48,41543,2,0,B|400:48,1,50
464,344,42800,2,0,B|352:344,1,100
160,344,44057,2,0,B|104:344,1,50
104,120,45313,6,0,B|216:120,1,100
352,120,46570,2,0,B|408:120,1,50
408,264,47826,2,0,B|304:264,1,100
160,264,49083,2,0,B|104:264,3,50
120,168,50339,6,0,B|328:168,2,200
160,264,53167,1,0
256,264,53481,1,0
352,264,53795,1,0
448,264,54109,2,0,B|448:320,4,50
256,200,55994,6,0,B|256:224,8,12.5
72,128,57250,6,0,B|72:136,16,6.25
272,128,58507,5,0
472,128,59135,2,0,B|472:336,1,200
56,56,65418,6,0,B|208:96,1,150
200,192,66674,2,0,B|360:192,1,150
448,192,67931,6,0,B|312:264,1,150
312,360,69187,2,0,B|152:360,1,150
64,360,70444,6,0,B|8:360,3,50,0|0|0|0
56,264,71701,2,0,B|112:264,3,50
96,168,72957,2,0,B|152:168,3,50
128,72,74214,2,0,B|184:72,3,50
280,72,75470,5,0
232,312,76727,1,0
256,192,77983,12,0,80182
88,56,81753,6,0,B|192:72,1,100
288,88,82695,1,0
384,104,83009,2,0,B|288:160,1,100
208,200,83952,1,0
208,296,84266,6,0,B|96:296,1,100
152,208,85208,1,0
256,208,85523,2,0,B|368:208,1,100
456,208,86465,1,0
400,296,86779,6,0,B|304:256,1,100
304,160,87721,1,0
304,56,88036,2,0,B|192:56,1,100
104,56,88978,1,0
152,144,89292,6,0,B|152:248,1,100
208,328,90235,1,0
264,248,90549,1,0
320,328,90863,1,0
376,248,91177,1,0
432,328,91491,1,0
320,328,91805,6,0,B|264:328,1,50
224,240,92434,2,0,B|280:240,1,50
312,144,93062,2,0,B|256:144,1,50
208,56,93690,2,0,B|264:56,1,50
360,56,94318,5,0
408,144,94632,1,0
360,232,94947,1,0
264,208,95261,1,0
184,152,95575,1,0
88,184,95889,1,0
64,280,96203,1,0
136,352,96517,1,0
232,352,96831,6,0,B|288:352,1,50
248,256,97460,1,0
152,256,97774,1,0
200,168,98088,2,0,B|256:168,1,50
224,72,98716,1,0
320,72,99030,1,0
424,72,99345,5,0
376,160,99659,1,0
312,240,99973,1,0
248,320,100287,1,0
152,320,100601,2,0,B|120:320,1,25
192,240,101072,1,0
256,160,101386,1,0
304,72,101701,2,0,B|272:72,1,25
80,80,102486,5,0
80,280,103114,1,0
176,104,103742,1,0
168,304,104371,1,0
264,128,104999,1,0
256,328,105627,1,0
352,152,106256,1,0
344,352,106884,1,0
440,176,107512,6,0,B|440:192,8,12.5
72,176,108769,2,0,B|72:192,8,12.5
168,64,109868,6,0,B|168:96,1,25
320,64,110496,2,0,B|320:96,1,25
320,192,110968,5,0
320,192,111282,1,0
320,192,111596,1,0
320,192,111910,1,0
