osu file format v7

[General]
AudioFilename: Time to Donald.mp3
AudioLeadIn: 1985
PreviewTime: 39038
Countdown: 0
SampleSet: Normal
StackLeniency: 0.7
Mode: 0
LetterboxInBreaks: 0

[Editor]
Bookmarks: 61656
DistanceSpacing: 1.10000002384186
BeatDivisor: 4
GridSize: 8

[Metadata]
Title:Time to Donald
Artist:Seiryu X Donald
Creator:James
Version:Another
Source:
Tags:Lesjuh

[Difficulty]
HPDrainRate:5
CircleSize:4
OverallDifficulty:8
SliderMultiplier:1.6
SliderTickRate:1

[Events]
//Background and Video events
0,0,"lovin.png"
Video,0,"smile.flv"
//Break Periods
//Storyboard Layer 0 (Background)
//Storyboard Layer 1 (Fail)
//Storyboard Layer 2 (Pass)
//Storyboard Layer 3 (Foreground)
//Storyboard Sound Samples
//Background Colour Transformations
3,100,0,0,0

[TimingPoints]
78,314.13612565445,4,1,0,100,1,0
14528,-100,4,1,0,81,0,0
14685,-100,4,1,0,63,0,0
14842,-100,4,1,0,43,0,0
14999,-100,4,1,0,21,0,0
15156,-100,4,1,0,100,0,0
16413,-100,4,2,0,100,0,0
18926,-100,4,1,0,100,0,0
23952,-100,4,1,0,70,0,0
24109,-100,4,1,0,100,0,0
24266,-100,4,1,0,81,0,0
24423,-100,4,1,0,71,0,0
24580,-100,4,1,0,70,0,0
24737,-100,4,1,0,100,0,0
24894,-100,4,1,0,81,0,0
25051,-100,4,1,0,61,0,0
29135,-100,4,1,0,60,0,0
29449,-100,4,1,0,41,0,0
29763,-100,4,1,0,21,0,0
30077,-100,4,1,0,0,0,0
30235,-100,4,1,0,100,0,0
30392,-100,4,2,0,100,0,0
35261,-100,4,1,0,100,0,0
60470,-100,4,2,0,21,0,0
61020,-100,4,2,0,31,0,0
61648,-100,4,2,0,41,0,0
62276,-100,4,2,0,51,0,0
62905,-100,4,2,0,61,0,0
63533,-100,4,2,0,70,0,0
64161,-100,4,2,0,80,0,0
64790,-100,4,2,0,90,0,0
65418,-100,4,2,0,100,0,0
69816,-100,4,2,0,100,0,0
69973,-100,4,2,0,80,0,0
70130,-100,4,2,0,62,0,0
70287,-100,4,2,0,41,0,0
70444,-100,4,1,0,100,0,0
70758,-100,4,2,0,100,0,0
72957,-100,4,1,0,100,0,0
73271,-100,4,2,0,100,0,0
74999,-100,4,2,0,80,0,0
75156,-100,4,2,0,60,0,0
75313,-100,4,2,0,40,0,0
75470,-100,4,1,0,100,0,0
114109,-100,4,1,0,0,0,0

[Colours]
Combo1 : 255,255,0
Combo2 : 255,0,0

[HitObjects]
128,88,78,1,0
360,152,392,1,0
128,256,706,1,0
208,280,863,1,0
223,283,941,1,0
242,289,1020,1,0
261,293,1098,1,0
280,298,1177,1,0
357,318,1334,5,0
128,256,1648,1,0
360,152,1962,1,0
284,129,2119,1,0
265,125,2198,1,0
246,119,2276,1,0
227,115,2355,1,0
208,110,2434,1,0
131,90,2591,5,0
360,152,2905,1,0
128,256,3219,1,0
147,260,3297,1,0
166,266,3376,1,0
185,271,3454,1,0
204,275,3533,1,0
278,303,3690,1,0
279,323,3769,1,0
281,342,3847,1,0
281,342,4161,5,0
440,348,4475,1,0
431,276,4632,1,0
420,204,4790,1,0
409,132,4947,1,0
397,60,5104,1,0
296,324,5418,1,0
230,84,5732,1,0
203,159,5889,1,0
196,177,5968,1,0
188,195,6046,1,0
179,213,6125,1,0
171,231,6203,1,0
140,305,6360,5,0
56,56,6674,1,0
141,305,6988,1,0
168,230,7146,1,0
175,212,7224,1,0
183,194,7303,1,0
192,176,7381,1,0
200,158,7460,1,0
232,85,7617,6,0,B|308:120|278:236,1,160,0|0
265,301,8088,1,0
185,305,8245,1,0
117,262,8402,1,0
91,186,8559,1,0
104,107,8716,1,0
155,45,8873,1,0
238,181,9187,1,0
398,170,9502,1,0
410,248,9659,1,0
420,327,9816,1,0
88,328,10130,5,0
88,328,10287,1,0
80,248,10444,1,0
80,248,10601,1,0
72,168,10758,1,0
72,168,10915,1,0
64,88,11072,1,0
64,88,11229,1,0
64,88,11386,5,0
384,120,11701,1,0
120,216,12015,1,0
440,264,12329,1,0
176,336,12643,2,0,B|288:336,1,80
256,336,12957,1,0
336,192,13114,2,0,B|232:192,1,80
256,192,13428,1,0
176,48,13585,2,0,B|280:48,1,80
256,48,13899,5,0
256,48,14214,1,0
448,72,14528,1,0
456,152,14685,1,0
464,232,14842,1,0
472,312,14999,1,0
384,272,15156,6,0,B|384:360,1,80,4|0
296,328,15470,2,0,B|296:224,1,80,0|0
208,288,15784,2,0,B|208:400,1,80,0|0
120,328,16098,2,0,B|120:232,1,80,0|0
32,288,16413,5,2
48,208,16570,1,2
64,128,16727,1,2
69,108,16805,1,2
73,88,16884,1,2
160,88,17041,1,2
256,88,17198,2,2,C|264:128|248:176|280:208,2,120
352,88,17826,5,2
440,88,17983,1,2
443,107,18062,1,2
447,126,18140,1,2
381,171,18297,1,2
455,200,18454,1,2
461,280,18612,1,2
442,284,18690,1,2
423,288,18769,1,2
344,302,18926,1,0
52,325,19240,6,0,B|156:325,1,80
101,191,19554,2,0,B|197:191,1,80
145,61,19868,2,0,B|241:61,1,80
225,61,20182,5,0
295,98,20339,1,0
228,141,20496,1,0
298,178,20653,1,0
229,219,20810,1,0
300,256,20968,1,0
230,294,21125,1,0
299,333,21282,1,0
231,375,21439,6,0,B|114:375,1,80,0|0
281,373,21753,2,0,B|385:375,1,80,0|0
254,305,22067,1,0
256,225,22224,1,0
258,145,22381,1,0
256,65,22538,1,0
189,21,22695,6,0,B|81:21,1,80,0|0
329,106,23009,2,0,B|433:106,1,80,0|0
185,187,23324,2,0,B|72:187,1,80,0|0
329,265,23638,2,0,B|425:265,1,80,0|0
345,192,23952,5,4
263,141,24109,2,0,B|247:53,2,80,0|0|0
203,216,24580,1,4
114,179,24737,2,0,B|94:264,2,80,0|0|0
131,101,25208,5,4
87,167,25365,1,0
121,239,25523,1,0
200,250,25680,1,0
251,188,25837,1,0
252,108,25994,1,0
329,86,26151,1,0
403,114,26308,1,0
425,190,26465,6,0,B|442:278,2,80,4|0|0
359,236,26936,1,0
279,232,27093,1,0
205,263,27250,2,0,B|197:159,2,80,0|0|0
128,239,27721,1,4
103,313,27879,5,0
422,291,28193,1,0
120,224,28507,1,0
416,200,28821,1,0
136,136,29135,1,0
408,104,29449,1,0
152,48,29763,1,0
436,20,30077,1,0
436,20,30235,5,0
357,35,30392,1,0
277,30,30549,1,2
197,39,30706,1,0
61,169,31020,1,0
140,187,31177,1,0
219,192,31334,1,0
297,179,31491,1,2
376,174,31648,1,0
455,183,31805,1,2
56,336,32276,5,0
56,337,32434,1,0
56,337,32591,1,2
136,352,32748,1,0
216,344,32905,1,0
296,352,33062,1,2
376,344,33219,1,0
456,184,33533,1,0
376,176,33690,1,0
296,192,33847,1,0
216,168,34004,1,2
136,176,34161,2,2,B|48:192,1,80,0|2
56,192,34790,5,2
56,272,34947,1,0
56,272,35104,1,2
152,328,35261,5,0
152,344,35339,1,0
152,360,35418,1,0
248,248,35575,1,0
248,264,35653,1,0
248,280,35732,1,0
352,304,35889,1,0
352,320,35968,1,0
352,336,36046,1,0
464,312,36203,1,0
464,296,36282,1,0
464,280,36360,1,0
464,168,36517,5,0
448,168,36596,1,0
432,168,36674,1,0
416,168,36753,1,0
400,168,36831,1,0
320,168,36988,1,0
240,168,37146,1,0
160,168,37303,1,0
80,168,37460,1,0
80,168,37617,1,0
40,96,37774,5,0
40,80,37852,1,0
40,64,37931,1,0
176,144,38088,1,0
176,160,38167,1,0
176,176,38245,1,0
320,40,38402,1,0
320,56,38481,1,0
320,72,38559,1,0
464,104,38716,1,0
464,120,38795,1,0
464,136,38873,1,0
464,304,39030,6,0,C|296:304,1,160
48,304,39659,2,0,C|176:304,1,120
184,304,39973,1,0
408,328,40287,5,0
440,240,40444,1,0
352,208,40601,1,0
320,296,40758,1,0
320,296,41072,5,0
254,366,41229,1,0
164,333,41386,1,0
148,239,41543,1,0
211,166,41701,1,0
302,197,41858,1,0
302,197,42329,5,0
387,239,42486,1,0
476,203,42643,1,0
488,107,42800,1,0
436,26,42957,1,0
340,23,43114,1,0
287,103,43271,1,0
287,103,43585,5,0
272,197,43742,1,0
181,228,43899,1,0
109,162,44057,1,0
125,67,44214,1,0
213,29,44371,1,0
64,328,44842,5,0
64,328,44999,1,0
64,328,45156,1,0
144,336,45313,1,4
224,328,45470,1,0
303,336,45627,2,0,C|391:336,1,80
384,336,46098,2,0,B|400:216,1,80
360,184,46413,1,0
376,104,46570,2,0,B|288:32,1,80,4|0
314,53,46884,1,0
314,54,47355,5,0
394,62,47512,1,0
472,46,47669,1,0
504,119,47826,1,4
464,188,47983,1,0
489,263,48140,2,0,C|472:352,1,80,0|0
475,341,48612,5,0
387,301,48769,1,0
299,349,48926,1,0
219,293,49083,2,0,B|91:293,2,120,0|0|0
288,128,49711,5,0
240,256,49868,1,0
296,112,50025,5,0
228,276,50182,1,0
304,96,50339,6,0,B|392:96,1,80,0|0
456,128,50653,1,0
392,176,50810,1,0
464,208,50968,1,0
400,256,51125,1,0
472,288,51282,1,0
408,336,51439,1,0
408,336,51596,6,0,B|304:336,1,80
104,256,51910,2,0,B|200:256,1,80
408,192,52224,2,0,B|312:192,1,80
104,96,52538,2,0,B|192:96,1,80
264,96,52852,5,0
264,96,53009,1,0
344,152,53167,1,0
344,152,53324,1,0
288,232,53481,1,0
288,232,53638,1,0
208,176,53795,1,0
208,176,53952,1,0
264,96,54109,5,0
344,152,54266,1,0
288,232,54423,1,0
208,176,54580,1,0
264,71,54737,5,0
369,147,54894,1,0
289,262,55051,1,0
178,184,55208,1,0
264,96,55365,5,0
104,64,55680,1,0
32,208,55994,1,0
46,213,56072,1,0
61,217,56151,1,0
76,221,56229,1,0
95,226,56308,2,0,B|93:278,4,40,0|0|0|0|0
170,217,56779,1,0
248,200,56936,1,0
326,214,57093,1,0
402,236,57250,1,0
404,255,57329,1,0
408,274,57407,1,0
410,294,57486,1,0
413,313,57564,2,0,B|452:312,8,20,0|0|0|0|0|0|0|0|0
248,264,58350,5,0
264,344,58507,1,0
80,232,58978,1,0
96,312,59135,1,0
96,312,59449,1,0
416,312,59763,1,0
96,312,60077,1,0
416,312,60392,5,0
400,312,60470,1,0
384,312,60549,1,0
368,312,60627,1,0
352,312,60706,1,0
72,272,61020,5,0
88,272,61098,1,0
104,272,61177,1,0
120,272,61256,1,0
136,272,61334,1,0
400,232,61648,5,0
384,232,61727,1,0
368,232,61805,1,0
352,232,61884,1,0
336,232,61962,1,0
112,192,62276,5,0
128,192,62355,1,0
144,192,62434,1,0
160,192,62512,1,0
176,192,62591,1,0
440,160,62905,5,0
424,160,62983,1,0
408,160,63062,1,0
392,160,63140,1,0
376,160,63219,1,0
96,120,63533,5,0
112,120,63612,1,0
128,120,63690,1,0
144,120,63769,1,0
160,120,63847,1,0
400,80,64161,5,0
384,80,64240,1,0
368,80,64318,1,0
352,80,64397,1,0
336,80,64475,1,0
112,40,64790,5,0
128,40,64868,1,0
144,40,64947,1,0
160,40,65025,1,0
176,40,65104,1,0
352,176,65418,6,0,L|400:256|384:336,1,160,2|2
152,280,66046,1,0
152,280,66203,2,0,L|104:200|120:120,1,160,2|0
144,32,66674,6,0,L|304:32,1,160,2|2
368,352,67303,1,0
368,352,67460,2,0,L|208:352,1,160,2|0
104,352,67931,6,0,L|64:248|120:208,1,160,2|2
408,32,68559,1,0
408,32,68716,2,0,L|448:136|392:176,1,160,2|0
328,96,69187,6,0,L|160:96,1,160,2|2
168,288,69816,1,2
208,288,69973,1,0
248,288,70130,1,0
288,288,70287,1,0
328,288,70444,2,0,L|392:232|336:152,1,160,0|2
184,96,71072,1,0
184,96,71229,2,0,L|120:152|176:232,1,160,2|0
248,168,71701,6,0,L|248:328,1,160,2|2
256,328,72329,5,0
264,328,72486,2,0,L|264:144,1,160,2|0
192,88,72957,6,0,L|72:88|72:152,1,160,0|2
320,296,73585,1,0
320,296,73742,2,0,L|440:296|440:232,1,160,2|0
336,192,74214,6,0,L|152:192,1,160,2|2
176,352,74842,1,2
263,352,74999,1,0
350,352,75156,1,0
436,335,75313,1,0
458,249,75470,5,0
458,249,75627,1,0
454,161,75784,1,0
454,161,75941,1,0
380,112,76098,1,0
365,105,76177,1,0
349,100,76256,1,0
333,96,76334,1,0
317,91,76413,1,0
257,155,76570,5,0
330,216,76727,1,0
258,280,76884,1,0
185,217,77041,1,0
258,155,77198,1,0
183,89,77355,5,0
169,95,77434,1,0
154,99,77512,1,0
140,105,77591,1,0
125,110,77669,1,0
56,168,77826,1,0
57,248,77983,5,0
408,184,78297,1,0
72,168,78612,1,0
344,40,78926,1,0
160,320,79240,1,0
168,32,79554,1,0
344,320,79868,1,0
344,320,80025,1,0
344,320,80182,1,0
256,192,80496,12,0,81125
256,192,81439,5,0
56,104,81753,5,0
128,72,81910,1,0
208,48,82067,1,0
288,40,82224,1,0
368,56,82381,1,0
432,104,82538,1,0
464,176,82695,1,0
456,256,82852,1,0
416,328,83009,6,0,B|304:328,1,80,0|0
96,328,83324,2,0,B|192:328,1,80,0|0
416,328,83638,2,0,B|312:328,1,80,0|0
96,328,83952,2,0,B|184:328,1,80,0|0
256,328,84266,5,0
320,256,84423,2,0,B|416:256,2,80,0|0|0
256,184,84894,1,0
192,256,85051,2,0,B|88:256,2,80
256,184,85523,5,0
320,112,85680,2,0,B|424:112,2,80,0|0|0
256,40,86151,1,0
192,112,86308,2,0,B|96:112,2,80,0|0|0
456,104,86779,5,0
384,72,86936,1,0
304,48,87093,1,0
224,40,87250,1,0
144,56,87407,1,0
80,104,87564,1,0
48,176,87721,1,0
56,256,87879,1,0
96,328,88036,6,0,B|208:328,1,80,0|0
416,328,88350,2,0,B|320:328,1,80,0|0
96,328,88664,2,0,B|200:328,1,80,0|0
416,328,88978,2,0,B|328:328,1,80,0|0
176,256,89292,5,0
336,256,89449,1,0
176,184,89606,1,0
336,184,89763,1,0
336,112,89920,2,0,C|160:112,1,160,0|0
192,304,90549,2,0,C|328:304,2,120,0|0|0
312,301,91177,5,0
192,304,91334,1,0
312,301,91491,5,0
192,304,91648,1,0
313,302,91805,5,0
384,264,91962,1,0
312,224,92119,1,0
384,184,92276,1,0
312,144,92434,1,0
384,104,92591,1,0
312,64,92748,2,0,C|215:64,1,80,0|0
152,64,93062,5,0
88,104,93219,1,0
152,144,93376,1,0
80,176,93533,1,0
152,216,93690,1,0
80,256,93847,1,0
152,288,94004,2,0,C|240:288,1,80,0|0
392,280,94318,5,0
456,232,94475,1,0
408,168,94632,1,0
344,216,94790,1,0
391,299,94947,5,0
475,237,95104,1,0
412,151,95261,1,0
326,211,95418,1,0
168,168,95575,5,0
120,104,95732,1,0
56,152,95889,1,0
104,216,96047,1,0
187,166,96203,5,0
122,84,96361,1,0
39,147,96517,1,0
100,233,96675,1,0
304,344,96831,6,0,B|200:344,1,80,0|0
88,256,97146,2,0,B|112:160,1,80,0|0
208,56,97460,2,0,B|304:48,1,80,0|0
432,104,97774,2,0,B|432:224,1,80
272,152,98088,2,0,B|272:248,1,80,0|0
376,352,98402,2,0,B|480:352,1,80,0|0
472,192,98716,2,0,B|424:88,1,80,0|0
296,40,99030,2,0,B|184:40,1,80,0|0
216,40,99345,5,0
40,232,99659,1,0
296,360,99973,1,0
472,152,100287,1,0
296,152,100601,2,0,C|216:248,2,120,0|0|0
215,245,101229,5,0
295,151,101386,1,0
215,243,101543,5,0
295,151,101701,1,0
409,187,101858,6,0,B|446:265,1,80,4|0
351,336,102172,1,0
265,252,102329,1,0
166,320,102486,2,0,B|78:312,1,80,0|0
41,201,102800,1,0
147,145,102957,1,0
65,57,103114,2,0,B|159:23,1,80
260,29,103428,2,0,B|276:141,1,80
289,226,103742,2,0,B|377:234,1,80,0|0
454,148,104057,2,0,B|334:132,1,80,0|0
256,120,104371,5,0
128,192,104528,1,0
256,256,104685,2,0,B|288:368,1,80,0|0
136,360,104999,1,0
16,280,105156,1,0
128,192,105313,2,0,B|114:86,1,80,0|0
224,16,105627,1,0
328,112,105784,2,0,B|432:120,2,80,0|0|0
208,200,106256,1,0
275,334,106413,2,0,B|172:342,2,80
275,334,106884,5,0
275,334,107512,5,0
295,334,107591,1,0
314,334,107669,1,0
334,333,107748,1,0
353,333,107826,1,0
373,333,107905,1,0
392,333,107983,2,0,C|480:334,1,80,0|0
237,334,108769,5,0
217,334,108847,1,0
198,334,108926,1,0
178,333,109004,1,0
159,333,109083,1,0
138,333,109161,1,0
118,333,109240,2,0,C|30:334,1,80
99,260,109554,5,0
161,333,109711,1,0
223,259,109868,1,0
281,335,110025,1,0
339,259,110182,1,0
395,336,110339,1,0
456,256,110496,1,0
400,184,110653,6,0,B|296:184,1,80,0|0
112,184,110968,2,0,B|216:184,1,80,0|0
448,104,111282,6,0,B|344:104,1,80,0|0
56,104,111596,2,0,C|160:104,1,80,0|0
256,192,111910,12,0,114109
