osu file format v14

[General]
AudioFilename: Seiryu - waxing and wanding.mp3
AudioLeadIn: 0
PreviewTime: 72994
Countdown: 0
SampleSet: Soft
StackLeniency: 0.7
Mode: 3
LetterboxInBreaks: 0
SpecialStyle: 0
WidescreenStoryboard: 1

[Editor]
DistanceSpacing: 1.5
BeatDivisor: 4
GridSize: 8
TimelineZoom: 1.9

[Metadata]
Title:waxing and wanding
TitleUnicode:waxing and wanding
Artist:Seiryu
ArtistUnicode:青龍
Creator:DanSparce
Version:Hard+
Source:beatmania IIDX
Tags:13 DistorteD BEMANI KONAMI REFLEC BEAT limelight plus Ryutaro Nakahara 中原龍太郎 Ryu☆ Ryu* CARDINAL GATE conclusion BLUE DRAGON DANCE SPEED
BeatmapID:705452
BeatmapSetID:316629

[Difficulty]
HPDrainRate:7.5
CircleSize:4
OverallDifficulty:7.5
ApproachRate:5
SliderMultiplier:1.4
SliderTickRate:1

[Events]
//Background and Video events
0,0,"BG.jpg",0,0
//Break Periods
//Storyboard Layer 0 (Background)
//Storyboard Layer 1 (Fail)
//Storyboard Layer 2 (Pass)
//Storyboard Layer 3 (Foreground)
//Storyboard Sound Samples

[TimingPoints]
429,314.13612565445,4,2,1,50,1,0
73308,-100,4,2,1,40,0,1
93413,-100,4,2,1,40,0,0

[HitObjects]
64,192,429,5,0,0:0:0:0:
320,192,429,1,0,0:0:0:0:
192,192,586,1,0,0:0:0:0:
448,192,743,1,0,0:0:0:0:
320,192,900,1,0,0:0:0:0:
64,192,1057,1,0,0:0:0:0:
192,192,1214,1,0,0:0:0:0:
448,192,1371,1,0,0:0:0:0:
320,192,1528,1,0,0:0:0:0:
64,192,1685,128,0,1842:0:0:0:0:
192,192,1842,128,0,1999:0:0:0:0:
320,192,1999,128,0,2156:0:0:0:0:
448,192,2156,128,0,2313:0:0:0:0:
64,192,2313,128,0,2470:0:0:0:0:
192,192,2470,128,0,2627:0:0:0:0:
320,192,2627,128,0,2785:0:0:0:0:
448,192,2785,128,0,2942:0:0:0:0:
64,192,2942,1,0,0:0:0:0:
192,192,3099,1,0,0:0:0:0:
448,192,3256,1,0,0:0:0:0:
320,192,3413,1,0,0:0:0:0:
64,192,3570,1,0,0:0:0:0:
192,192,3727,1,0,0:0:0:0:
448,192,3884,1,0,0:0:0:0:
320,192,4041,1,0,0:0:0:0:
64,192,4198,1,0,0:0:0:0:
192,192,4277,1,0,0:0:0:0:
320,192,4355,1,0,0:0:0:0:
448,192,4512,128,0,4826:0:0:0:0:
192,192,4512,1,0,0:0:0:0:
320,192,4826,128,0,5141:0:0:0:0:
64,192,4826,1,0,0:0:0:0:
192,192,5141,128,0,5455:0:0:0:0:
448,192,5141,1,0,0:0:0:0:
320,192,5455,1,0,0:0:0:0:
64,192,5455,1,0,0:0:0:0:
192,192,5612,1,0,0:0:0:0:
448,192,5769,1,0,0:0:0:0:
320,192,5926,1,0,0:0:0:0:
64,192,6083,1,0,0:0:0:0:
192,192,6240,1,0,0:0:0:0:
448,192,6397,1,0,0:0:0:0:
320,192,6554,1,0,0:0:0:0:
64,192,6711,128,0,6868:0:0:0:0:
192,192,6868,128,0,7025:0:0:0:0:
320,192,7025,128,0,7182:0:0:0:0:
448,192,7182,128,0,7339:0:0:0:0:
64,192,7339,128,0,7497:0:0:0:0:
192,192,7497,128,0,7654:0:0:0:0:
320,192,7654,128,0,7811:0:0:0:0:
448,192,7811,128,0,7968:0:0:0:0:
64,192,7968,1,0,0:0:0:0:
192,192,7968,1,0,0:0:0:0:
320,192,8125,1,0,0:0:0:0:
448,192,8282,1,0,0:0:0:0:
64,192,8439,1,0,0:0:0:0:
192,192,8596,1,0,0:0:0:0:
320,192,8596,1,0,0:0:0:0:
448,192,8753,1,0,0:0:0:0:
64,192,8910,1,0,0:0:0:0:
192,192,9067,1,0,0:0:0:0:
448,192,9224,1,0,0:0:0:0:
64,192,9224,1,0,0:0:0:0:
192,192,9303,1,0,0:0:0:0:
320,192,9381,1,0,0:0:0:0:
448,192,9538,1,0,0:0:0:0:
192,192,9538,1,0,0:0:0:0:
320,192,9696,1,0,0:0:0:0:
64,192,9853,1,0,0:0:0:0:
448,192,9853,1,0,0:0:0:0:
320,192,10010,1,0,0:0:0:0:
192,192,10167,1,0,0:0:0:0:
64,192,10167,1,0,0:0:0:0:
320,192,10324,1,0,0:0:0:0:
448,192,10481,1,0,0:0:0:0:
64,192,10481,1,0,0:0:0:0:
192,192,10638,1,0,0:0:0:0:
448,192,10795,1,0,0:0:0:0:
64,192,10795,1,0,0:0:0:0:
320,192,10952,1,0,0:0:0:0:
192,192,11109,1,0,0:0:0:0:
64,192,11109,1,0,0:0:0:0:
320,192,11266,1,0,0:0:0:0:
448,192,11266,1,0,0:0:0:0:
64,192,11423,1,0,0:0:0:0:
192,192,11423,1,0,0:0:0:0:
320,192,11502,1,0,0:0:0:0:
448,192,11502,1,0,0:0:0:0:
192,192,11580,1,0,0:0:0:0:
64,192,11580,1,0,0:0:0:0:
448,192,11659,1,0,0:0:0:0:
320,192,11659,1,0,0:0:0:0:
64,192,11737,1,0,0:0:0:0:
192,192,11737,1,0,0:0:0:0:
448,192,12994,1,0,0:0:0:0:
64,192,12994,1,0,0:0:0:0:
192,192,13151,1,0,0:0:0:0:
320,192,13308,1,0,0:0:0:0:
448,192,13308,1,0,0:0:0:0:
64,192,13465,1,0,0:0:0:0:
448,192,13622,1,0,0:0:0:0:
192,192,13622,1,0,0:0:0:0:
320,192,13779,1,0,0:0:0:0:
192,192,13936,1,0,0:0:0:0:
64,192,13936,1,0,0:0:0:0:
448,192,14093,1,0,0:0:0:0:
64,192,14250,128,0,14408:0:0:0:0:
320,192,14250,1,0,0:0:0:0:
192,192,14408,128,0,14565:0:0:0:0:
320,192,14565,128,0,14722:0:0:0:0:
64,192,14565,1,0,0:0:0:0:
448,192,14722,128,0,14879:0:0:0:0:
320,192,14879,1,0,0:0:0:0:
64,192,14879,128,0,15036:0:0:0:0:
192,192,15036,128,0,15193:0:0:0:0:
320,192,15193,128,0,15350:0:0:0:0:
64,192,15193,1,0,0:0:0:0:
448,192,15350,128,0,15507:0:0:0:0:
64,192,15507,1,0,0:0:0:0:
320,192,15507,1,0,0:0:0:0:
192,192,15664,1,0,0:0:0:0:
448,192,15821,1,0,0:0:0:0:
320,192,15821,1,0,0:0:0:0:
64,192,15978,1,0,0:0:0:0:
192,192,16135,1,0,0:0:0:0:
448,192,16135,1,0,0:0:0:0:
320,192,16292,1,0,0:0:0:0:
192,192,16449,1,0,0:0:0:0:
64,192,16449,1,0,0:0:0:0:
320,192,16607,1,0,0:0:0:0:
64,192,16764,1,0,0:0:0:0:
448,192,16764,1,0,0:0:0:0:
192,192,16842,1,0,0:0:0:0:
320,192,16921,1,0,0:0:0:0:
448,192,17078,128,0,17392:0:0:0:0:
64,192,17078,1,0,0:0:0:0:
192,192,17235,1,0,0:0:0:0:
320,192,17392,128,0,17706:0:0:0:0:
64,192,17392,1,0,0:0:0:0:
448,192,17549,1,0,0:0:0:0:
192,192,17706,128,0,18020:0:0:0:0:
64,192,17706,1,0,0:0:0:0:
320,192,17863,1,0,0:0:0:0:
448,192,18020,1,0,0:0:0:0:
64,192,18020,1,0,0:0:0:0:
192,192,18177,1,0,0:0:0:0:
320,192,18334,1,0,0:0:0:0:
448,192,18334,1,0,0:0:0:0:
64,192,18491,1,0,0:0:0:0:
192,192,18648,1,0,0:0:0:0:
448,192,18648,1,0,0:0:0:0:
320,192,18805,1,0,0:0:0:0:
192,192,18963,1,0,0:0:0:0:
64,192,18963,1,0,0:0:0:0:
320,192,19120,1,0,0:0:0:0:
64,192,19277,128,0,19434:0:0:0:0:
192,192,19277,1,0,0:0:0:0:
320,192,19434,128,0,19591:0:0:0:0:
64,192,19591,128,0,19748:0:0:0:0:
192,192,19591,1,0,0:0:0:0:
320,192,19748,128,0,19905:0:0:0:0:
192,192,19905,128,0,20062:0:0:0:0:
64,192,19905,1,0,0:0:0:0:
448,192,20062,128,0,20219:0:0:0:0:
192,192,20219,128,0,20376:0:0:0:0:
64,192,20219,1,0,0:0:0:0:
448,192,20376,128,0,20533:0:0:0:0:
320,192,20533,1,0,0:0:0:0:
64,192,20533,1,0,0:0:0:0:
192,192,20690,1,0,0:0:0:0:
320,192,20847,1,0,0:0:0:0:
448,192,20847,1,0,0:0:0:0:
192,192,21004,1,0,0:0:0:0:
448,192,21161,1,0,0:0:0:0:
64,192,21161,1,0,0:0:0:0:
320,192,21319,1,0,0:0:0:0:
192,192,21476,1,0,0:0:0:0:
64,192,21476,1,0,0:0:0:0:
320,192,21633,1,0,0:0:0:0:
64,192,21790,1,0,0:0:0:0:
448,192,21790,1,0,0:0:0:0:
192,192,21868,1,0,0:0:0:0:
320,192,21947,1,0,0:0:0:0:
448,192,22104,128,0,22418:0:0:0:0:
64,192,22104,1,0,0:0:0:0:
192,192,22261,1,0,0:0:0:0:
320,192,22418,128,0,22732:0:0:0:0:
64,192,22418,1,0,0:0:0:0:
448,192,22575,1,0,0:0:0:0:
192,192,22732,128,0,23046:0:0:0:0:
64,192,22732,1,0,0:0:0:0:
320,192,22889,1,0,0:0:0:0:
448,192,22889,1,0,0:0:0:0:
64,192,23046,1,0,0:0:0:0:
448,192,23046,1,0,0:0:0:0:
192,192,23203,1,0,0:0:0:0:
320,192,23203,1,0,0:0:0:0:
64,192,23360,1,0,0:0:0:0:
192,192,23360,1,0,0:0:0:0:
448,192,23518,1,0,0:0:0:0:
320,192,23518,1,0,0:0:0:0:
64,192,23675,1,0,0:0:0:0:
320,192,23675,1,0,0:0:0:0:
448,192,23832,1,0,0:0:0:0:
192,192,23832,1,0,0:0:0:0:
448,192,23989,1,0,0:0:0:0:
64,192,23989,1,0,0:0:0:0:
320,192,24146,1,0,0:0:0:0:
192,192,24146,1,0,0:0:0:0:
448,192,24303,1,0,0:0:0:0:
192,192,24303,1,0,0:0:0:0:
320,192,24460,1,0,0:0:0:0:
64,192,24460,1,0,0:0:0:0:
192,192,24617,1,0,0:0:0:0:
64,192,24617,1,0,0:0:0:0:
320,192,24774,1,0,0:0:0:0:
448,192,24774,1,0,0:0:0:0:
64,192,24931,1,0,0:0:0:0:
320,192,24931,1,0,0:0:0:0:
448,192,25088,1,0,0:0:0:0:
192,192,25088,1,0,0:0:0:0:
64,192,25245,1,0,0:0:0:0:
448,192,25245,1,0,0:0:0:0:
192,192,25402,1,0,0:0:0:0:
448,192,25559,1,0,0:0:0:0:
320,192,25559,1,0,0:0:0:0:
192,192,25716,1,0,0:0:0:0:
64,192,25874,1,0,0:0:0:0:
448,192,25874,1,0,0:0:0:0:
320,192,26031,1,0,0:0:0:0:
192,192,26188,1,0,0:0:0:0:
64,192,26188,1,0,0:0:0:0:
320,192,26345,1,0,0:0:0:0:
448,192,26502,1,0,0:0:0:0:
192,192,26502,1,0,0:0:0:0:
320,192,26659,1,0,0:0:0:0:
64,192,26816,1,0,0:0:0:0:
448,192,26816,1,0,0:0:0:0:
192,192,26894,1,0,0:0:0:0:
320,192,26973,1,0,0:0:0:0:
448,192,27130,128,0,27444:0:0:0:0:
64,192,27130,1,0,0:0:0:0:
192,192,27287,1,0,0:0:0:0:
320,192,27444,128,0,27758:0:0:0:0:
64,192,27444,1,0,0:0:0:0:
448,192,27601,1,0,0:0:0:0:
192,192,27758,128,0,28072:0:0:0:0:
64,192,27758,1,0,0:0:0:0:
320,192,27915,1,0,0:0:0:0:
448,192,27915,1,0,0:0:0:0:
64,192,28072,1,0,0:0:0:0:
448,192,28072,1,0,0:0:0:0:
320,192,28230,1,0,0:0:0:0:
192,192,28230,1,0,0:0:0:0:
192,192,28387,1,0,0:0:0:0:
64,192,28387,1,0,0:0:0:0:
448,192,28544,1,0,0:0:0:0:
320,192,28544,1,0,0:0:0:0:
64,192,28701,1,0,0:0:0:0:
320,192,28701,1,0,0:0:0:0:
192,192,28858,1,0,0:0:0:0:
448,192,28858,1,0,0:0:0:0:
64,192,29015,1,0,0:0:0:0:
448,192,29015,1,0,0:0:0:0:
320,192,29172,1,0,0:0:0:0:
192,192,29172,1,0,0:0:0:0:
448,192,29329,1,0,0:0:0:0:
192,192,29329,1,0,0:0:0:0:
64,192,29486,1,0,0:0:0:0:
320,192,29486,1,0,0:0:0:0:
192,192,29643,1,0,0:0:0:0:
64,192,29643,1,0,0:0:0:0:
320,192,29800,1,0,0:0:0:0:
448,192,29800,1,0,0:0:0:0:
64,192,29957,1,0,0:0:0:0:
320,192,29957,1,0,0:0:0:0:
192,192,30114,1,0,0:0:0:0:
448,192,30114,1,0,0:0:0:0:
448,192,30271,1,0,0:0:0:0:
64,192,30271,1,0,0:0:0:0:
192,192,30428,1,0,0:0:0:0:
448,192,30586,1,0,0:0:0:0:
320,192,30586,1,0,0:0:0:0:
64,192,30743,1,0,0:0:0:0:
192,192,30900,1,0,0:0:0:0:
448,192,30900,1,0,0:0:0:0:
320,192,31057,1,0,0:0:0:0:
192,192,31214,1,0,0:0:0:0:
64,192,31214,1,0,0:0:0:0:
320,192,31371,1,0,0:0:0:0:
448,192,31528,1,0,0:0:0:0:
64,192,31528,1,0,0:0:0:0:
192,192,31685,1,0,0:0:0:0:
64,192,31842,1,0,0:0:0:0:
448,192,31842,1,0,0:0:0:0:
192,192,31921,1,0,0:0:0:0:
320,192,31999,1,0,0:0:0:0:
64,192,32156,1,0,0:0:0:0:
448,192,32156,128,0,32470:0:0:0:0:
192,192,32313,1,0,0:0:0:0:
64,192,32470,1,0,0:0:0:0:
320,192,32470,128,0,32785:0:0:0:0:
448,192,32627,1,0,0:0:0:0:
192,192,32785,128,0,33099:0:0:0:0:
64,192,32785,1,0,0:0:0:0:
320,192,32942,1,0,0:0:0:0:
448,192,33099,1,0,0:0:0:0:
64,192,33099,1,0,0:0:0:0:
320,192,33256,1,0,0:0:0:0:
448,192,33413,1,0,0:0:0:0:
64,192,33413,128,0,33570:0:0:0:0:
192,192,33570,128,0,33727:0:0:0:0:
64,192,33727,1,0,0:0:0:0:
448,192,33727,1,0,0:0:0:0:
320,192,33884,1,0,0:0:0:0:
448,192,34041,1,0,0:0:0:0:
64,192,34041,128,0,34198:0:0:0:0:
320,192,34198,128,0,34355:0:0:0:0:
448,192,34355,1,0,0:0:0:0:
64,192,34355,1,0,0:0:0:0:
192,192,34512,1,0,0:0:0:0:
448,192,34669,1,0,0:0:0:0:
64,192,34669,128,0,34826:0:0:0:0:
192,192,34826,128,0,34983:0:0:0:0:
64,192,34983,1,0,0:0:0:0:
448,192,34983,1,0,0:0:0:0:
320,192,35141,1,0,0:0:0:0:
448,192,35298,1,0,0:0:0:0:
64,192,35298,128,0,35455:0:0:0:0:
320,192,35455,128,0,35612:0:0:0:0:
448,192,35612,1,0,0:0:0:0:
64,192,35612,1,0,0:0:0:0:
192,192,35769,1,0,0:0:0:0:
64,192,35926,1,0,0:0:0:0:
448,192,35926,128,0,36083:0:0:0:0:
320,192,36083,128,0,36240:0:0:0:0:
448,192,36240,1,0,0:0:0:0:
64,192,36240,1,0,0:0:0:0:
192,192,36397,1,0,0:0:0:0:
448,192,36554,128,0,36711:0:0:0:0:
64,192,36554,1,0,0:0:0:0:
192,192,36711,128,0,36868:0:0:0:0:
448,192,36868,1,0,0:0:0:0:
64,192,36868,1,0,0:0:0:0:
320,192,37025,1,0,0:0:0:0:
448,192,37182,128,0,37339:0:0:0:0:
64,192,37182,1,0,0:0:0:0:
320,192,37339,128,0,37497:0:0:0:0:
448,192,37497,1,0,0:0:0:0:
192,192,37497,128,0,37654:0:0:0:0:
64,192,37654,128,0,37811:0:0:0:0:
448,192,37811,128,0,37968:0:0:0:0:
192,192,37811,1,0,0:0:0:0:
320,192,37968,128,0,38125:0:0:0:0:
64,192,38125,1,0,0:0:0:0:
448,192,38125,1,0,0:0:0:0:
320,192,38282,1,0,0:0:0:0:
64,192,38439,128,0,38596:0:0:0:0:
192,192,38439,1,0,0:0:0:0:
320,192,38596,128,0,38753:0:0:0:0:
448,192,38753,1,0,0:0:0:0:
64,192,38753,1,0,0:0:0:0:
320,192,38910,1,0,0:0:0:0:
64,192,39067,128,0,39224:0:0:0:0:
192,192,39067,1,0,0:0:0:0:
448,192,39224,128,0,39381:0:0:0:0:
320,192,39381,1,0,0:0:0:0:
64,192,39381,1,0,0:0:0:0:
448,192,39538,1,0,0:0:0:0:
192,192,39696,1,0,0:0:0:0:
64,192,39696,128,0,39853:0:0:0:0:
320,192,39853,128,0,40010:0:0:0:0:
448,192,40010,1,0,0:0:0:0:
64,192,40010,1,0,0:0:0:0:
320,192,40167,1,0,0:0:0:0:
64,192,40324,128,0,40481:0:0:0:0:
192,192,40324,1,0,0:0:0:0:
448,192,40481,128,0,40638:0:0:0:0:
320,192,40638,1,0,0:0:0:0:
64,192,40638,1,0,0:0:0:0:
192,192,40795,1,0,0:0:0:0:
448,192,40952,128,0,41109:0:0:0:0:
320,192,40952,1,0,0:0:0:0:
192,192,41109,128,0,41266:0:0:0:0:
448,192,41266,1,0,0:0:0:0:
64,192,41266,1,0,0:0:0:0:
320,192,41423,1,0,0:0:0:0:
448,192,41580,128,0,41737:0:0:0:0:
192,192,41580,1,0,0:0:0:0:
64,192,41737,128,0,41894:0:0:0:0:
448,192,41894,1,0,0:0:0:0:
192,192,41894,1,0,0:0:0:0:
320,192,42052,1,0,0:0:0:0:
64,192,42209,128,0,42366:0:0:0:0:
448,192,42209,1,0,0:0:0:0:
192,192,42366,128,0,42523:0:0:0:0:
320,192,42523,128,0,42680:0:0:0:0:
64,192,42523,1,0,0:0:0:0:
448,192,42680,128,0,42837:0:0:0:0:
64,192,42837,128,0,42994:0:0:0:0:
320,192,42837,1,0,0:0:0:0:
192,192,42994,128,0,43151:0:0:0:0:
320,192,43151,1,0,0:0:0:0:
448,192,43151,1,0,0:0:0:0:
64,192,43308,1,0,0:0:0:0:
192,192,43308,1,0,0:0:0:0:
192,192,43465,1,0,0:0:0:0:
448,192,43465,1,0,0:0:0:0:
320,192,43622,1,0,0:0:0:0:
64,192,43622,1,0,0:0:0:0:
64,192,43779,1,0,0:0:0:0:
448,192,43779,1,0,0:0:0:0:
192,192,43936,1,0,0:0:0:0:
320,192,43936,1,0,0:0:0:0:
64,192,44093,1,0,0:0:0:0:
320,192,44093,1,0,0:0:0:0:
448,192,44250,1,0,0:0:0:0:
192,192,44250,1,0,0:0:0:0:
320,192,44408,1,0,0:0:0:0:
448,192,44408,1,0,0:0:0:0:
192,192,44565,1,0,0:0:0:0:
64,192,44565,1,0,0:0:0:0:
448,192,44722,1,0,0:0:0:0:
192,192,44722,1,0,0:0:0:0:
320,192,44879,1,0,0:0:0:0:
64,192,44879,1,0,0:0:0:0:
448,192,45036,1,0,0:0:0:0:
64,192,45036,1,0,0:0:0:0:
192,192,45193,1,0,0:0:0:0:
320,192,45193,1,0,0:0:0:0:
448,192,45350,1,0,0:0:0:0:
192,192,45350,1,0,0:0:0:0:
320,192,45507,1,0,0:0:0:0:
64,192,45507,1,0,0:0:0:0:
448,192,45664,1,0,0:0:0:0:
320,192,45664,1,0,0:0:0:0:
192,192,45821,1,0,0:0:0:0:
64,192,45821,1,0,0:0:0:0:
448,192,45978,1,0,0:0:0:0:
192,192,45978,1,0,0:0:0:0:
320,192,46135,1,0,0:0:0:0:
64,192,46135,1,0,0:0:0:0:
448,192,46292,1,0,0:0:0:0:
64,192,46292,1,0,0:0:0:0:
192,192,46449,1,0,0:0:0:0:
320,192,46449,1,0,0:0:0:0:
64,192,46607,1,0,0:0:0:0:
320,192,46607,1,0,0:0:0:0:
192,192,46764,1,0,0:0:0:0:
448,192,46764,1,0,0:0:0:0:
64,192,46921,1,0,0:0:0:0:
192,192,46921,1,0,0:0:0:0:
320,192,47078,1,0,0:0:0:0:
448,192,47078,1,0,0:0:0:0:
448,192,47235,1,0,0:0:0:0:
192,192,47235,1,0,0:0:0:0:
320,192,47392,1,0,0:0:0:0:
64,192,47392,1,0,0:0:0:0:
64,192,47549,1,0,0:0:0:0:
448,192,47549,1,0,0:0:0:0:
320,192,47706,1,0,0:0:0:0:
448,192,47863,1,0,0:0:0:0:
192,192,47863,1,0,0:0:0:0:
320,192,48020,1,0,0:0:0:0:
64,192,48020,1,0,0:0:0:0:
448,192,48177,1,0,0:0:0:0:
320,192,48177,1,0,0:0:0:0:
192,192,48334,1,0,0:0:0:0:
64,192,48334,1,0,0:0:0:0:
192,192,48491,1,0,0:0:0:0:
448,192,48491,1,0,0:0:0:0:
320,192,48648,1,0,0:0:0:0:
64,192,48648,1,0,0:0:0:0:
448,192,48805,1,0,0:0:0:0:
64,192,48805,1,0,0:0:0:0:
192,192,48963,1,0,0:0:0:0:
320,192,48963,1,0,0:0:0:0:
64,192,49120,1,0,0:0:0:0:
320,192,49120,1,0,0:0:0:0:
192,192,49277,1,0,0:0:0:0:
448,192,49277,1,0,0:0:0:0:
64,192,49434,1,0,0:0:0:0:
192,192,49434,1,0,0:0:0:0:
320,192,49591,1,0,0:0:0:0:
448,192,49591,1,0,0:0:0:0:
448,192,49748,1,0,0:0:0:0:
192,192,49748,1,0,0:0:0:0:
320,192,49905,1,0,0:0:0:0:
64,192,49905,1,0,0:0:0:0:
448,192,50062,1,0,0:0:0:0:
64,192,50062,1,0,0:0:0:0:
192,192,50219,1,0,0:0:0:0:
320,192,50219,1,0,0:0:0:0:
64,192,50376,1,0,0:0:0:0:
320,192,50376,1,0,0:0:0:0:
192,192,50533,1,0,0:0:0:0:
448,192,50533,1,0,0:0:0:0:
320,192,50690,1,0,0:0:0:0:
448,192,50690,1,0,0:0:0:0:
192,192,50847,1,0,0:0:0:0:
64,192,50847,1,0,0:0:0:0:
448,192,51004,1,0,0:0:0:0:
192,192,51004,1,0,0:0:0:0:
320,192,51161,1,0,0:0:0:0:
64,192,51161,1,0,0:0:0:0:
448,192,51319,1,0,0:0:0:0:
64,192,51319,1,0,0:0:0:0:
192,192,51476,1,0,0:0:0:0:
320,192,51476,1,0,0:0:0:0:
64,192,51633,1,0,0:0:0:0:
320,192,51633,1,0,0:0:0:0:
192,192,51790,1,0,0:0:0:0:
448,192,51790,1,0,0:0:0:0:
448,192,51947,1,0,0:0:0:0:
64,192,51947,1,0,0:0:0:0:
192,192,52104,1,0,0:0:0:0:
320,192,52104,1,0,0:0:0:0:
448,192,52261,1,0,0:0:0:0:
192,192,52261,1,0,0:0:0:0:
320,192,52418,1,0,0:0:0:0:
64,192,52418,1,0,0:0:0:0:
448,192,52575,1,0,0:0:0:0:
64,192,52575,128,0,52732:0:0:0:0:
192,192,52732,128,0,52889:0:0:0:0:
320,192,52889,128,0,53046:0:0:0:0:
64,192,52889,1,0,0:0:0:0:
448,192,53046,128,0,53203:0:0:0:0:
64,192,53203,128,0,53832:0:0:0:0:
320,192,53203,1,0,0:0:0:0:
192,192,53832,128,0,54460:0:0:0:0:
320,192,54460,128,0,55088:0:0:0:0:
448,192,55088,128,0,55716:0:0:0:0:
64,192,55716,128,0,56345:0:0:0:0:
192,192,56345,128,0,56973:0:0:0:0:
320,192,56973,128,0,58230:0:0:0:0:
64,192,58230,128,0,58858:0:0:0:0:
192,192,58858,128,0,59486:0:0:0:0:
320,192,59486,128,0,60114:0:0:0:0:
448,192,60114,128,0,60743:0:0:0:0:
64,192,60743,128,0,61371:0:0:0:0:
192,192,61371,128,0,61999:0:0:0:0:
320,192,61999,128,0,63256:0:0:0:0:
64,192,62942,1,0,0:0:0:0:
192,192,63099,1,0,0:0:0:0:
64,192,63256,1,0,0:0:0:0:
448,192,63413,1,0,0:0:0:0:
192,192,63570,1,0,0:0:0:0:
320,192,63727,1,0,0:0:0:0:
64,192,63884,1,0,0:0:0:0:
448,192,64041,1,0,0:0:0:0:
320,192,64198,1,0,0:0:0:0:
192,192,64355,1,0,0:0:0:0:
64,192,64512,1,0,0:0:0:0:
192,192,64669,1,0,0:0:0:0:
320,192,64826,1,0,0:0:0:0:
448,192,64983,1,0,0:0:0:0:
64,192,65141,1,0,0:0:0:0:
448,192,65298,1,0,0:0:0:0:
64,192,65455,1,0,0:0:0:0:
192,192,65612,1,0,0:0:0:0:
64,192,65769,1,0,0:0:0:0:
448,192,65926,1,0,0:0:0:0:
192,192,66083,1,0,0:0:0:0:
320,192,66240,1,0,0:0:0:0:
64,192,66397,1,0,0:0:0:0:
192,192,66554,1,0,0:0:0:0:
320,192,66711,1,0,0:0:0:0:
448,192,66868,1,0,0:0:0:0:
64,192,67025,1,0,0:0:0:0:
192,192,67182,1,0,0:0:0:0:
448,192,67339,1,0,0:0:0:0:
320,192,67497,1,0,0:0:0:0:
448,192,67654,1,0,0:0:0:0:
64,192,67968,1,0,0:0:0:0:
192,192,68125,1,0,0:0:0:0:
64,192,68282,1,0,0:0:0:0:
448,192,68439,1,0,0:0:0:0:
192,192,68596,1,0,0:0:0:0:
320,192,68753,1,0,0:0:0:0:
64,192,68910,1,0,0:0:0:0:
448,192,69067,1,0,0:0:0:0:
320,192,69224,1,0,0:0:0:0:
192,192,69381,1,0,0:0:0:0:
64,192,69538,1,0,0:0:0:0:
192,192,69696,1,0,0:0:0:0:
320,192,69853,1,0,0:0:0:0:
448,192,70010,1,0,0:0:0:0:
64,192,70167,1,0,0:0:0:0:
448,192,70324,1,0,0:0:0:0:
64,192,70481,1,0,0:0:0:0:
192,192,70638,1,0,0:0:0:0:
64,192,70795,1,0,0:0:0:0:
448,192,70952,1,0,0:0:0:0:
192,192,71109,1,0,0:0:0:0:
320,192,71266,1,0,0:0:0:0:
64,192,71423,1,0,0:0:0:0:
448,192,71580,1,0,0:0:0:0:
320,192,71737,1,0,0:0:0:0:
192,192,71894,1,0,0:0:0:0:
64,192,72052,1,0,0:0:0:0:
192,192,72209,1,0,0:0:0:0:
448,192,72366,1,0,0:0:0:0:
320,192,72523,1,0,0:0:0:0:
64,192,72680,1,0,0:0:0:0:
64,192,72994,1,0,0:0:0:0:
320,192,72994,1,0,0:0:0:0:
448,192,73151,1,0,0:0:0:0:
192,192,73151,1,0,0:0:0:0:
64,192,73308,1,0,0:0:0:0:
192,192,73308,1,0,0:0:0:0:
448,192,73308,1,0,0:0:0:0:
320,192,73465,1,0,0:0:0:0:
448,192,73465,1,0,0:0:0:0:
64,192,73622,1,0,0:0:0:0:
320,192,73622,1,0,0:0:0:0:
192,192,73779,1,0,0:0:0:0:
448,192,73779,1,0,0:0:0:0:
64,192,73936,1,0,0:0:0:0:
448,192,73936,1,0,0:0:0:0:
320,192,74093,1,0,0:0:0:0:
192,192,74093,1,0,0:0:0:0:
448,192,74250,1,0,0:0:0:0:
192,192,74250,1,0,0:0:0:0:
320,192,74408,1,0,0:0:0:0:
64,192,74408,1,0,0:0:0:0:
64,192,74565,1,0,0:0:0:0:
192,192,74565,1,0,0:0:0:0:
320,192,74722,1,0,0:0:0:0:
448,192,74722,1,0,0:0:0:0:
320,192,74879,1,0,0:0:0:0:
64,192,74879,1,0,0:0:0:0:
192,192,75036,1,0,0:0:0:0:
448,192,75036,1,0,0:0:0:0:
64,192,75193,1,0,0:0:0:0:
448,192,75193,1,0,0:0:0:0:
320,192,75350,1,0,0:0:0:0:
192,192,75350,1,0,0:0:0:0:
448,192,75507,1,0,0:0:0:0:
192,192,75507,1,0,0:0:0:0:
320,192,75664,1,0,0:0:0:0:
64,192,75664,1,0,0:0:0:0:
64,192,75821,1,0,0:0:0:0:
192,192,75821,1,0,0:0:0:0:
320,192,75978,1,0,0:0:0:0:
448,192,75978,1,0,0:0:0:0:
320,192,76135,1,0,0:0:0:0:
64,192,76135,1,0,0:0:0:0:
192,192,76292,1,0,0:0:0:0:
448,192,76292,1,0,0:0:0:0:
448,192,76449,1,0,0:0:0:0:
64,192,76449,1,0,0:0:0:0:
192,192,76607,1,0,0:0:0:0:
320,192,76607,1,0,0:0:0:0:
192,192,76764,1,0,0:0:0:0:
448,192,76764,1,0,0:0:0:0:
320,192,76921,1,0,0:0:0:0:
64,192,76921,1,0,0:0:0:0:
64,192,77078,1,0,0:0:0:0:
192,192,77078,1,0,0:0:0:0:
320,192,77235,1,0,0:0:0:0:
448,192,77235,1,0,0:0:0:0:
448,192,77392,1,0,0:0:0:0:
192,192,77392,1,0,0:0:0:0:
320,192,77549,1,0,0:0:0:0:
64,192,77549,1,0,0:0:0:0:
64,192,77706,1,0,0:0:0:0:
448,192,77706,1,0,0:0:0:0:
320,192,77863,1,0,0:0:0:0:
448,192,78020,1,0,0:0:0:0:
192,192,78020,1,0,0:0:0:0:
320,192,78177,1,0,0:0:0:0:
64,192,78177,1,0,0:0:0:0:
64,192,78334,1,0,0:0:0:0:
192,192,78334,1,0,0:0:0:0:
320,192,78491,1,0,0:0:0:0:
448,192,78491,1,0,0:0:0:0:
64,192,78648,1,0,0:0:0:0:
320,192,78648,1,0,0:0:0:0:
192,192,78805,1,0,0:0:0:0:
448,192,78805,1,0,0:0:0:0:
448,192,78963,1,0,0:0:0:0:
64,192,78963,1,0,0:0:0:0:
192,192,79120,1,0,0:0:0:0:
320,192,79120,1,0,0:0:0:0:
448,192,79277,1,0,0:0:0:0:
192,192,79277,1,0,0:0:0:0:
320,192,79434,1,0,0:0:0:0:
64,192,79434,1,0,0:0:0:0:
64,192,79591,1,0,0:0:0:0:
192,192,79591,1,0,0:0:0:0:
320,192,79748,1,0,0:0:0:0:
448,192,79748,1,0,0:0:0:0:
64,192,79905,1,0,0:0:0:0:
320,192,79905,1,0,0:0:0:0:
192,192,80062,1,0,0:0:0:0:
448,192,80062,1,0,0:0:0:0:
448,192,80219,1,0,0:0:0:0:
64,192,80219,1,0,0:0:0:0:
192,192,80376,1,0,0:0:0:0:
320,192,80376,1,0,0:0:0:0:
448,192,80533,1,0,0:0:0:0:
192,192,80533,1,0,0:0:0:0:
320,192,80690,1,0,0:0:0:0:
64,192,80690,1,0,0:0:0:0:
448,192,80847,1,0,0:0:0:0:
192,192,80847,1,0,0:0:0:0:
64,192,80847,1,0,0:0:0:0:
320,192,81004,1,0,0:0:0:0:
448,192,81004,1,0,0:0:0:0:
64,192,81161,1,0,0:0:0:0:
320,192,81161,1,0,0:0:0:0:
192,192,81319,1,0,0:0:0:0:
448,192,81319,1,0,0:0:0:0:
448,192,81476,1,0,0:0:0:0:
320,192,81476,1,0,0:0:0:0:
64,192,81476,1,0,0:0:0:0:
192,192,81633,1,0,0:0:0:0:
320,192,81633,1,0,0:0:0:0:
448,192,81790,1,0,0:0:0:0:
192,192,81790,1,0,0:0:0:0:
320,192,81947,1,0,0:0:0:0:
64,192,81947,1,0,0:0:0:0:
64,192,82104,1,0,0:0:0:0:
192,192,82104,1,0,0:0:0:0:
448,192,82104,1,0,0:0:0:0:
320,192,82261,1,0,0:0:0:0:
448,192,82418,1,0,0:0:0:0:
320,192,82418,1,0,0:0:0:0:
64,192,82418,1,0,0:0:0:0:
192,192,82575,1,0,0:0:0:0:
64,192,82732,1,0,0:0:0:0:
192,192,82732,1,0,0:0:0:0:
448,192,82732,1,0,0:0:0:0:
320,192,82889,1,0,0:0:0:0:
64,192,83046,1,0,0:0:0:0:
448,192,83046,1,0,0:0:0:0:
192,192,83203,1,0,0:0:0:0:
320,192,83203,1,0,0:0:0:0:
64,192,83360,1,0,0:0:0:0:
192,192,83360,1,0,0:0:0:0:
448,192,83360,1,0,0:0:0:0:
320,192,83518,1,0,0:0:0:0:
448,192,83518,1,0,0:0:0:0:
320,192,83675,1,0,0:0:0:0:
192,192,83675,1,0,0:0:0:0:
192,192,83832,1,0,0:0:0:0:
64,192,83832,1,0,0:0:0:0:
64,192,83989,1,0,0:0:0:0:
320,192,83989,1,0,0:0:0:0:
448,192,84146,1,0,0:0:0:0:
320,192,84146,1,0,0:0:0:0:
192,192,84303,1,0,0:0:0:0:
320,192,84303,1,0,0:0:0:0:
64,192,84460,1,0,0:0:0:0:
192,192,84460,1,0,0:0:0:0:
64,192,84617,1,0,0:0:0:0:
320,192,84617,1,0,0:0:0:0:
192,192,84774,1,0,0:0:0:0:
320,192,84774,1,0,0:0:0:0:
192,192,84931,1,0,0:0:0:0:
448,192,84931,1,0,0:0:0:0:
320,192,85088,1,0,0:0:0:0:
448,192,85088,1,0,0:0:0:0:
192,192,85245,1,0,0:0:0:0:
64,192,85245,1,0,0:0:0:0:
320,192,85402,1,0,0:0:0:0:
448,192,85402,1,0,0:0:0:0:
64,192,85559,1,0,0:0:0:0:
192,192,85559,1,0,0:0:0:0:
192,192,85716,1,0,0:0:0:0:
320,192,85716,1,0,0:0:0:0:
64,192,85874,1,0,0:0:0:0:
192,192,85874,1,0,0:0:0:0:
448,192,86031,1,0,0:0:0:0:
320,192,86031,1,0,0:0:0:0:
320,192,86188,1,0,0:0:0:0:
192,192,86188,1,0,0:0:0:0:
192,192,86345,1,0,0:0:0:0:
64,192,86345,1,0,0:0:0:0:
64,192,86502,1,0,0:0:0:0:
320,192,86502,1,0,0:0:0:0:
192,192,86659,1,0,0:0:0:0:
320,192,86659,1,0,0:0:0:0:
192,192,86816,1,0,0:0:0:0:
448,192,86816,1,0,0:0:0:0:
64,192,86973,1,0,0:0:0:0:
192,192,86973,1,0,0:0:0:0:
320,192,87130,1,0,0:0:0:0:
448,192,87130,1,0,0:0:0:0:
64,192,87287,1,0,0:0:0:0:
320,192,87287,1,0,0:0:0:0:
192,192,87444,1,0,0:0:0:0:
448,192,87444,1,0,0:0:0:0:
192,192,87601,1,0,0:0:0:0:
64,192,87601,1,0,0:0:0:0:
320,192,87758,1,0,0:0:0:0:
448,192,87758,1,0,0:0:0:0:
192,192,87915,1,0,0:0:0:0:
64,192,88072,1,0,0:0:0:0:
448,192,88072,1,0,0:0:0:0:
320,192,88230,1,0,0:0:0:0:
192,192,88230,1,0,0:0:0:0:
192,192,88387,1,0,0:0:0:0:
64,192,88387,1,0,0:0:0:0:
448,192,88387,1,0,0:0:0:0:
320,192,88544,1,0,0:0:0:0:
448,192,88544,1,0,0:0:0:0:
320,192,88701,1,0,0:0:0:0:
192,192,88701,1,0,0:0:0:0:
192,192,88858,1,0,0:0:0:0:
64,192,88858,1,0,0:0:0:0:
320,192,89015,1,0,0:0:0:0:
64,192,89015,1,0,0:0:0:0:
320,192,89172,1,0,0:0:0:0:
448,192,89172,1,0,0:0:0:0:
192,192,89329,1,0,0:0:0:0:
320,192,89329,1,0,0:0:0:0:
192,192,89486,1,0,0:0:0:0:
64,192,89486,1,0,0:0:0:0:
64,192,89643,1,0,0:0:0:0:
320,192,89643,1,0,0:0:0:0:
320,192,89800,1,0,0:0:0:0:
192,192,89800,1,0,0:0:0:0:
192,192,89957,1,0,0:0:0:0:
448,192,89957,1,0,0:0:0:0:
320,192,90114,1,0,0:0:0:0:
448,192,90114,1,0,0:0:0:0:
64,192,90271,1,0,0:0:0:0:
192,192,90271,1,0,0:0:0:0:
448,192,90428,1,0,0:0:0:0:
320,192,90428,1,0,0:0:0:0:
192,192,90586,1,0,0:0:0:0:
64,192,90586,1,0,0:0:0:0:
192,192,90743,1,0,0:0:0:0:
320,192,90743,1,0,0:0:0:0:
64,192,90900,1,0,0:0:0:0:
192,192,90900,1,0,0:0:0:0:
448,192,90900,1,0,0:0:0:0:
320,192,91057,1,0,0:0:0:0:
448,192,91057,1,0,0:0:0:0:
320,192,91214,1,0,0:0:0:0:
192,192,91214,1,0,0:0:0:0:
192,192,91371,1,0,0:0:0:0:
64,192,91371,1,0,0:0:0:0:
64,192,91528,1,0,0:0:0:0:
448,192,91528,1,0,0:0:0:0:
320,192,91528,1,0,0:0:0:0:
320,192,91685,1,0,0:0:0:0:
192,192,91685,1,0,0:0:0:0:
192,192,91842,1,0,0:0:0:0:
448,192,91842,1,0,0:0:0:0:
320,192,91999,1,0,0:0:0:0:
64,192,91999,1,0,0:0:0:0:
448,192,92156,1,0,0:0:0:0:
64,192,92156,1,0,0:0:0:0:
192,192,92156,1,0,0:0:0:0:
320,192,92313,1,0,0:0:0:0:
448,192,92470,1,0,0:0:0:0:
320,192,92470,1,0,0:0:0:0:
64,192,92470,1,0,0:0:0:0:
192,192,92627,1,0,0:0:0:0:
64,192,92785,1,0,0:0:0:0:
192,192,92785,1,0,0:0:0:0:
448,192,92785,1,0,0:0:0:0:
320,192,92942,1,0,0:0:0:0:
192,192,93099,1,0,0:0:0:0:
64,192,93099,1,0,0:0:0:0:
320,192,93256,1,0,0:0:0:0:
448,192,93413,1,0,0:0:0:0:
192,192,93413,1,0,0:0:0:0:
64,192,93413,1,0,0:0:0:0:
320,192,93570,1,0,0:0:0:0:
64,192,93727,1,0,0:0:0:0:
448,192,93727,1,0,0:0:0:0:
192,192,93884,1,0,0:0:0:0:
320,192,94041,1,0,0:0:0:0:
448,192,94041,1,0,0:0:0:0:
192,192,94198,1,0,0:0:0:0:
64,192,94355,1,0,0:0:0:0:
448,192,94355,1,0,0:0:0:0:
320,192,94512,1,0,0:0:0:0:
64,192,94669,128,0,94826:0:0:0:0:
448,192,94669,1,0,0:0:0:0:
192,192,94826,128,0,94983:0:0:0:0:
448,192,94983,128,0,95141:0:0:0:0:
64,192,94983,1,0,0:0:0:0:
320,192,95141,128,0,95298:0:0:0:0:
64,192,95298,128,0,95455:0:0:0:0:
448,192,95298,1,0,0:0:0:0:
192,192,95455,128,0,95612:0:0:0:0:
448,192,95612,128,0,95769:0:0:0:0:
64,192,95612,1,0,0:0:0:0:
320,192,95769,128,0,95926:0:0:0:0:
64,192,95926,1,0,0:0:0:0:
448,192,95926,1,0,0:0:0:0:
192,192,95926,1,0,0:0:0:0:
320,192,96083,1,0,0:0:0:0:
448,192,96240,1,0,0:0:0:0:
64,192,96240,1,0,0:0:0:0:
192,192,96397,1,0,0:0:0:0:
448,192,96554,1,0,0:0:0:0:
64,192,96554,1,0,0:0:0:0:
320,192,96711,1,0,0:0:0:0:
192,192,96868,1,0,0:0:0:0:
448,192,96868,1,0,0:0:0:0:
320,192,97025,1,0,0:0:0:0:
64,192,97182,1,0,0:0:0:0:
448,192,97182,1,0,0:0:0:0:
192,192,97261,1,0,0:0:0:0:
320,192,97339,1,0,0:0:0:0:
448,192,97497,128,0,97811:0:0:0:0:
192,192,97497,1,0,0:0:0:0:
320,192,97811,128,0,98125:0:0:0:0:
64,192,97811,1,0,0:0:0:0:
192,192,98125,128,0,98439:0:0:0:0:
448,192,98125,1,0,0:0:0:0:
448,192,98439,1,0,0:0:0:0:
64,192,98439,1,0,0:0:0:0:
320,192,98439,1,0,0:0:0:0:
192,192,98596,1,0,0:0:0:0:
64,192,98753,1,0,0:0:0:0:
448,192,98753,1,0,0:0:0:0:
320,192,98910,1,0,0:0:0:0:
192,192,99067,1,0,0:0:0:0:
64,192,99067,1,0,0:0:0:0:
320,192,99224,1,0,0:0:0:0:
448,192,99381,1,0,0:0:0:0:
64,192,99381,1,0,0:0:0:0:
320,192,99538,1,0,0:0:0:0:
64,192,99696,128,0,99853:0:0:0:0:
192,192,99696,1,0,0:0:0:0:
320,192,99853,128,0,100010:0:0:0:0:
192,192,100010,128,0,100167:0:0:0:0:
64,192,100010,1,0,0:0:0:0:
448,192,100167,128,0,100324:0:0:0:0:
192,192,100324,1,0,0:0:0:0:
64,192,100324,128,0,100481:0:0:0:0:
320,192,100481,128,0,100638:0:0:0:0:
192,192,100638,128,0,100795:0:0:0:0:
64,192,100638,1,0,0:0:0:0:
448,192,100795,128,0,100952:0:0:0:0:
320,192,100952,1,0,0:0:0:0:
192,192,100952,1,0,0:0:0:0:
64,192,100952,1,0,0:0:0:0:
448,192,101109,1,0,0:0:0:0:
320,192,101266,1,0,0:0:0:0:
64,192,101266,1,0,0:0:0:0:
192,192,101423,1,0,0:0:0:0:
320,192,101580,1,0,0:0:0:0:
448,192,101580,1,0,0:0:0:0:
64,192,101737,1,0,0:0:0:0:
192,192,101894,1,0,0:0:0:0:
448,192,101894,1,0,0:0:0:0:
320,192,102052,1,0,0:0:0:0:
448,192,102209,1,0,0:0:0:0:
64,192,102209,1,0,0:0:0:0:
192,192,102287,1,0,0:0:0:0:
320,192,102366,1,0,0:0:0:0:
448,192,102523,128,0,102837:0:0:0:0:
192,192,102523,1,0,0:0:0:0:
320,192,102837,128,0,103151:0:0:0:0:
64,192,102837,1,0,0:0:0:0:
192,192,103151,128,0,103465:0:0:0:0:
448,192,103151,1,0,0:0:0:0:
320,192,103308,1,0,0:0:0:0:
64,192,103308,1,0,0:0:0:0:
64,192,103465,1,0,0:0:0:0:
448,192,103465,1,0,0:0:0:0:
320,192,103465,1,0,0:0:0:0:
192,192,103622,1,0,0:0:0:0:
64,192,103622,1,0,0:0:0:0:
448,192,103779,1,0,0:0:0:0:
192,192,103779,1,0,0:0:0:0:
320,192,103936,1,0,0:0:0:0:
64,192,103936,1,0,0:0:0:0:
64,192,104093,1,0,0:0:0:0:
448,192,104093,1,0,0:0:0:0:
192,192,104250,1,0,0:0:0:0:
320,192,104250,1,0,0:0:0:0:
64,192,104408,1,0,0:0:0:0:
320,192,104408,1,0,0:0:0:0:
192,192,104565,1,0,0:0:0:0:
448,192,104565,1,0,0:0:0:0:
448,192,104722,1,0,0:0:0:0:
320,192,104722,1,0,0:0:0:0:
64,192,104879,1,0,0:0:0:0:
192,192,104879,1,0,0:0:0:0:
192,192,105036,1,0,0:0:0:0:
448,192,105036,1,0,0:0:0:0:
320,192,105193,1,0,0:0:0:0:
64,192,105193,1,0,0:0:0:0:
448,192,105350,1,0,0:0:0:0:
64,192,105350,1,0,0:0:0:0:
320,192,105507,1,0,0:0:0:0:
192,192,105507,1,0,0:0:0:0:
64,192,105664,1,0,0:0:0:0:
320,192,105664,1,0,0:0:0:0:
192,192,105821,1,0,0:0:0:0:
448,192,105821,1,0,0:0:0:0:
320,192,105978,1,0,0:0:0:0:
448,192,105978,1,0,0:0:0:0:
64,192,106135,1,0,0:0:0:0:
192,192,106135,1,0,0:0:0:0:
192,192,106292,1,0,0:0:0:0:
448,192,106292,1,0,0:0:0:0:
320,192,106449,1,0,0:0:0:0:
64,192,106449,1,0,0:0:0:0:
448,192,106607,1,0,0:0:0:0:
64,192,106607,1,0,0:0:0:0:
320,192,106764,1,0,0:0:0:0:
192,192,106764,1,0,0:0:0:0:
64,192,106921,1,0,0:0:0:0:
320,192,106921,1,0,0:0:0:0:
192,192,107078,1,0,0:0:0:0:
448,192,107078,1,0,0:0:0:0:
448,192,107235,1,0,0:0:0:0:
320,192,107235,1,0,0:0:0:0:
192,192,107392,1,0,0:0:0:0:
64,192,107392,1,0,0:0:0:0:
64,192,107549,1,0,0:0:0:0:
320,192,107549,1,0,0:0:0:0:
192,192,107706,1,0,0:0:0:0:
448,192,107706,1,0,0:0:0:0:
64,192,107863,1,0,0:0:0:0:
448,192,107863,1,0,0:0:0:0:
192,192,108020,1,0,0:0:0:0:
64,192,108177,1,0,0:0:0:0:
448,192,108177,1,0,0:0:0:0:
320,192,108334,1,0,0:0:0:0:
192,192,108334,1,0,0:0:0:0:
192,192,108491,1,0,0:0:0:0:
64,192,108491,1,0,0:0:0:0:
448,192,108491,1,0,0:0:0:0:
448,192,108648,1,0,0:0:0:0:
320,192,108648,1,0,0:0:0:0:
192,192,108805,1,0,0:0:0:0:
320,192,108805,1,0,0:0:0:0:
64,192,108963,1,0,0:0:0:0:
192,192,108963,1,0,0:0:0:0:
64,192,109120,1,0,0:0:0:0:
320,192,109120,1,0,0:0:0:0:
320,192,109277,1,0,0:0:0:0:
448,192,109277,1,0,0:0:0:0:
320,192,109434,1,0,0:0:0:0:
192,192,109434,1,0,0:0:0:0:
192,192,109591,1,0,0:0:0:0:
64,192,109591,1,0,0:0:0:0:
320,192,109748,1,0,0:0:0:0:
64,192,109748,1,0,0:0:0:0:
448,192,109748,1,0,0:0:0:0:
320,192,109905,1,0,0:0:0:0:
192,192,109905,1,0,0:0:0:0:
192,192,110062,1,0,0:0:0:0:
448,192,110062,1,0,0:0:0:0:
448,192,110219,1,0,0:0:0:0:
320,192,110219,1,0,0:0:0:0:
64,192,110376,1,0,0:0:0:0:
192,192,110376,1,0,0:0:0:0:
448,192,110533,1,0,0:0:0:0:
320,192,110533,1,0,0:0:0:0:
192,192,110690,1,0,0:0:0:0:
64,192,110690,1,0,0:0:0:0:
320,192,110847,1,0,0:0:0:0:
192,192,110847,1,0,0:0:0:0:
192,192,111004,1,0,0:0:0:0:
64,192,111004,1,0,0:0:0:0:
448,192,111004,1,0,0:0:0:0:
320,192,111161,1,0,0:0:0:0:
448,192,111161,1,0,0:0:0:0:
192,192,111319,1,0,0:0:0:0:
320,192,111319,1,0,0:0:0:0:
192,192,111476,1,0,0:0:0:0:
64,192,111476,1,0,0:0:0:0:
320,192,111633,1,0,0:0:0:0:
64,192,111633,1,0,0:0:0:0:
448,192,111633,1,0,0:0:0:0:
320,192,111790,1,0,0:0:0:0:
192,192,111790,1,0,0:0:0:0:
192,192,111947,1,0,0:0:0:0:
448,192,111947,1,0,0:0:0:0:
64,192,112104,1,0,0:0:0:0:
192,192,112104,1,0,0:0:0:0:
320,192,112261,1,0,0:0:0:0:
448,192,112261,1,0,0:0:0:0:
64,192,112261,1,0,0:0:0:0:
192,192,112418,1,0,0:0:0:0:
448,192,112575,1,0,0:0:0:0:
64,192,112575,1,0,0:0:0:0:
192,192,112575,1,0,0:0:0:0:
320,192,112732,1,0,0:0:0:0:
448,192,112889,1,0,0:0:0:0:
192,192,112889,1,0,0:0:0:0:
64,192,112889,1,0,0:0:0:0:
