osu file format v14

[General]
AudioFilename: Seiryu - waxing and wanding.mp3
AudioLeadIn: 0
PreviewTime: 72994
Countdown: 0
SampleSet: Soft
StackLeniency: 0.7
Mode: 3
LetterboxInBreaks: 0
SpecialStyle: 0
WidescreenStoryboard: 1

[Editor]
DistanceSpacing: 1.5
BeatDivisor: 1
GridSize: 8
TimelineZoom: 1.6

[Metadata]
Title:waxing and wanding
TitleUnicode:waxing and wanding
Artist:Seiryu
ArtistUnicode:青龍
Creator:DanSparce
Version:Easy
Source:beatmania IIDX
Tags:13 DistorteD BEMANI KONAMI REFLEC BEAT limelight plus Ryutaro Nakahara 中原龍太郎 Ryu☆ Ryu* CARDINAL GATE conclusion BLUE DRAGON DANCE SPEED
BeatmapID:706205
BeatmapSetID:316629

[Difficulty]
HPDrainRate:6
CircleSize:4
OverallDifficulty:6
ApproachRate:5
SliderMultiplier:1.4
SliderTickRate:1

[Events]
//Background and Video events
0,0,"BG.jpg",0,0
//Break Periods
//Storyboard Layer 0 (Background)
//Storyboard Layer 1 (Fail)
//Storyboard Layer 2 (Pass)
//Storyboard Layer 3 (Foreground)
//Storyboard Sound Samples

[TimingPoints]
429,314.13612565445,4,2,1,50,1,0
73308,-100,4,2,1,40,0,1
93413,-100,4,2,1,40,0,0

[HitObjects]
64,192,429,128,0,1685:0:0:0:0:
192,192,429,1,0,0:0:0:0:
448,192,1685,1,0,0:0:0:0:
320,192,1999,1,0,0:0:0:0:
192,192,2313,1,0,0:0:0:0:
64,192,2627,1,0,0:0:0:0:
448,192,2942,128,0,4198:0:0:0:0:
64,192,4198,1,0,0:0:0:0:
448,192,4512,1,0,0:0:0:0:
320,192,4826,1,0,0:0:0:0:
192,192,5141,1,0,0:0:0:0:
448,192,5455,1,0,0:0:0:0:
64,192,5455,128,0,6711:0:0:0:0:
448,192,6711,1,0,0:0:0:0:
320,192,7025,1,0,0:0:0:0:
192,192,7339,1,0,0:0:0:0:
64,192,7654,1,0,0:0:0:0:
448,192,7968,1,0,0:0:0:0:
320,192,8596,1,0,0:0:0:0:
64,192,9224,1,0,0:0:0:0:
192,192,9538,1,0,0:0:0:0:
448,192,9853,1,0,0:0:0:0:
320,192,10167,1,0,0:0:0:0:
64,192,10481,1,0,0:0:0:0:
192,192,10795,1,0,0:0:0:0:
448,192,11109,1,0,0:0:0:0:
320,192,11266,1,0,0:0:0:0:
64,192,11423,128,0,11737:0:0:0:0:
192,192,11737,1,0,0:0:0:0:
64,192,12994,1,0,0:0:0:0:
192,192,12994,1,0,0:0:0:0:
448,192,13308,1,0,0:0:0:0:
320,192,13622,1,0,0:0:0:0:
192,192,13936,1,0,0:0:0:0:
64,192,14250,128,0,14565:0:0:0:0:
192,192,14565,128,0,14879:0:0:0:0:
448,192,14879,128,0,15193:0:0:0:0:
320,192,15193,128,0,15507:0:0:0:0:
64,192,15507,1,0,0:0:0:0:
448,192,15821,1,0,0:0:0:0:
320,192,16135,1,0,0:0:0:0:
192,192,16449,1,0,0:0:0:0:
448,192,16764,1,0,0:0:0:0:
64,192,17078,128,0,17392:0:0:0:0:
192,192,17392,128,0,17706:0:0:0:0:
320,192,17706,128,0,18020:0:0:0:0:
64,192,18020,1,0,0:0:0:0:
448,192,18334,1,0,0:0:0:0:
320,192,18648,1,0,0:0:0:0:
192,192,18963,1,0,0:0:0:0:
64,192,19277,128,0,19591:0:0:0:0:
192,192,19591,128,0,19905:0:0:0:0:
448,192,19905,128,0,20219:0:0:0:0:
320,192,20219,128,0,20533:0:0:0:0:
64,192,20533,1,0,0:0:0:0:
448,192,20847,1,0,0:0:0:0:
320,192,21161,1,0,0:0:0:0:
192,192,21476,1,0,0:0:0:0:
448,192,21790,1,0,0:0:0:0:
64,192,22104,128,0,22418:0:0:0:0:
192,192,22418,128,0,22732:0:0:0:0:
320,192,22732,128,0,23046:0:0:0:0:
448,192,23046,1,0,0:0:0:0:
64,192,23046,1,0,0:0:0:0:
192,192,23360,1,0,0:0:0:0:
448,192,23675,1,0,0:0:0:0:
320,192,23989,1,0,0:0:0:0:
64,192,24303,1,0,0:0:0:0:
320,192,24617,1,0,0:0:0:0:
448,192,24931,1,0,0:0:0:0:
192,192,25245,1,0,0:0:0:0:
448,192,25559,1,0,0:0:0:0:
64,192,25874,1,0,0:0:0:0:
192,192,26188,1,0,0:0:0:0:
320,192,26502,1,0,0:0:0:0:
64,192,26816,1,0,0:0:0:0:
448,192,27130,128,0,27444:0:0:0:0:
320,192,27444,128,0,27758:0:0:0:0:
192,192,27758,128,0,28072:0:0:0:0:
64,192,28072,1,0,0:0:0:0:
192,192,28387,1,0,0:0:0:0:
448,192,28701,1,0,0:0:0:0:
320,192,29015,1,0,0:0:0:0:
64,192,29329,1,0,0:0:0:0:
448,192,29643,1,0,0:0:0:0:
192,192,29957,1,0,0:0:0:0:
320,192,30271,1,0,0:0:0:0:
448,192,30586,1,0,0:0:0:0:
64,192,30900,1,0,0:0:0:0:
192,192,31214,1,0,0:0:0:0:
320,192,31528,1,0,0:0:0:0:
64,192,31842,1,0,0:0:0:0:
448,192,32156,128,0,32470:0:0:0:0:
320,192,32470,128,0,32785:0:0:0:0:
192,192,32785,128,0,33099:0:0:0:0:
64,192,33099,1,0,0:0:0:0:
448,192,33099,1,0,0:0:0:0:
192,192,33413,1,0,0:0:0:0:
320,192,33727,1,0,0:0:0:0:
448,192,34041,1,0,0:0:0:0:
64,192,34355,1,0,0:0:0:0:
192,192,34669,1,0,0:0:0:0:
448,192,34983,1,0,0:0:0:0:
320,192,35298,1,0,0:0:0:0:
448,192,35612,1,0,0:0:0:0:
192,192,35926,1,0,0:0:0:0:
320,192,36240,1,0,0:0:0:0:
64,192,36554,1,0,0:0:0:0:
448,192,36868,128,0,37182:0:0:0:0:
320,192,37182,128,0,37497:0:0:0:0:
64,192,37497,128,0,37811:0:0:0:0:
192,192,37811,128,0,38125:0:0:0:0:
448,192,38125,1,0,0:0:0:0:
192,192,38439,1,0,0:0:0:0:
320,192,38753,1,0,0:0:0:0:
64,192,39067,1,0,0:0:0:0:
448,192,39381,1,0,0:0:0:0:
320,192,39696,1,0,0:0:0:0:
64,192,40010,1,0,0:0:0:0:
192,192,40324,1,0,0:0:0:0:
448,192,40638,1,0,0:0:0:0:
320,192,40952,1,0,0:0:0:0:
192,192,41266,1,0,0:0:0:0:
64,192,41580,1,0,0:0:0:0:
448,192,41894,128,0,42209:0:0:0:0:
320,192,42209,128,0,42523:0:0:0:0:
64,192,42523,128,0,42837:0:0:0:0:
192,192,42837,128,0,43151:0:0:0:0:
448,192,43151,1,0,0:0:0:0:
64,192,43151,1,0,0:0:0:0:
320,192,43465,1,0,0:0:0:0:
64,192,43779,1,0,0:0:0:0:
192,192,44093,1,0,0:0:0:0:
448,192,44408,1,0,0:0:0:0:
320,192,44722,1,0,0:0:0:0:
192,192,45036,1,0,0:0:0:0:
64,192,45350,1,0,0:0:0:0:
448,192,45664,1,0,0:0:0:0:
192,192,45978,1,0,0:0:0:0:
320,192,46292,1,0,0:0:0:0:
64,192,46607,1,0,0:0:0:0:
448,192,46921,1,0,0:0:0:0:
64,192,47235,1,0,0:0:0:0:
192,192,47549,1,0,0:0:0:0:
320,192,47863,1,0,0:0:0:0:
448,192,48177,1,0,0:0:0:0:
320,192,48491,1,0,0:0:0:0:
64,192,48805,1,0,0:0:0:0:
192,192,49120,1,0,0:0:0:0:
448,192,49434,1,0,0:0:0:0:
192,192,49748,1,0,0:0:0:0:
64,192,50062,1,0,0:0:0:0:
320,192,50376,1,0,0:0:0:0:
448,192,50690,1,0,0:0:0:0:
320,192,51004,1,0,0:0:0:0:
192,192,51319,1,0,0:0:0:0:
64,192,51633,1,0,0:0:0:0:
448,192,51947,1,0,0:0:0:0:
192,192,52261,1,0,0:0:0:0:
320,192,52575,1,0,0:0:0:0:
64,192,52889,1,0,0:0:0:0:
448,192,53203,128,0,53832:0:0:0:0:
320,192,53832,128,0,54460:0:0:0:0:
64,192,54460,128,0,55088:0:0:0:0:
192,192,55088,128,0,55716:0:0:0:0:
448,192,55716,128,0,56345:0:0:0:0:
320,192,56345,128,0,56973:0:0:0:0:
64,192,56973,128,0,58230:0:0:0:0:
448,192,58230,128,0,58858:0:0:0:0:
320,192,58858,128,0,59486:0:0:0:0:
64,192,59486,128,0,60114:0:0:0:0:
192,192,60114,128,0,60743:0:0:0:0:
448,192,60743,128,0,61371:0:0:0:0:
320,192,61371,128,0,61999:0:0:0:0:
64,192,61999,128,0,63256:0:0:0:0:
448,192,63256,128,0,63884:0:0:0:0:
320,192,63884,128,0,64512:0:0:0:0:
192,192,64512,128,0,65141:0:0:0:0:
64,192,65141,128,0,65769:0:0:0:0:
448,192,65769,128,0,66397:0:0:0:0:
320,192,66397,128,0,67025:0:0:0:0:
192,192,67025,128,0,68282:0:0:0:0:
448,192,68282,128,0,68910:0:0:0:0:
320,192,68910,128,0,69538:0:0:0:0:
192,192,69538,128,0,70167:0:0:0:0:
64,192,70167,128,0,70795:0:0:0:0:
448,192,70795,128,0,71423:0:0:0:0:
320,192,71423,128,0,72052:0:0:0:0:
192,192,72052,128,0,72994:0:0:0:0:
320,192,72994,1,0,0:0:0:0:
448,192,73308,1,0,0:0:0:0:
64,192,73308,1,0,0:0:0:0:
192,192,73622,1,0,0:0:0:0:
448,192,73936,1,0,0:0:0:0:
320,192,74250,1,0,0:0:0:0:
64,192,74565,1,0,0:0:0:0:
448,192,74879,1,0,0:0:0:0:
192,192,75193,1,0,0:0:0:0:
320,192,75507,1,0,0:0:0:0:
64,192,75821,1,0,0:0:0:0:
192,192,76135,1,0,0:0:0:0:
448,192,76449,1,0,0:0:0:0:
320,192,76764,1,0,0:0:0:0:
64,192,77078,1,0,0:0:0:0:
192,192,77392,1,0,0:0:0:0:
320,192,77706,1,0,0:0:0:0:
448,192,78020,1,0,0:0:0:0:
64,192,78334,1,0,0:0:0:0:
448,192,78648,1,0,0:0:0:0:
320,192,78963,1,0,0:0:0:0:
192,192,79277,1,0,0:0:0:0:
64,192,79591,1,0,0:0:0:0:
320,192,79905,1,0,0:0:0:0:
192,192,80219,1,0,0:0:0:0:
448,192,80533,1,0,0:0:0:0:
64,192,80847,1,0,0:0:0:0:
192,192,81476,1,0,0:0:0:0:
448,192,82104,1,0,0:0:0:0:
320,192,82418,1,0,0:0:0:0:
64,192,82732,1,0,0:0:0:0:
192,192,82732,1,0,0:0:0:0:
64,192,83360,1,0,0:0:0:0:
448,192,83360,1,0,0:0:0:0:
192,192,83675,1,0,0:0:0:0:
320,192,83989,1,0,0:0:0:0:
448,192,84303,1,0,0:0:0:0:
64,192,84617,1,0,0:0:0:0:
448,192,84931,1,0,0:0:0:0:
192,192,85245,1,0,0:0:0:0:
320,192,85559,1,0,0:0:0:0:
64,192,85874,1,0,0:0:0:0:
320,192,86188,1,0,0:0:0:0:
448,192,86502,1,0,0:0:0:0:
192,192,86816,1,0,0:0:0:0:
448,192,87130,1,0,0:0:0:0:
320,192,87444,1,0,0:0:0:0:
64,192,87758,1,0,0:0:0:0:
192,192,88072,1,0,0:0:0:0:
448,192,88387,1,0,0:0:0:0:
192,192,88701,1,0,0:0:0:0:
320,192,89015,1,0,0:0:0:0:
64,192,89329,1,0,0:0:0:0:
192,192,89643,1,0,0:0:0:0:
320,192,89957,1,0,0:0:0:0:
64,192,90271,1,0,0:0:0:0:
448,192,90586,1,0,0:0:0:0:
64,192,90900,1,0,0:0:0:0:
192,192,91528,1,0,0:0:0:0:
448,192,92156,1,0,0:0:0:0:
320,192,92470,1,0,0:0:0:0:
192,192,92785,1,0,0:0:0:0:
64,192,92785,1,0,0:0:0:0:
192,192,93413,1,0,0:0:0:0:
64,192,93413,1,0,0:0:0:0:
448,192,93727,1,0,0:0:0:0:
320,192,94041,1,0,0:0:0:0:
192,192,94355,1,0,0:0:0:0:
64,192,94669,128,0,94983:0:0:0:0:
192,192,94983,128,0,95298:0:0:0:0:
448,192,95298,128,0,95612:0:0:0:0:
320,192,95612,1,0,0:0:0:0:
64,192,95926,1,0,0:0:0:0:
448,192,96240,1,0,0:0:0:0:
320,192,96554,1,0,0:0:0:0:
192,192,96868,1,0,0:0:0:0:
448,192,97182,1,0,0:0:0:0:
64,192,97497,128,0,97811:0:0:0:0:
192,192,97811,128,0,98125:0:0:0:0:
320,192,98125,128,0,98439:0:0:0:0:
64,192,98439,1,0,0:0:0:0:
448,192,98753,1,0,0:0:0:0:
320,192,99067,1,0,0:0:0:0:
192,192,99381,1,0,0:0:0:0:
64,192,99696,128,0,100010:0:0:0:0:
192,192,100010,128,0,100324:0:0:0:0:
448,192,100324,128,0,100638:0:0:0:0:
320,192,100638,1,0,0:0:0:0:
64,192,100952,1,0,0:0:0:0:
448,192,101266,1,0,0:0:0:0:
320,192,101580,1,0,0:0:0:0:
192,192,101894,1,0,0:0:0:0:
448,192,102209,1,0,0:0:0:0:
64,192,102523,128,0,102837:0:0:0:0:
192,192,102837,128,0,103151:0:0:0:0:
320,192,103151,128,0,103465:0:0:0:0:
448,192,103465,1,0,0:0:0:0:
64,192,103465,1,0,0:0:0:0:
192,192,103779,1,0,0:0:0:0:
320,192,104093,1,0,0:0:0:0:
448,192,104408,1,0,0:0:0:0:
64,192,104722,1,0,0:0:0:0:
320,192,105036,1,0,0:0:0:0:
192,192,105350,1,0,0:0:0:0:
448,192,105664,1,0,0:0:0:0:
64,192,105978,1,0,0:0:0:0:
448,192,106292,1,0,0:0:0:0:
320,192,106607,1,0,0:0:0:0:
192,192,106921,1,0,0:0:0:0:
64,192,107235,1,0,0:0:0:0:
448,192,107549,128,0,107863:0:0:0:0:
320,192,107863,128,0,108177:0:0:0:0:
192,192,108177,128,0,108491:0:0:0:0:
64,192,108491,1,0,0:0:0:0:
448,192,108805,1,0,0:0:0:0:
192,192,109120,1,0,0:0:0:0:
320,192,109434,1,0,0:0:0:0:
64,192,109748,1,0,0:0:0:0:
448,192,110062,1,0,0:0:0:0:
320,192,110376,1,0,0:0:0:0:
192,192,110690,1,0,0:0:0:0:
64,192,111004,1,0,0:0:0:0:
192,192,111633,1,0,0:0:0:0:
448,192,112261,1,0,0:0:0:0:
320,192,112575,1,0,0:0:0:0:
192,192,112889,1,0,0:0:0:0:
64,192,112889,1,0,0:0:0:0:
