osu file format v6

[General]
AudioFilename: 57 - waxing and wanding.mp3
AudioLeadIn: 2055
PreviewTime: 12861
Countdown: 1
SampleSet: Normal
StackLeniency: 0.2
Mode: 0
LetterboxInBreaks: 1

[Editor]
Bookmarks: -28,74736
DistanceSpacing: 0.699999988079071
BeatDivisor: 4
GridSize: 8

[Metadata]
Title:Waxing and Wanding
Artist:Seiryu
Creator:osu_CN_yaya
Version:Normal
Source:
Tags:S_i_R_i_R_u IIDX

[Difficulty]
HPDrainRate:3
CircleSize:4
OverallDifficulty:4
SliderMultiplier:1.1
SliderTickRate:1

[Events]
//Background and Video events
0,0,"qinglong.jpg"
//Break Periods
2,33155,36662
2,53260,61479
2,103522,104515
//Storyboard Layer 0 (Background)
//Storyboard Layer 1 (Fail)
//Storyboard Layer 2 (Pass)
//Storyboard Layer 3 (Foreground)
//Storyboard Sound Samples
//Background Colour Transformations
3,100,0,0,0

[TimingPoints]
286,314.13612565445,4,1,0,100,1,0
600,-200,4,1,0,100,0,0
42851,-200,4,1,0,100,0,0
47877,-200,4,1,0,100,0,0
62484,-200,4,2,0,100,0,0
73165,-200,4,1,0,100,0,0

[Colours]
Combo1 : 187,187,119
Combo2 : 0,128,255
Combo3 : 0,198,150

[HitObjects]
256,192,286,1,4
144,80,914,2,8,B|16:80,2,110,8|0|8
224,80,2484,1,0
304,80,2799,2,0,B|304:128|273:152|222:160,1,110,0|8
176,208,3741,1,0
176,288,4055,6,0,B|128:288,2,27.5
256,288,4683,2,0,B|336:288,1,55,8|0
296,216,5312,2,0,B|360:216,4,55,0|0|8|0|0
296,136,6882,2,0,B|288:88|240:72|208:80,1,110
216,152,7825,1,0
216,232,8139,6,0,B|216:312,1,55,0|8
288,264,8767,2,0,B|288:200,1,55,0|8
360,240,9395,1,0
440,216,9710,1,8
448,136,10024,5,0
368,136,10338,2,0,B|288:136,1,55,8|0
256,192,10966,1,0
256,192,11123,2,0,B|184:192|176:248,1,82.5,0|4
112,64,12851,5,4
176,112,13165,1,8
256,112,13479,2,0,B|304:112|328:144|328:176|320:208,1,110,0|0
248,192,14422,1,8
168,192,14736,2,0,B|104:192,2,55,0|8|0
168,272,15678,6,0,B|224:272|224:336|328:328,1,165,8|0
320,248,16935,1,8
384,296,17249,2,0,B|408:264|400:208|368:176|312:168,1,165,0|8
248,168,18505,2,0,B|128:168,1,110
136,88,19448,5,8
216,88,19762,2,0,B|256:88|264:48,2,55,0|8|0
136,88,20704,2,0,B|80:88,2,55,8|0|8
176,160,21647,2,0,B|176:200|112:200|128:272,1,110,4|0
208,256,22589,5,8
288,256,22903,1,0
368,256,23217,1,8
288,256,23532,1,0
368,256,23846,1,8
424,192,24160,6,0,B|424:136,2,55,0|8|0
352,160,25102,2,8,B|296:168|264:128|264:88,1,110
264,104,26045,5,4
112,104,26673,1,0
112,248,27301,1,0
264,248,27929,1,0
264,248,28244,1,8
352,248,28558,6,0,B|392:248,2,27.5,0|0|8
336,168,29186,2,0,B|368:144,2,27.5,0|0|8
264,128,29814,2,0,B|280:88,2,27.5,0|0|8
184,128,30443,6,0,B|48:128,2,110,4|0|0
184,208,32013,1,8
184,288,32327,2,0,B|232:288|256:256|264:224,1,110,0|4
64,192,37982,6,0,B|176:192,1,110,4|0
224,128,38924,1,8
224,128,39081,1,0
224,128,39238,1,0
304,128,39553,2,8,B|344:128|376:152|392:200,2,110
264,200,41123,5,0
184,200,41437,2,0,B|144:200,2,27.5,8|0|0
184,280,42066,1,8
120,328,42380,2,0,B|80:352,2,27.5,0|0|8
80,256,43008,6,0,B|72:208|152:224|144:152,1,110,4|0
144,88,43950,1,8
224,88,44265,2,0,B|264:88|264:184|200:168,1,110
152,128,45207,2,0,B|96:128|72:176|80:208,1,110,8|8
152,208,46149,5,0
152,208,46464,1,8
192,280,46778,2,0,B|160:312,2,27.5,0|0|8
280,280,47406,1,0
320,280,47563,1,0
360,280,47720,1,8
416,192,48034,5,0
336,192,48348,2,0,B|272:192|280:112|192:112,1,165,8|0
200,192,49605,1,8
128,224,49919,1,0
128,264,50076,1,0
128,304,50233,1,8
200,336,50547,6,0,B|224:352,2,27.5,0|0|8
232,264,51176,1,0
296,216,51490,1,8
376,216,51804,2,0,B|376:336,1,110
296,328,52746,1,8
216,328,53060,1,4
256,192,62799,5,0
256,192,63113,1,2
208,256,63427,1,0
128,256,63741,2,0,B|88:256|56:288|56:312|56:344,1,110,2|2
128,336,64683,2,0,B|304:336,1,165,0|2
344,264,65940,5,0
344,184,66254,1,2
272,224,66568,1,0
272,144,66882,1,2
200,184,67196,2,0,B|152:192|120:152|120:112,1,110
120,48,68139,6,0,B|120:224,1,165,2|0
120,288,69395,2,0,B|120:320|96:336,2,55,2|0|2
200,288,70338,1,0
280,288,70652,1,2
312,288,70809,6,0,B|376:288|368:232|432:240,1,110
407,240,71594,1,0
408,160,71909,2,0,B|408:96,2,55,2|0|2
328,160,72851,1,0
328,160,73008,1,0
328,160,73165,1,4
248,160,73479,6,0,B|208:160|184:192,1,55,8|0
248,240,74107,2,0,B|208:240|184:272,1,55,8|0
248,320,74736,2,0,B|208:320|184:352,1,55,8|0
120,336,75364,1,8
120,336,75521,1,0
120,336,75678,1,0
120,256,75992,6,8,B|120:200|48:216|56:112,1,110
120,112,76935,2,0,B|192:112,1,55,0|8
256,112,77563,1,0
352,112,77877,5,8
352,152,78034,1,0
352,192,78191,1,0
432,168,78505,1,8
432,208,78662,1,0
432,248,78820,1,0
256,208,78977,12,8,80390
256,192,80704,5,0
208,256,81018,2,8,B|160:256|136:288|128:312|136:352,2,110
208,336,82589,2,0,B|328:336,1,110,0|4
392,336,83532,1,8
448,272,83846,5,0
448,112,84474,1,0
288,112,85102,1,0
128,112,85731,1,0
128,112,86045,6,8,B|128:168|80:152|32:152,1,110
40,232,86987,1,0
40,272,87144,1,0
40,312,87301,1,8
120,296,87615,2,0,B|160:296|192:296|224:312|224:240,1,110
272,200,88558,5,8
328,144,88872,1,0
400,112,89186,1,8
400,192,89500,2,0,B|400:256,1,55,0|8
472,224,90128,2,0,B|472:313,2,55,0|8|0
472,136,91071,6,0,B|472:80|376:64|344:104|360:176,1,165,8|0
360,216,92327,2,0,B|360:264,2,27.5,8|0|4
256,80,93270,5,4
144,192,93898,1,0
256,304,94526,1,4
368,192,95155,1,0
288,200,95469,6,0,B|288:160|320:112|376:112,1,110,8|8
432,120,96411,1,0
432,120,96725,2,0,B|264:120,1,165,8|0
192,48,98296,5,8
192,48,98610,1,0
80,128,99238,1,0
80,240,99867,1,0
80,240,100181,1,8
128,304,100495,2,0,B|256:304,1,110
320,304,101437,5,12
432,224,102066,1,8
400,152,102380,1,0
368,136,102537,1,0
336,120,102694,1,8
256,112,103008,1,0
256,192,103322,5,12
96,104,105835,5,4
144,216,106464,2,0,B|184:216|216:240,1,55,8|0
168,296,107092,2,0,B|208:304|232:336,2,55,8|0|8
88,296,108034,6,0,B|80:240|120:224|176:224|168:144,1,165,0|8
168,88,109291,2,0,B|168:32,2,55,0|8|0
240,128,110233,2,0,B|272:88,2,27.5,8|0|0
240,128,110861,5,8
240,208,111176,1,0
240,248,111333,1,0
240,288,111490,1,8
256,208,111647,12,4,112746
