osu file format v5

[General]
AudioFilename: Seiryu-Time to Air.mp3
AudioLeadIn: 2967
PreviewTime: -1
Countdown: 0
SampleSet: Soft
StackLeniency: 0.7
Mode: 0
LetterboxInBreaks: 1

[Metadata]
Title:Time to Air
Artist:Seiryu
Creator:Alace
Version:Normal
Source:beatmania IIDX 15
Tags:

[Difficulty]
HPDrainRate:3
CircleSize:4
OverallDifficulty:6
SliderMultiplier:1.1
SliderTickRate:2

[Events]
//Background and Video events
0,0,"Time to Air2.png"
//Break Periods
2,60814,64590
//Storyboard Layer 0 (Background)
//Storyboard Layer 1 (Failing)
//Storyboard Layer 2 (Passing)
//Storyboard Layer 3 (Foreground)
//Storyboard Sound Samples
//Background Colour Transformations
3,100,0,0,0

[TimingPoints]
300,314.13612565445,4,1,1,100,1
1399,314.13612565445,4,1,1,73,0
2656,314.13612565445,4,1,1,100,0
7996,314.13612565445,4,2,0,100,0
10195,314.13612565445,4,1,0,100,0
18991,314.13612565445,4,2,0,100,0
20326,314.13612565445,4,1,0,100,0
24331,314.13612565445,4,2,1,100,0
24959,314.13612565445,4,2,1,77,0
25587,314.13612565445,4,1,0,100,0
27472,314.13612565445,4,2,1,78,0
28729,314.13612565445,4,2,1,98,0
29357,314.13612565445,4,2,1,78,0
31635,314.13612565445,4,2,0,100,0
32341,314.13612565445,4,2,0,100,0
35404,314.13612565445,4,1,1,100,0
41923,314.13612565445,4,1,0,100,0
42551,314.13612565445,4,2,1,74,0
43170,314.13612565445,4,1,0,100,0
45221,314.13612565445,4,2,1,79,0
45692,314.13612565445,4,1,0,100,0
59357,314.13612565445,4,2,0,100,0
75614,314.13612565445,4,1,0,100,0
90614,314.13612565445,4,2,1,74,0
91870,314.13612565445,4,1,0,100,0
94776,314.13612565445,4,2,1,78,0
96739,314.13612565445,4,1,0,100,0
107027,314.13612565445,4,2,0,100,0

[Colours]
Combo1 : 192,163,254
Combo2 : 85,190,247
Combo3 : 177,235,169
Combo4 : 247,204,115

[HitObjects]
64,56,300,2,0,B|176:56,1,110,0|8
248,56,928,2,0,B|248:168,1,110,0|8
248,240,1556,2,0,B|360:240,1,110,0|0
432,240,2184,2,0,B|432:352,1,110,0|0
352,352,2813,5,4
352,200,3441,1,0
360,48,4069,1,4
352,200,4697,6,0,B|288:200,4,55
432,200,5640,6,0,B|480:160|424:96,1,110,8|0
368,48,6268,1,8
288,48,6582,2,0,B|176:48|80:120,2,220,0|0|0
368,48,8153,6,0,B|408:88,5,55,0|0|0|0|0|0
256,192,9095,12,0,10038
360,184,10352,6,0,B|272:112|272:112|184:192|184:192|264:256,1,330,4|8
328,288,11608,6,0,B|240:360|240:360|160:280|160:280|240:208|248:200,1,330,4|8
296,160,12865,5,0
352,104,13179,1,8
296,48,13493,1,0
240,104,13807,1,8
160,104,14121,2,0,B|56:96|40:208|120:200|168:200,1,220,0|4
248,200,15064,1,8
248,200,15221,1,8
248,200,15378,5,0
168,200,15692,2,0,B|96:248|80:176,1,110,8|0
32,120,16320,1,8
112,120,16635,2,0,B|448:120,1,330
440,192,17891,6,0,B|104:192,1,330
104,264,19148,6,2,B|152:304,3,55,8|2|2|8
184,296,19776,6,8,B|224:256,3,55,2|2|8|8
248,224,20404,5,4
336,96,21032,1,0
192,160,21661,1,4
280,32,22289,1,0
200,32,22603,1,0
120,32,22917,6,0,B|48:144|136:240,2,220,4|0|4
200,32,24488,1,8
272,32,24802,1,8
344,32,25116,1,4
344,32,25273,1,4
344,32,25430,5,4
344,112,25745,2,0,B|432:192|432:192|328:192,1,220,4|2
328,264,26687,2,0,B|264:360|264:360|224:256,1,220,2|4
224,184,27629,1,4
224,184,27786,1,4
224,184,27943,1,4
224,104,28258,5,4
224,104,28415,1,4
224,104,28572,1,4
272,40,28886,5,8
320,104,29200,1,8
280,168,29514,2,4,B|280:224,5,55
256,192,30457,12,0,31556
256,192,31713,5,2
256,192,31870,1,2
256,192,32027,1,2
136,192,32498,6,0,B|256:312|440:184,1,330,2|2
440,112,33755,6,0,B|384:64|384:72,5,55,0|2|0|2|2|2
280,72,35012,5,2
280,72,35169,1,2
280,72,35326,1,2
280,72,35483,2,8,B|168:72,1,110,0|8
96,64,36111,2,0,B|96:176,1,110,8|0
168,168,36739,2,0,B|280:168,1,110,8|8
352,168,37368,1,8
480,256,37996,5,0
424,312,38310,1,8
368,256,38624,1,0
312,312,38938,1,8
256,256,39252,2,0,B|160:320|160:176|352:128|112:136|104:64|88:72|64:128,1,330,0|4
24,176,40509,5,0
88,224,40823,1,2
144,168,41137,2,0,B|96:136|72:80,1,110,0|2
152,48,41765,1,2
232,48,42080,2,2,B|296:48|336:96,1,110
376,152,42708,1,4
416,152,42865,1,4
416,192,43022,1,4
416,264,43336,5,0
336,264,43650,2,0,B|264:352,1,110,2|0
200,303,44279,2,2,B|270:218,1,110,2|2
208,168,44907,2,2,B|136:256,1,110,2|4
138,253,45378,1,4
138,253,45535,1,4
61,254,45849,5,2
61,174,46163,1,0
61,94,46478,1,2
133,94,46792,2,2,B|245:94,1,110
317,94,47420,2,0,B|317:158,4,55,2|8|0|8|8
392,88,48362,5,2
448,144,48676,1,0
392,200,48991,1,2
448,256,49305,2,4,B|448:320,6,55,4|0|8|0|8|8|8
368,256,50561,6,4,B|88:256|88:256|88:144,1,385,4|8
88,151,51818,6,0,B|88:46|88:46|368:46,1,385,8|8
368,47,53074,6,0,B|368:153|368:153|88:153,1,385,8|8
88,153,54331,5,8
88,232,54645,1,0
160,232,54959,2,2,B|160:288,3,55
160,328,55587,6,0,B|272:328,1,110
272,248,56216,2,2,B|216:248,3,55
176,248,56844,6,0,B|176:128,1,110
176,64,57472,2,2,B|232:64,3,55
272,64,58101,6,0,B|272:184,1,110
272,248,58729,1,4
272,248,58886,1,4
272,320,59200,1,0
256,192,59357,12,0,60614
8,48,65640,6,2,B|320:288|328:296|320:288,1,385
312,283,66896,6,2,B|464:112|464:112|312:56,1,385,2|2
318,55,68153,6,2,B|208:104|208:104|208:208|208:208|112:344,1,385
114,338,69409,6,2,B|32:248|32:248|120:184|120:184|40:120|40:120|88:80,1,385
79,86,70666,5,2
192,80,71137,2,8,B|248:80,1,55
248,192,71765,2,2,B|312:192,1,55
312,304,72394,2,8,B|376:304,1,55
480,304,73022,6,2,B|480:240,1,55
360,248,73650,2,8,B|360:192,1,55
240,184,74279,2,2,B|240:128,1,55
96,72,75064,6,4,B|152:72,1,55
224,72,75535,1,2
264,72,75692,2,0,B|376:80|504:176|496:304|304:336|288:312|272:312,2,440,4|4|4
224,72,78362,6,0,B|224:136,3,55,2|0|2|0
184,128,78991,6,0,B|184:192,3,55,2|0|2|0
144,184,79619,6,0,B|144:256,3,55,2|0|2|0
104,240,80247,6,0,B|104:296,2,55,2|2|2
256,192,80718,12,4,81347
392,80,81975,6,0,B|328:56|296:112,1,110,8|0
368,152,82603,2,0,B|432:144|464:200,1,110,8|0
392,232,83231,2,0,B|328:216|304:280,1,110,8|0
224,280,83860,1,8
144,280,84174,2,0,B|96:320,2,55,8|0|8
184,216,84802,6,0,B|280:136,1,110,8|2
344,152,85430,1,0
424,152,85745,1,2
384,216,86059,1,2
384,288,86373,1,2
384,328,86530,1,2
384,368,86687,1,2
312,328,87001,6,2,B|232:328|224:272,1,110
296,248,87629,1,0
360,208,87943,2,2,B|312:144|256:160,1,110
216,216,88572,1,0
160,272,88886,2,2,B|96:240|104:184,1,110
152,128,89514,6,2,B|224:120|264:136|264:152,1,110
336,144,90142,1,4
392,88,90457,1,4
464,88,90771,5,4
464,88,90928,1,4
464,88,91085,1,4
464,160,91399,5,4
464,160,91556,1,4
464,160,91713,1,4
384,160,92027,6,0,B|216:40|16:168,1,385,4|2
18,163,93284,6,0,B|216:280|392:152,1,385,2|2
384,158,94540,5,2
384,272,95012,2,4,B|344:232,1,55
232,272,95640,2,4,B|192:224,1,55
88,272,96268,2,4,B|48:224,1,55
88,80,97053,6,0,B|216:80,1,110,0|8
200,160,97682,2,0,B|320:160,1,110,0|8
312,232,98310,2,0,B|440:232,1,110,0|8
424,304,98938,6,2,B|304:304,1,110
232,304,99567,2,2,B|112:304,1,110
48,304,100195,1,4
48,224,100509,1,4
256,192,100823,12,0,101765
256,184,102080,6,0,B|208:136,3,55,8|0|8|0
240,112,102708,6,0,B|288:72,3,55,2|0|2|0
312,96,103336,6,0,B|352:136,3,55,8|8|2|2
336,168,103964,6,0,B|280:208,3,55,8|8|2|2
256,224,104593,6,8,B|256:280,1,55
216,280,104907,2,8,B|152:280,1,55
120,280,105221,6,2,B|120:216,1,55
120,184,105535,2,2,B|56:184,1,55
64,144,105849,6,0,B|64:80,1,55,4|2
64,48,106163,2,2,B|128:48,1,55,4|2
160,48,106478,5,0
200,48,106635,1,0
240,48,106792,1,0
280,48,106949,1,0
320,48,107106,6,0,B|448:168|448:168|328:344,1,385,4|4
328,340,108362,6,0,B|104:336|104:336|24:192,1,385,4|4
24,196,109619,6,0,B|128:56|128:56|344:56,1,385,4|4
256,192,110875,12,0,112132
