osu file format v5

[General]
AudioFilename: Seiryu-Time to Air.mp3
AudioLeadIn: 2978
PreviewTime: -1
Countdown: 0
SampleSet: Normal
StackLeniency: 0.7
Mode: 0
LetterboxInBreaks: 1

[Metadata]
Title:Time to Air
Artist:Seiryu
Creator:Alace
Version:Beginner
Source:beatmania IIDX 15
Tags:

[Difficulty]
HPDrainRate:1
CircleSize:3
OverallDifficulty:5
SliderMultiplier:0.8
SliderTickRate:2

[Events]
//Background and Video events
0,0,"Time to Air2.png"
//Break Periods
2,60480,64420
//Storyboard Layer 0 (Background)
//Storyboard Layer 1 (Failing)
//Storyboard Layer 2 (Passing)
//Storyboard Layer 3 (Foreground)
//Storyboard Sound Samples
//Background Colour Transformations
3,100,0,0,0

[TimingPoints]
300,314.13612565445,4,1,1,100,1
2656,314.13612565445,4,1,0,100,0
8074,314.13612565445,4,2,1,58,0
10195,314.13612565445,4,1,0,100,0
30142,314.13612565445,4,1,1,100,0
36582,314.13612565445,4,2,1,85,0
37682,314.13612565445,4,1,0,100,0
40352,314.13612565445,4,1,1,100,0
44043,314.13612565445,4,2,1,77,0
44907,314.13612565445,4,1,0,100,0
46478,314.13612565445,4,2,1,78,0
47420,314.13612565445,4,1,0,100,0
59043,314.13612565445,4,1,1,100,0
65090,314.13612565445,4,2,1,100,0
72865,314.13612565445,4,2,1,73,0
75378,314.13612565445,4,1,1,100,0
82289,314.13612565445,4,2,1,66,0
85902,314.13612565445,4,2,1,100,0
86687,314.13612565445,4,2,0,100,0
96739,314.13612565445,4,1,0,100,0
108205,314.13612565445,4,2,0,100,0
109462,314.13612565445,4,2,1,53,0

[Colours]
Combo1 : 192,163,254
Combo2 : 85,190,247
Combo3 : 177,235,169
Combo4 : 247,204,115

[HitObjects]
136,72,300,2,0,B|384:72,1,240,4|0
376,152,1556,6,0,B|136:152|128:152,1,240,4|0
136,232,2813,6,0,B|200:288,3,80,2|0|2|0
264,328,4069,6,0,B|328:272,3,80,2|2|2|2
376,216,5326,6,0,B|432:240|456:208,1,80,4|0
456,128,5954,1,0
376,128,6268,1,0
296,128,6582,6,0,B|240:200|56:136|56:128,1,240,4|0
72,56,7839,1,4
256,192,8153,12,0,10038
256,176,10352,5,0
152,296,10980,1,8
40,176,11608,1,0
152,64,12237,1,8
256,184,12865,1,0
360,304,13493,1,8
456,176,14121,1,2
456,176,14436,1,2
456,176,14750,1,2
352,56,15378,6,0,B|304:32|224:48|208:96,1,160,0|8
72,184,16635,1,0
216,256,17263,2,0,B|280:272|384:216,1,160,8|0
448,80,18519,1,8
288,80,19148,2,2,B|200:80,3,80
128,80,20404,5,0
128,240,21032,1,2
288,240,21661,2,0,B|456:240,1,160,0|2
448,80,22917,2,0,B|280:80,1,160,0|2
208,80,23860,1,0
128,80,24174,1,2
32,208,24802,5,2
120,336,25430,1,0
200,336,25745,1,2
280,336,26059,1,2
440,336,26687,1,0
440,176,27315,1,2
280,176,27943,1,0
120,176,28572,2,2,B|120:264,3,80
352,296,30457,6,0,B|160:280|16:88,1,400
256,88,32970,6,0,B|384:88|384:88|256:176|256:176|376:176,1,400
176,320,35483,5,0
96,320,35797,1,0
96,240,36111,1,0
176,240,36425,1,0
176,160,36739,1,4
96,160,37053,1,4
136,88,37368,1,4
296,88,37996,5,0
296,168,38310,1,0
296,248,38624,1,0
296,328,38938,1,0
256,192,39252,12,0,40195
264,192,40509,6,0,B|192:256|120:184,3,160,8|0|8|0
32,56,43022,1,2
192,56,43650,1,2
352,56,44279,2,6,B|352:104,2,40,4|4|4
352,296,45535,5,2
192,296,46163,1,2
32,296,46792,2,0,B|32:248,2,40,4|4|4
96,64,48048,5,0
256,64,48676,1,0
416,64,49305,2,0,B|344:120,1,80,4|4
296,168,49933,2,0,B|240:104,1,80,4|4
184,48,50561,5,0
80,168,51190,1,2
80,328,51818,2,0,B|248:328,1,160,0|2
400,328,53074,2,0,B|400:160,1,160,2|2
280,56,54331,1,2
280,136,54645,1,2
200,136,54959,1,2
200,216,55273,1,2
120,216,55587,1,4
440,184,56844,5,4
120,184,58101,1,4
440,176,59357,2,0,B|368:240|368:240|304:168|304:168|256:192,1,240,4|0
256,184,65640,5,2
256,184,66896,5,2
256,184,68153,5,2
256,184,69409,5,2
256,184,70666,5,2
256,184,71923,5,2
256,184,73179,5,0
416,184,73807,1,2
416,344,74436,1,2
256,344,75064,1,2
96,344,75692,2,0,B|16:192|112:32,2,320,2|2|2
176,344,78519,1,0
256,344,78834,1,8
416,344,79462,5,0
416,264,79776,1,8
416,184,80090,1,0
416,104,80404,2,0,B|328:104,1,80
256,104,81032,1,8
176,104,81347,1,8
256,200,81975,5,0
416,200,82603,2,0,B|384:288|304:312,1,160,4|4
144,328,83860,2,0,B|56:248|112:184,1,160,4|4
224,72,85116,2,0,B|272:40|384:72,1,160,4|4
384,152,86059,1,8
304,152,86373,1,8
144,152,87001,5,4
136,312,87629,1,8
280,240,88258,1,4
280,80,88886,1,8
416,160,89514,1,4
416,8,90142,1,8
416,168,90771,1,4
416,248,91085,1,8
416,328,91399,1,8
272,256,92027,5,4
128,176,92656,1,8
272,112,93284,1,4
312,40,93598,1,8
352,112,93912,1,8
496,176,94540,1,4
352,248,95169,1,8
208,176,95797,1,4
168,248,96111,1,8
128,176,96425,1,8
16,56,97053,6,4,B|184:56,1,160,2|4
336,48,98310,2,2,B|368:80|368:80|336:104,2,80
344,208,99567,2,4,B|176:208,1,160,2|4
24,208,100823,2,2,B|-8:240|-8:240|24:264,2,80
184,304,102080,5,2
256,160,102708,1,0
344,24,103336,1,2
424,160,103964,1,0
488,304,104593,1,2
328,304,105221,1,0
168,304,105849,1,2
8,304,106478,1,2
112,184,107106,6,2,B|112:96,3,80
192,104,108362,2,2,B|192:192,3,80
272,184,109619,2,6,B|272:96,3,80,4|4|4|4
256,192,110875,12,0,112132
